#VERSION:0.83;
#TITLE:Breaking Up;
#SUBTITLE:;
#ARTIST:Charli XCX;
#TITLETRANSLIT:;
#SUBTITLETRANSLIT:;
#ARTISTTRANSLIT:;
#GENRE:;
#ORIGIN:;
#CREDIT:;
#BANNER:banner.png;
#BACKGROUND:Breaking Up-bg.png;
#PREVIEWVID:;
#JACKET:jacket.png;
#CDIMAGE:;
#DISCIMAGE:;
#LYRICSPATH:;
#CDTITLE:;
#MUSIC:Breaking Up.ogg;
#OFFSET:-1.387334;
#SAMPLESTART:89.319992;
#SAMPLELENGTH:12.000000;
#SELECTABLE:YES;
#BPMS:0.000=131.000;
#STOPS:187.000=1.374;
#DELAYS:;
#WARPS:;
#TIMESIGNATURES:0.000=4=4;
#TICKCOUNTS:0.000=4;
#COMBOS:0.000=1;
#SPEEDS:0.000=1.000=0.000=0;
#SCROLLS:0.000=1.000;
#FAKES:;
#LABELS:0.000=Song Start;
#BGCHANGES:;
#KEYSOUNDS:;
#ATTACKS:
;

//---------------dance-single - ----------------
#NOTEDATA:;
#CHARTNAME:;
#STEPSTYPE:dance-single;
#DESCRIPTION:;
#CHARTSTYLE:;
#DIFFICULTY:Beginner;
#METER:1;
#RADARVALUES:0.106787,0.131831,0.000000,0.000000,0.000000,101.000000,101.000000,0.000000,0.000000,0.000000,0.000000,0.000000,0.000000,0.000000,0.106787,0.131831,0.000000,0.000000,0.000000,101.000000,101.000000,0.000000,0.000000,0.000000,0.000000,0.000000,0.000000,0.000000;
#CREDIT:;
#NOTES:
0000
0000
0000
0000
,
0000
0000
0000
0000
,
0000
0000
0000
0000
,
0000
0000
0000
0000
,
1000
0000
1000
0000
,
0001
0000
0001
0000
,
0100
0000
0100
0000
,
0010
0000
0010
0000
,
1000
0000
0000
0000
,
0100
0000
0000
0000
,
0010
0000
0010
0000
,
0001
0000
0001
0000
,
1000
0000
0000
0000
,
0010
0000
0000
0000
,
0100
0000
0100
0000
,
0001
0000
0000
0000
,
1000
0000
1000
0000
,
0100
0000
0100
0000
,
1000
0000
1000
0000
,
0001
0000
0001
0000
,
0100
0000
0100
0000
,
0010
0000
0010
0000
,
0100
0000
0100
0000
,
0001
0000
0000
0001
,
0001
0000
0000
0000
,
1000
0000
0000
0000
,
0100
0000
0000
0000
,
1000
0000
0000
0010
,
0010
0000
0000
0000
,
0100
0000
0000
0000
,
0001
0000
0000
0000
,
0010
0000
0000
0100
,
0100
0000
1000
0000
,
0100
0000
0000
0000
,
1000
0000
0010
0000
,
1000
0000
0000
0000
,
0010
0000
0100
0000
,
0010
0000
0000
0000
,
0100
0000
0001
0000
,
0100
0000
0000
0000
,
0001
0000
0000
0000
,
0010
0000
0000
0000
,
0100
0000
0100
0000
,
1000
0000
1000
0000
,
0001
0000
0000
0000
,
0100
0000
0000
0000
,
0010
0000
0000
0000
,
0000
1000
0000
1000
,
0000
0001
0000
0000
,
0000
0001
0000
0001
,
0000
1000
0000
0000
,
0000
0010
0000
0010
,
0000
0100
0000
0000
,
0000
0100
0000
0100
,
0000
0010
0000
0000
,
0000
1000
0000
1000
,
0000
0100
0000
0000
,
0000
0010
0000
0010
,
0000
0001
0000
0000
,
0000
0100
0000
0100
,
0000
0010
0000
0000
,
0000
1000
0000
1000
,
0000
0001
0000
0001
,
0000
1000
0000
0000
,
0000
0100
0000
0000
,
0000
0010
0000
0000
,
0000
0001
0000
0000
,
0000
0100
0000
0000
,
0000
0010
0000
0000
,
0000
1000
0000
0000
,
0000
0001
0000
0000
,
0010
0010
0000
0000
;

//---------------dance-single - ----------------
#NOTEDATA:;
#CHARTNAME:;
#STEPSTYPE:dance-single;
#DESCRIPTION:;
#CHARTSTYLE:;
#DIFFICULTY:Easy;
#METER:4;
#RADARVALUES:0.246349,0.316395,0.185026,0.000000,0.000000,233.000000,208.000000,25.000000,0.000000,0.000000,0.000000,0.000000,0.000000,0.000000,0.246349,0.316395,0.185026,0.000000,0.000000,233.000000,208.000000,25.000000,0.000000,0.000000,0.000000,0.000000,0.000000,0.000000;
#CREDIT:;
#NOTES:
0000
0000
0000
0000
,
0000
0000
0000
0000
,
0000
0000
0000
0000
,
0000
0000
0000
0000
,
1000
1000
1000
0000
,
0001
0000
0100
0000
,
0001
0001
0001
0000
,
1000
0000
0100
0000
,
1000
0000
0010
0000
,
0100
0100
0000
0000
,
0001
0000
0001
0000
,
0010
0010
0010
0001
,
0100
0000
0010
0000
,
1000
1000
0000
0000
,
0001
0001
0001
0000
,
1001
0000
0000
0000
,
1000
1100
0001
0101
,
1000
0001
1000
0000
,
0001
0011
1000
1010
,
1000
0100
0010
0001
,
0100
1010
0100
0011
,
0001
1000
0010
0000
,
0010
1100
0010
0101
,
0001
1000
0100
0100
,
0100
0000
1000
0000
,
0010
0100
0001
0001
,
0001
0000
0010
0000
,
0100
1000
0010
0010
,
0010
0000
0100
0000
,
0010
1000
0001
0001
,
0001
0000
0010
0000
,
0001
1000
0010
0100
,
0010
0000
0010
0000
,
1000
0100
1000
0000
,
0010
0000
0010
0000
,
0100
0001
0100
0000
,
0001
0000
0001
0000
,
0010
0100
0010
0000
,
0100
0000
0100
0000
,
1000
0100
1000
0000
,
0001
1000
0001
0000
,
0010
0010
0010
0000
,
0001
1000
0010
0100
,
0001
0100
0010
0000
,
1000
0000
1000
0000
,
0001
0001
0001
0000
,
0010
0010
0010
0000
,
0000
1000
1100
0001
,
0101
1000
0001
1000
,
0000
0001
0011
1000
,
1010
1000
0010
0100
,
0001
0010
1100
0010
,
0101
0001
0100
0010
,
0000
1000
1100
0001
,
0101
0001
0010
0100
,
1000
0010
1010
0010
,
0110
0100
0001
0010
,
0000
0010
0011
0010
,
0110
0100
1000
0010
,
0100
0001
0101
0001
,
1010
1000
0010
0100
,
0000
0100
0110
0010
,
1010
1000
0100
0100
,
0100
0010
0000
0001
,
0000
0100
0100
0100
,
0010
1000
0000
0001
,
0000
0010
0010
0010
,
0100
1000
0000
0010
,
0000
0100
0100
0100
,
0001
1000
0000
0100
,
0000
0010
0010
0010
,
0100
1000
0000
0000
;

//---------------dance-single - ----------------
#NOTEDATA:;
#CHARTNAME:;
#STEPSTYPE:dance-single;
#DESCRIPTION:;
#CHARTSTYLE:;
#DIFFICULTY:Medium;
#METER:5;
#RADARVALUES:0.333047,0.368480,0.177625,0.066609,0.000000,315.000000,291.000000,24.000000,9.000000,0.000000,0.000000,0.000000,0.000000,0.000000,0.333047,0.368480,0.177625,0.066609,0.000000,315.000000,291.000000,24.000000,9.000000,0.000000,0.000000,0.000000,0.000000,0.000000;
#CREDIT:;
#NOTES:
0000
0000
0000
0000
,
0000
0000
0000
0000
,
0000
0000
0000
0000
,
0000
0000
0000
0000
,
1000
0000
0000
0001
0100
0001
0000
1000
,
0100
1000
0000
0001
0010
0001
0000
0000
,
0001
0000
0000
1000
0010
1000
0000
0001
,
0100
0001
0000
1000
0100
1000
0000
0000
,
0010
0000
0000
0010
1000
0000
0000
1000
,
0100
0000
0000
0100
0010
0001
0000
0000
,
0001
0000
0000
0100
0010
0000
0000
0010
,
1000
0000
0000
1000
0100
0010
0000
0000
,
0100
0000
0000
0100
1000
0000
0000
1000
,
0010
0000
0000
0010
0100
0001
0000
0000
,
0001
0000
0000
0001
0010
0000
0000
0010
,
0100
1000
0000
1000
0000
0001
1000
0001
,
1000
1100
0001
0101
,
0002
1000
0000
1003
0000
0000
0000
0001
,
1000
1010
0001
0011
,
0001
0010
0100
1000
0000
0000
1000
0000
,
0001
0101
1000
1100
,
2000
0001
0000
3001
0000
0000
0000
0001
,
0100
0110
0010
1010
,
0010
1000
0100
0010
0000
0000
0100
0100
,
1000
0010
0100
0000
,
0001
0000
0010
0000
0100
0000
0010
0010
,
0001
0100
0010
0000
,
1000
0000
0001
0000
0010
0000
0100
0100
,
1000
0010
0100
0000
,
0001
0000
0010
0000
0100
0000
0010
0010
,
0001
1000
0010
0000
,
0100
0000
0010
0000
1000
0000
0100
0100
,
1000
0000
0000
0010
0100
0000
0000
0100
,
0001
0000
0000
0001
0010
0000
0000
0000
,
0100
0000
0000
0100
1000
0000
0000
1000
,
0010
0000
0000
0010
0100
0000
0000
0000
,
0001
0000
0000
0001
1000
0000
0000
1000
,
0100
0000
0000
0100
0010
0000
0000
0000
,
0100
0000
0000
0100
1000
0000
0000
1000
,
0010
0000
0000
0010
0100
0000
0000
0000
,
0001
0000
1000
0100
0000
0100
1000
0000
,
0001
0100
0010
0000
,
0100
0001
0010
0100
,
0010
0001
0020
0030
0020
0030
0020
0030
,
0001
0000
1000
0000
0010
0000
0100
0010
,
0000
0010
1000
0000
0000
0000
0100
0000
,
1000
0000
0010
0100
0010
0100
0000
0001
,
1000
0001
1000
0000
1100
0000
0001
0000
,
0101
0000
0002
1000
0000
1003
0000
0000
,
0000
1000
0010
0000
0110
0000
0100
0000
,
0101
0000
0001
0010
0001
0010
0000
0100
,
0100
1000
1010
0001
,
0101
0000
2000
0001
0000
3001
0000
0000
,
0000
0001
0010
0000
0110
0000
0100
0000
,
1100
0000
1000
0010
1000
0010
0000
0010
,
0100
0001
0101
1000
,
1100
0000
0200
0010
0000
0310
0000
0000
,
0000
0001
1000
0000
1100
0000
0001
0000
,
0011
0000
0001
0100
0001
0100
0000
0010
,
1000
0100
0101
0010
,
1010
0000
0020
0100
0000
0130
0000
0000
,
0000
0100
0001
0000
0011
0000
1000
0000
,
1100
0000
0001
1000
0001
1000
0000
0010
,
0010
0000
1000
0000
0001
0000
0100
0100
,
0000
0000
0001
0000
1000
1000
0000
0100
,
0100
0000
1000
0000
0010
0000
0100
0100
,
0000
0000
0001
0000
0010
0010
0000
0100
,
0100
0000
0010
0000
0001
0000
1000
1000
,
0000
0000
0010
0000
0100
0100
0000
0001
,
0001
0000
1000
0000
0100
0000
0010
0010
,
0000
0000
0100
0000
1000
1000
0000
0001
,
0001
0001
0000
0000
0000
0000
0000
0000
;

//---------------dance-single - ----------------
#NOTEDATA:;
#CHARTNAME:;
#STEPSTYPE:dance-single;
#DESCRIPTION:;
#CHARTSTYLE:;
#DIFFICULTY:Hard;
#METER:7;
#RADARVALUES:0.455693,0.447440,0.199828,0.118417,0.000000,431.000000,404.000000,27.000000,16.000000,0.000000,0.000000,0.000000,0.000000,0.000000,0.455693,0.447440,0.199828,0.118417,0.000000,431.000000,404.000000,27.000000,16.000000,0.000000,0.000000,0.000000,0.000000,0.000000;
#CREDIT:;
#NOTES:
// measure 0
0000
0000
0000
0000
,  // measure 1
0000
0000
0000
0000
,  // measure 2
0000
0000
0000
0000
,  // measure 3
0000
0000
0000
0000
0000
1000
0001
1000
,  // measure 4
0001
0000
0000
0100
0010
0100
0000
0010
,  // measure 5
1000
0010
0000
0100
0001
0200
0000
0000
,  // measure 6
0301
0000
0000
0010
0001
0010
0000
0100
,  // measure 7
0010
0100
0000
1000
0100
2000
0001
0001
,  // measure 8
3001
0100
0010
0100
0000
0001
0010
0100
,  // measure 9
0010
0001
1000
0000
0000
0010
0100
0010
,  // measure 10
0100
0000
0001
0010
0100
1000
0100
0010
,  // measure 11
0001
0100
0010
0100
0001
0010
0010
0010
,  // measure 12
0100
0000
0010
0001
0100
0000
0010
1000
,  // measure 13
0100
0010
0200
0000
0300
1000
0010
0100
,  // measure 14
0001
0000
0001
0010
0100
2000
0000
3001
,  // measure 15
0001
0001
0000
0001
0000
0100
0010
0100
,  // measure 16
0010
1001
0100
1001
,  // measure 17
0001
0100
1000
0000
0001
0100
1000
0000
,  // measure 18
0010
1001
0100
1001
,  // measure 19
1000
0100
0001
0100
1000
0010
0010
0010
,  // measure 20
0100
1001
0010
1001
,  // measure 21
0001
0100
1000
0000
0001
0100
1000
0000
,  // measure 22
0100
1001
0010
1001
,  // measure 23
0001
0010
1000
0010
0001
0100
0100
0100
,  // measure 24
0010
0000
1000
0010
0001
0000
0001
0010
,  // measure 25
1000
0000
1000
0100
0001
0100
0100
0100
,  // measure 26
1000
0000
0001
0100
1000
0000
1000
0100
,  // measure 27
0001
0000
0001
0010
1000
0010
0010
0010
,  // measure 28
0001
0000
0001
0100
0010
0000
0010
1000
,  // measure 29
0001
0000
0001
0010
0100
1000
1000
1000
,  // measure 30
0001
0000
0001
0100
0010
0000
0010
0100
,  // measure 31
0001
0000
0001
0010
0100
1000
1000
1000
,  // measure 32
0001
0000
0000
0100
0010
1000
0000
1000
,  // measure 33
0100
0010
0000
0010
0001
0200
0000
0000
,  // measure 34
0310
0000
0000
0010
0100
0001
0000
0001
,  // measure 35
0010
0100
0000
0100
1000
0002
0000
0000
,  // measure 36
0103
0000
0000
0100
0010
1000
0000
1000
,  // measure 37
0100
0010
0000
0010
0100
2000
0000
0000
,  // measure 38
3010
0000
0000
0010
0100
0001
0000
0001
,  // measure 39
0010
0100
0000
0100
0010
0001
0001
0001
,  // measure 40
1000
0010
0100
1000
0000
0100
0001
0010
,  // measure 41
0100
1000
0200
0000
0300
0010
0001
0010
,  // measure 42
0001
0000
0100
0010
1000
0010
0100
0001
,  // measure 43
0010
0100
2200
3300
2200
3300
2200
3300
,  // measure 44
0001
0000
1000
0010
0100
0010
0100
0001
,  // measure 45
0000
0001
2000
0000
3000
0100
0010
0100
,  // measure 46
0010
0000
0001
0100
0010
2000
0000
3001
,  // measure 47
1000
0001
0100
0000
1001
0000
0010
0000
,  // measure 48
1001
0000
0001
0010
1000
0000
0001
0010
,  // measure 49
1000
0010
1001
0100
,  // measure 50
1001
0000
1000
0100
0001
0100
1000
0010
,  // measure 51
0010
0010
0100
0000
1001
0000
0010
0000
,  // measure 52
1001
0000
0001
0100
1000
0000
0001
0100
,  // measure 53
1000
0100
1001
0010
,  // measure 54
1001
0000
0001
0010
1000
0010
0001
0100
,  // measure 55
0100
0100
0010
0000
1010
0000
0100
0000
,  // measure 56
0101
0000
0001
0010
0100
0000
0001
0010
,  // measure 57
0100
1000
1010
0010
,  // measure 58
0110
0000
0100
0001
0010
0100
0001
0100
,  // measure 59
0100
0100
1000
0000
1010
0000
0001
0000
,  // measure 60
0101
0000
0001
0010
1000
0000
0001
0010
,  // measure 61
1000
0010
0011
0001
,  // measure 62
0101
0000
0100
0010
1000
0100
0001
0100
,  // measure 63
0100
0100
1000
0000
0001
0100
1000
0100
,  // measure 64
0001
0000
0001
0010
1000
0010
0001
0100
,  // measure 65
0100
0100
0010
0000
0001
0010
1000
0010
,  // measure 66
0001
0000
0001
0010
1000
0100
0010
1000
,  // measure 67
1000
1000
0010
0000
0010
0001
0100
0010
,  // measure 68
0100
0000
0100
0010
1000
0100
0001
0100
,  // measure 69
0100
0100
1000
0000
1000
0010
0001
0010
,  // measure 70
1000
0000
1000
0100
0001
0100
1000
0010
,  // measure 71
0010
0010
0000
0000
0000
0000
0000
0000
;
