#VERSION:0.83;
#TITLE:Blow Me Away;
#SUBTITLE:;
#ARTIST:Breaking Benjamin;
#TITLETRANSLIT:;
#SUBTITLETRANSLIT:;
#ARTISTTRANSLIT:;
#GENRE:;
#ORIGIN:;
#CREDIT:;
#BANNER:blowmeaway_bn.png;
#BACKGROUND:blowmeaway_bg.png;
#PREVIEWVID:;
#JACKET:blowmeaway_jacket.png;
#CDIMAGE:;
#DISCIMAGE:;
#LYRICSPATH:;
#CDTITLE:cdtitle.png;
#MUSIC:blowmeaway.ogg;
#OFFSET:0.000000;
#SAMPLESTART:29.052759;
#SAMPLELENGTH:15.131647;
#SELECTABLE:YES;
#BPMS:0.000=99.130;
#STOPS:;
#DELAYS:;
#WARPS:;
#TIMESIGNATURES:0.000=4=4;
#TICKCOUNTS:0.000=4;
#COMBOS:0.000=1;
#SPEEDS:0.000=1.000=0.000=0;
#SCROLLS:0.000=1.000;
#FAKES:;
#LABELS:0.000=Song Start;
#BGCHANGES:;
#KEYSOUNDS:;
#ATTACKS:
;

//---------------dance-single - Crossovers are arbritrary----------------
#NOTEDATA:;
#CHARTNAME:Arbritrary;
#STEPSTYPE:dance-single;
#DESCRIPTION:Crossovers are arbritrary;
#CHARTSTYLE:;
#DIFFICULTY:Challenge;
#METER:10;
#RADARVALUES:0.654940,0.670583,0.389845,0.210516,0.838167,588.000000,538.000000,50.000000,27.000000,0.000000,0.000000,0.000000,0.000000,0.000000,0.654940,0.670583,0.389845,0.210516,0.838167,588.000000,538.000000,50.000000,27.000000,0.000000,0.000000,0.000000,0.000000,0.000000;
#CREDIT:DigitalBasic;
#OFFSET:0.000000;
#BPMS:0.000000=99.129997
;
#STOPS:;
#DELAYS:;
#WARPS:;
#TIMESIGNATURES:0.000000=4=4
;
#TICKCOUNTS:0.000000=4
;
#COMBOS:0.000000=1
;
#SPEEDS:0.000000=1.000000=0.000000=0
,158.500000=0.250000=3.500000=0
,162.000000=1.000000=1.000000=0
;
#SCROLLS:0.000000=1.000000
;
#FAKES:;
#LABELS:0.000000=Song Start
;
#DISPLAYBPM:99.000000:0.000000;
#NOTES:
0000
0000
0000
0000
,
0000
0000
0000
0000
,
0001
0000
0100
1000
0100
0000
0001
0000
0010
1000
0010
0000
0001
0000
0100
0000
,
1000
0000
0001
0010
1000
0000
0001
0000
1000
0100
0001
0000
0100
0000
1000
0000
,
0010
0100
1000
0000
0100
0010
0001
0000
0001
0010
1000
0000
0001
0100
1000
0000
,
0100
0000
1000
0001
0010
1000
0001
0000
0001
0010
1000
0000
0010
0000
0100
0001
,
1000
0000
0010
0100
0001
0100
0010
0000
0001
0100
1000
0000
0001
0010
1000
0000
,
1000
0100
0010
0100
1000
0001
1000
0000
0100
0001
0100
1000
0010
0001
0010
1000
,
0001
0000
0010
0000
1000
0010
0100
0000
0100
0001
1000
0000
1000
0010
0001
0000
,
0100
0000
1000
0100
0010
0001
0010
0000
0100
1000
0100
0000
0010
0000
0001
0000
,
0010
0000
1000
0000
0100
0001
1000
0000
0010
0001
0100
0000
0010
0001
1000
0000
,
0010
0000
0100
1000
0100
0001
0010
1000
0010
0001
1000
0100
0001
1000
0010
0001
,
1000
1001
0100
0110
0001
1001
0010
0110
,
1000
0000
1001
0000
0100
0000
0110
0000
0001
0000
1001
0000
0010
0000
0100
0010
,
0100
0100
0000
0100
0001
0100
1000
0010
0000
0001
0000
0000
0011
0000
0000
0000
,
0010
0010
0000
0010
1000
0100
0001
0100
0000
0001
0000
0000
0101
0000
0100
0000
,
1000
1001
0100
0110
0001
1001
0010
0110
,
1000
0000
1001
0000
0100
0000
0110
0000
0001
0000
1001
0000
0010
0100
0010
0100
,
0020
0000
0000
0130
0001
0000
0101
0000
0000
0001
0000
0100
1000
0000
0010
0000
,
0210
0000
0000
0310
0001
0000
0012
0000
0000
1003
0100
0000
0100
1000
0000
0000
,
1200
0000
0000
0301
0010
1000
0000
0000
0000
1000
0000
0010
1000
0000
0010
0000
,
1020
0000
0000
0031
0100
0000
1000
0000
0000
1000
0100
0010
0100
1000
0100
0010
,
1000
0000
1100
0000
1000
0100
0001
0000
0000
0001
0000
0001
0100
0010
0000
0000
,
1020
0000
0000
0130
1000
0000
1020
0000
0000
0031
0010
0100
0010
0001
0010
0000
,
0021
0000
0000
1030
0100
0000
0201
0000
0000
0301
0000
0001
0100
0000
0010
0000
,
1020
0000
0000
0031
0100
0000
1200
0000
0000
1300
0001
0000
0010
0000
0100
1000
,
0100
0001
0010
1000
0100
0001
0010
1000
,
0100
0000
0110
0000
1000
0000
1001
0000
0010
0000
0110
0000
0001
0100
1000
0010
,
0100
0100
1000
1000
0001
0001
1000
1000
0100
0100
0010
0010
1000
1000
0100
0100
,
0001
0001
1000
1000
0001
0001
1000
1000
0010
0010
0100
0100
1000
1000
0001
0001
,
0100
0000
1000
0100
0010
0001
0010
0000
1000
0000
0001
0010
1000
0001
0100
0010
,
1000
0010
0100
1000
0010
0001
0010
0000
0100
0000
0110
0000
1200
0000
0000
0000
,
0301
0010
1000
0010
0100
0001
0100
0000
1000
0000
0010
0001
1000
0100
0010
0001
,
0010
0100
1000
0001
0010
1000
0001
0000
1000
0000
1100
0000
0100
0002
0000
0000
,
0103
0000
0010
0000
0000
0000
0100
0000
0000
0000
0010
0000
1000
0010
0001
0010
1000
0000
0000
0000
0010
0000
0000
0000
0001
0000
0100
0000
1000
0000
0000
0000
,
0100
0000
0010
0000
0000
0000
0100
0000
0000
0000
0010
0000
0001
0010
1000
0010
0001
0000
0000
0000
0010
0000
0000
0000
2010
0000
0000
0000
0000
0000
0000
0000
,
3100
0000
0010
0000
0000
0000
0100
0000
0000
0000
0010
0000
0001
0100
1000
0001
0010
0000
0000
0000
0100
0000
0000
0000
0010
0000
0001
0000
0010
0000
0000
0000
,
1000
0000
0100
0000
0000
0000
0010
0000
0000
0000
0100
0000
0001
0100
1000
0001
0010
0000
0000
0000
0100
0000
0000
0000
2100
0000
0000
0000
0000
0000
0000
0000
,
3100
0000
0010
0000
0000
0000
0100
0000
0000
0000
0010
0000
1000
0010
0001
0010
1000
0000
0000
0000
0010
0000
0000
0000
0001
0000
0100
0000
1000
0000
0000
0000
,
0100
0000
0010
0000
0000
0000
0100
0000
0000
0000
0010
0000
0001
0010
1000
0010
0001
0000
0000
0000
0021
0000
0000
0000
0000
0000
0000
0000
0000
0000
0000
0000
,
0000
0000
0000
0000
0000
0000
0030
0000
0200
0000
0000
0310
1000
0000
1010
0000
,
0000
1000
0000
0010
0001
0000
0100
0000
0120
0000
0000
0130
1000
0000
2100
0000
,
0000
3001
0010
0000
0010
0001
0000
0000
0021
0000
0000
1030
0100
0001
0100
0000
,
0000
0001
0100
1000
0001
0000
1000
0000
0001
0100
1000
0000
0010
0000
0001
0000
,
0000
0001
0010
0100
0010
0001
0010
0100
0001
0000
0011
0000
0001
0010
1000
0000
,
0000
1000
0000
1000
0010
0100
0000
0000
0201
0000
0000
0310
0001
0000
0201
0000
,
0000
1300
0100
0010
0100
1000
0100
0000
1200
0000
0000
0301
0010
0000
1020
0000
,
0000
1030
0000
1000
0010
0000
0100
0000
0201
0000
0000
1300
0010
0000
0021
0000
,
0000
0000
0031
0000
1000
0000
0000
0000
0100
0000
0010
0000
0001
0000
0010
0000
0100
0000
0100
0000
0000
0000
0010
0000
0000
0000
1000
0010
0001
1000
0100
0001
,
1000
0000
0000
0000
0001
0000
0000
0000
0001
0000
0010
0000
1000
0000
0000
0000
0010
0000
0100
0000
0000
0000
0100
0000
0000
0000
1000
0100
0001
1000
0010
0001
,
1000
0000
0000
0000
0001
0000
0000
0000
0201
0000
0000
0000
0000
0000
0000
0000
1300
0000
0100
0000
0000
0000
0010
0000
0000
0000
1000
0001
0010
1000
0001
0100
,
1000
0000
0000
0000
0010
0000
0000
0000
0001
0000
0010
0000
0001
0000
0000
0000
0010
0000
0100
0000
0000
0000
0010
0000
0000
0000
0000
0010
1000
0100
0001
1000
,
0010
1010
0000
0000
0000
0000
0000
0000
;

//---------------dance-single - No gimmicks here.----------------
#NOTEDATA:;
#CHARTNAME:Expert;
#STEPSTYPE:dance-single;
#DESCRIPTION:No gimmicks here.;
#CHARTSTYLE:;
#DIFFICULTY:Hard;
#METER:9;
#RADARVALUES:0.537987,0.670583,0.249501,0.148141,0.522393,483.000000,451.000000,32.000000,19.000000,0.000000,0.000000,0.000000,0.000000,0.000000,0.537987,0.670583,0.249501,0.148141,0.522393,483.000000,451.000000,32.000000,19.000000,0.000000,0.000000,0.000000,0.000000,0.000000;
#CREDIT:;
#DISPLAYBPM:99.000000:0.000000;
#NOTES:
// measure 0
0000
0000
0000
0000
,  // measure 1
0000
0000
0000
0000
,  // measure 2
1000
0000
0010
1000
0010
0000
1000
0000
0001
0010
0001
0000
0001
0000
0100
0000
,  // measure 3
0010
0000
1000
0100
1000
0000
0010
0000
0100
0001
0100
0000
0001
0000
0010
0000
,  // measure 4
0100
1000
0010
1000
0001
0000
0001
0010
,  // measure 5
0100
1000
0000
0000
1000
0010
0100
0010
,  // measure 6
1000
0100
0010
0002
0100
2003
0100
3002
,  // measure 7
0010
0000
2003
0000
0010
0000
3002
0000
0000
0000
0013
0000
0100
0000
1000
0001
,  // measure 8
0100
0010
0100
0001
1000
0000
1000
0010
,  // measure 9
0100
0001
0000
0000
0001
0010
0100
0010
,  // measure 10
0001
0100
0010
2000
0010
3002
0010
2003
,  // measure 11
0100
0000
3002
0000
0100
0000
2003
0000
0000
0000
3100
0000
0010
0100
0010
0100
,  // measure 12
0010
0011
0001
0011
0010
0110
0100
1100
,  // measure 13
1000
0000
1001
0000
0001
0000
0011
0000
0001
0000
0010
0000
0100
0000
1000
0001
,  // measure 14
1000
0010
0000
0000
0100
0000
0010
0100
0000
0010
0000
0000
1000
0000
0000
0000
,  // measure 15
1000
0001
0000
0010
0100
0000
1000
0001
0000
0001
0000
0100
0010
0000
0100
0000
,  // measure 16
0001
0101
0100
0110
0010
1010
1000
1010
,  // measure 17
0010
0000
0110
0000
0100
0000
0101
0000
0001
0000
1001
0000
0001
0100
0010
1000
,  // measure 18
0010
0000
0000
0100
0010
0000
0100
0000
0000
0100
0000
0001
1000
0000
0001
0000
,  // measure 19
0010
0000
0000
0010
0100
0000
0110
0000
0000
1000
0001
0000
0001
1000
0000
0000
,  // measure 20
0101
0000
0000
0001
1000
0010
0100
0000
0000
0001
0000
0010
0100
0000
0010
0000
,  // measure 21
0110
0000
0000
0001
1000
0000
1001
0000
0001
0100
0001
0100
0010
0000
0010
0000
,  // measure 22
0110
0000
0110
0000
0010
0100
0001
0000
0000
0001
1000
0001
0100
0000
0000
0010
,  // measure 23
0100
0000
0000
0100
0010
0000
1000
0000
0000
1000
0100
0000
0010
0001
0000
0000
,  // measure 24
1001
0000
0000
1000
0010
0000
0100
0000
0000
0100
0000
0010
1000
0000
0001
0000
,  // measure 25
0010
0000
0000
0001
0010
0000
0100
0000
0000
0100
1000
0000
1000
0000
0001
0100
,  // measure 26
0001
0100
1000
0100
0001
0100
0010
0001
,  // measure 27
0010
1000
0010
0001
0010
0100
0001
0100
,  // measure 28
0010
0100
0010
0100
0001
1000
0001
1000
0001
0010
0001
0010
0100
0010
0100
0010
,  // measure 29
0100
1000
0100
1000
0010
1000
0010
1000
0001
0100
0001
0100
0001
1000
0001
1000
,  // measure 30
0001
0000
0001
0010
0001
0000
0001
0000
1000
0000
0010
1000
0010
0000
0100
0000
,  // measure 31
0001
0000
0100
0001
0100
0000
0010
0000
0000
0000
0010
0000
0220
0000
0330
0000
,  // measure 32
1000
0000
0100
1000
0100
0000
0100
0000
0010
0000
0001
0010
0001
0000
0100
0000
,  // measure 33
0010
0000
1000
0010
1000
0000
1000
0000
0001
0000
1001
0000
0000
1001
0000
0000
,  // measure 34
0001
0010
0000
0100
0000
1000
0100
0010
0001
0000
0010
0000
0100
1000
0100
0000
,  // measure 35
0010
0001
0000
0010
0000
0100
1000
0100
0010
0000
0001
0000
0220
0000
0330
0000
,  // measure 36
1000
0010
0000
0100
0000
0001
0100
0010
1000
0000
0010
0000
0100
0001
0100
0000
,  // measure 37
0010
1000
0000
0010
0000
0100
0001
0100
0010
0000
1000
0000
2002
0000
3003
0000
,  // measure 38
1000
0100
0000
0010
0000
0001
0100
0010
1000
0000
0100
0000
0010
0001
0100
0000
,  // measure 39
0010
1000
0000
0100
0000
0010
0001
0100
0010
0000
0220
0000
0000
0000
0000
0000
,  // measure 40
0000
0000
0000
0000
0000
0000
0330
0000
1001
0000
0000
1000
0001
0000
0100
0000
,  // measure 41
0000
0010
0000
0010
0100
0000
0001
0000
1000
0000
0000
1000
0100
0000
0010
0000
,  // measure 42
0000
0001
0100
0000
0010
0000
0000
0000
0110
0000
0000
0100
0010
0000
1000
0000
,  // measure 43
0000
1000
0100
0000
0001
0000
0100
0000
1000
0100
1000
0000
0001
0000
0100
0000
,  // measure 44
0000
0100
0001
0100
0010
0000
0010
0000
0110
0000
0110
0000
1000
0000
0001
0000
,  // measure 45
0000
0001
0100
0001
0010
0000
0000
0010
0100
0000
0000
1000
0100
0000
0010
0000
,  // measure 46
0000
0001
0100
0000
0010
0100
0010
0000
0110
0000
0000
0100
0001
0000
1000
0000
,  // measure 47
0000
1000
0010
0000
0001
0000
0010
0000
0100
0000
0000
0100
0001
0000
0010
0000
,  // measure 48
0000
0100
1000
0000
0001
0100
0001
0100
0001
0010
0000
0010
0000
0100
1000
0100
,  // measure 49
0010
0000
0001
0000
0100
0010
0100
0000
0010
0100
0000
0001
0000
1000
0010
0100
,  // measure 50
0001
0000
1000
0000
0200
0000
0000
0000
1300
0100
0000
0100
0000
0010
0001
0010
,  // measure 51
0100
0000
1000
0000
0010
0100
0010
0000
0100
0001
0000
0010
0000
0100
1000
0010
,  // measure 52
0100
0110
0000
0000
0000
0000
0000
0000
;

//---------------dance-single - Blow Up Myself----------------
#NOTEDATA:;
#CHARTNAME:Gimmicky;
#STEPSTYPE:dance-single;
#DESCRIPTION:Blow Up Myself;
#CHARTSTYLE:;
#DIFFICULTY:Edit;
#METER:8;
#RADARVALUES:0.392073,0.960774,0.148141,0.514596,0.136446,352.000000,333.000000,19.000000,66.000000,0.000000,0.000000,0.000000,0.000000,0.000000,0.392073,0.960774,0.148141,0.514596,0.136446,352.000000,333.000000,19.000000,66.000000,0.000000,0.000000,0.000000,0.000000,0.000000;
#CREDIT:;
#OFFSET:0.000000;
#BPMS:0.000000=99.129997
,16.000000=49.564999
,20.000000=99.129997
,28.000000=49.564999
,32.000000=99.129997
,40.000000=198.259995
,56.000000=99.129997
,64.000000=198.259995
,80.000000=99.129997
,88.000000=198.259995
,90.000000=99.129997
,97.000000=198.259995
,99.000000=99.129997
,106.000000=198.259995
,108.000000=99.129997
,123.000000=49.564999
,135.000000=396.519989
,163.000000=99.129997
,164.000000=396.519989
,192.000000=99.129997
,193.000000=396.519989
,219.000000=99.129997
,222.000000=198.259995
,223.000000=99.129997
,231.000000=198.259995
,233.000000=99.129997
,240.000000=198.259995
,242.000000=99.129997
,249.000000=198.259995
,251.000000=99.129997
,258.000000=396.519989
,314.000000=793.039978
;
#STOPS:;
#DELAYS:;
#WARPS:;
#TIMESIGNATURES:0.000000=4=4
;
#TICKCOUNTS:0.000000=4
;
#COMBOS:0.000000=1
;
#SPEEDS:0.000000=1.000000=0.000000=0
;
#SCROLLS:0.000000=1.000000
;
#FAKES:;
#LABELS:0.000000=Song Start
;
#DISPLAYBPM:99.000000:0.000000;
#NOTES:
0000
0000
0000
0000
,
0000
0000
0000
0000
,
0001
0010
1000
0000
1000
0010
0001
0000
,
0001
0100
1000
0000
1000
0100
0001
1000
,
0001
0100
0001
0010
0100
0000
0100
0010
0001
0100
0000
0000
0100
0010
0001
0010
,
0000
0000
0000
2000
0000
3200
0000
0320
,
0000
0032
0000
0203
0000
0310
1000
0010
,
1000
0100
0010
0100
1000
0000
0010
0100
0010
1000
0000
0000
0100
0010
1000
0010
,
0000
0000
0000
0002
0000
0203
0000
0320
,
0000
2030
0000
3200
0000
0310
0001
0001
,
1000
1000
0001
0001
,
0100
0100
0010
0010
,
1000
1000
0100
0100
,
0010
0000
0010
0000
0001
0000
0001
1000
,
0001
0000
0000
0002
0000
0023
0000
2030
,
0000
0000
3010
0002
0000
0203
0000
1300
,
0100
0100
0010
0010
,
1000
1000
0001
0001
,
0010
0010
0100
0100
,
1000
0000
1000
0000
0001
1000
0001
1000
,
0010
0000
1000
0002
0000
0013
0100
2000
,
0000
3020
0000
0230
0000
0301
1000
0000
,
2002
0000
0000
0000
0000
0000
0000
3003
0001
0000
0200
0000
0000
0000
0310
0000
,
1000
0002
0000
0023
0000
2030
0000
3010
,
0001
1000
1001
0000
1001
0000
0001
0200
,
0000
0310
1000
0200
0000
0302
0000
0203
,
0000
0000
1300
0000
0001
0000
0000
0000
2002
0000
0000
0000
0000
0000
0000
3003
,
0001
0020
0000
1030
0010
0200
0000
2300
,
0000
3020
0000
0130
0001
1000
0001
0000
,
0000
0002
0000
0013
0100
1000
0010
0110
,
0000
0000
0101
0000
0000
0000
1001
0000
0000
0000
1100
0000
1000
0100
1000
0100
,
0010
0001
0010
0001
0100
0001
0100
0001
1000
0010
1000
0010
0100
0001
0100
0010
,
0000
0010
1000
0100
0010
0001
0010
0100
0000
1000
0002
0000
0103
0010
0100
0001
,
0000
0000
0001
0000
1000
0000
0100
0000
0010
0000
0100
0000
1000
0000
0001
0000
0000
0000
0100
0000
0000
0110
0000
0000
0100
0000
0000
0000
0000
0000
0000
0000
,
0010
0000
0100
0000
,
0001
0100
0001
1000
,
0000
1000
0000
1000
,
0100
0010
0000
0010
,
0100
0000
0100
0000
,
0100
0010
0001
0100
,
0000
0000
0010
0000
0000
0000
0220
0330
,
0010
1000
0000
1000
,
0000
1000
0100
0010
,
0001
0000
0001
0000
,
0001
0010
0001
0000
,
0001
0100
0000
0100
,
0000
0010
1000
0010
,
0100
0000
0001
0000
,
2002
3003
1000
0000
0100
0000
0000
0000
,
0100
0000
0010
0001
,
0100
0010
0000
0100
,
0000
0100
0001
1000
,
0000
1000
0001
0000
,
0001
0000
0001
0010
,
0100
1000
0000
2002
,
0000
0000
3003
1001
,
0010
0200
0000
0301
0010
0200
0000
0320
,
0000
0032
0000
1003
0010
0000
0220
0000
,
0000
0330
0010
2000
0000
3100
0010
0200
,
0000
2300
0000
3020
0000
0031
0010
0010
,
0110
0000
0110
0000
0001
0020
0000
0130
,
1000
0002
0000
0203
0000
2300
0000
3100
,
0010
0000
0220
0000
0000
0330
0010
2000
,
0000
3010
0001
0020
0000
0230
0000
0302
,
0000
0023
0000
0130
0010
0000
0100
0000
,
0000
0100
0000
0100
,
1000
0100
0010
0000
,
0001
0000
0001
0100
,
0010
0000
0010
0100
,
0000
0100
0000
0010
,
1000
0010
0100
0000
,
0010
0000
0220
0000
,
0000
0330
0010
1000
,
0000
1000
0000
1000
,
0010
0100
0001
0000
,
0001
0000
0001
0010
,
0100
0000
0100
0010
,
0000
0100
0000
1000
,
0010
0100
0010
0000
,
0000
0000
0110
0000
;

//---------------dance-single - EXPLOSIONS----------------
#NOTEDATA:;
#CHARTNAME:Halo 2 Rockets;
#STEPSTYPE:dance-single;
#DESCRIPTION:EXPLOSIONS;
#CHARTSTYLE:;
#DIFFICULTY:Edit;
#METER:9;
#RADARVALUES:0.481180,0.687687,0.311876,0.155938,0.499002,432.000000,392.000000,40.000000,20.000000,232.000000,0.000000,0.000000,0.000000,12.000000,0.481180,0.687687,0.311876,0.155938,0.499002,432.000000,392.000000,40.000000,20.000000,232.000000,0.000000,0.000000,0.000000,12.000000;
#CREDIT:;
#OFFSET:0.000000;
#BPMS:0.000000=99.129997
;
#STOPS:;
#DELAYS:;
#WARPS:162.000000=12.000000
;
#TIMESIGNATURES:0.000000=4=4
;
#TICKCOUNTS:0.000000=4
;
#COMBOS:0.000000=1
;
#SPEEDS:0.000000=1.000000=0.000000=0
;
#SCROLLS:0.000000=1.000000
;
#FAKES:;
#LABELS:0.000000=Song Start
;
#NOTES:
0000
0000
0000
0000
,
0000
0000
0000
0000
,
1000
0000
0001
0100
0001
0000
MMMM
0000
0010
1000
0010
0000
0100
0000
0001
0000
,
MMMM
0000
0100
1000
0100
0000
MMMM
0000
0001
0010
0001
0000
0100
0000
0010
0000
,
1000
0100
1000
0000
1000
0001
0100
0000
0001
0100
0001
0000
0001
1000
0100
0000
,
MMMM
0000
0001
0010
0001
1000
0001
0010
0001
1000
0100
0000
MMMM
0000
0001
0100
,
0010
0000
0100
0010
0100
0000
0110
0000
MMMM
0000
0101
0000
MMMM
0000
1001
0000
,
MMMM
0000
1100
0000
MMMM
0000
1001
0000
0000
0000
0001
0000
1000
0000
0010
MMMM
,
0001
0000
0100
0000
0001
0010
0001
0000
0001
1000
0010
0000
1000
0010
1000
0000
,
MMMM
0000
0010
0001
0010
0001
1000
0000
0100
1000
0100
0000
MMMM
0000
0010
0000
,
1000
0010
0100
0110
MMMM
1010
MMMM
1001
,
MMMM
0000
0011
0000
MMMM
0000
0110
0000
MMMM
0000
0001
0000
1000
0001
1000
0001
,
1001
MMMM
1001
MMMM
1001
MMMM
1001
MMMM
,
0110
0000
MMMM
0000
0110
0000
MMMM
0000
0110
0000
MMMM
0000
0110
0000
0010
0100
,
0010
0000
0000
0020
0000
2030
0000
3002
,
0000
0003
MMMM
0020
0000
2030
0000
3001
,
1001
MMMM
1001
MMMM
1001
MMMM
1001
MMMM
,
0110
0000
MMMM
0000
0110
0000
MMMM
0000
0110
0000
MMMM
0000
0001
1000
0001
1000
,
0002
0000
1003
1001
0000
1000
0010
0200
,
0000
1000
0000
0010
0000
0301
1000
0000
,
2002
3003
MMMM
1001
0000
0001
0010
0200
,
0000
0001
0000
0010
0000
1300
0001
0000
,
1001
MMMM
0001
1001
0000
1000
0100
0020
,
0000
1000
0000
0100
0000
0031
1000
0000
,
2002
3003
MMMM
1001
0000
0001
0100
0020
,
0000
0001
0000
0100
0000
1030
0001
0001
,
0010
0100
0010
0100
1000
0001
1000
0001
,
0100
MMMM
0010
MMMM
0001
MMMM
1000
MMMM
,
1000
0100
1000
0100
0010
0001
0010
0001
0100
0001
0100
0001
1000
0010
1000
0010
,
1000
0100
0010
0001
1000
0100
0010
0001
0100
0010
1000
0001
0100
0010
1000
0001
,
MMMM
0000
0001
0010
0001
0010
0001
0000
MMMM
0000
1000
0010
1000
0010
1000
0010
,
0100
0001
0100
0001
0100
0001
0100
0000
0101
0000
0001
0000
MMMM
0000
MMMM
0000
,
0100
1000
0100
1000
0100
0010
0001
0000
MMMM
0000
0010
1000
0010
0100
0001
0100
,
0010
1000
0100
0010
0100
1000
0001
0000
1000
0000
1001
0000
0000
MMMM
0000
0000
,
0001
0000
1000
0000
0000
0000
1000
0000
0000
0000
0010
0000
0100
0010
0100
0010
0100
0000
0000
0000
0010
0000
0000
0000
1000
0000
0100
0000
0010
0000
0000
0000
,
0010
0000
0100
0000
0000
0000
0100
0000
0000
0000
1000
0000
0001
1000
0001
1000
0001
0000
0000
0000
1000
0000
0000
0000
MMMM
0000
0000
0000
MMMM
0000
0000
0000
,
1000
0000
0001
0000
0000
0000
0001
0000
0000
0000
0010
0000
0100
0010
0100
0010
0100
0000
0000
0000
0010
0000
0000
0000
0001
0000
0100
0000
0010
0000
0000
0000
,
0100
0000
0010
0000
0000
0000
0010
0000
0000
0000
0100
0000
0001
1000
0001
1000
0001
0000
0000
0000
1000
0000
0000
0000
MMMM
0000
0000
0000
MMMM
0000
0000
0000
,
0001
0000
0100
0000
0000
0000
0010
0000
0000
0000
0100
0000
0001
0100
0001
0100
0001
0000
0000
0000
1000
0000
0000
0000
0100
0000
1000
0000
0010
0000
0000
0000
,
0010
0000
0100
0000
0000
0000
0010
0000
0000
0000
1000
0000
0100
1000
0100
1000
0100
0000
0000
0000
2002
0000
0000
0000
0000
0000
0000
0000
0000
0000
0000
0000
,
0000
0000
0000
3003
F00F
0000
000F
F00F
,
0000
00F0
F000
0002
0000
0023
0000
0230
,
0000
F300
000F
0000
0000
0000
0000
0000
,
0000
0000
0000
0000
MMMM
0000
0001
1001
,
0000
0010
1000
0200
0000
0001
0000
0010
,
0000
1300
0001
0000
MMMM
0000
0100
0110
,
0000
0010
1000
0002
0000
0010
0000
0100
,
0000
0000
1003
0000
0010
0100
0010
0000
0110
0000
MMMM
0000
0001
0000
1001
0000
,
0000
1000
0100
0020
0000
1000
0000
0100
,
0000
0031
1000
0000
MMMM
0000
1000
1010
,
0000
1000
0010
2000
0000
0100
0000
0010
,
0000
0000
0000
0000
0001
0000
0000
0000
3001
0000
0010
0000
0100
0000
1000
0000
0010
0000
0100
0000
0000
0000
0010
0000
0000
0000
1000
0000
0001
0100
0001
0100
,
0010
0000
0000
0000
MMMM
0000
0000
0000
0010
0000
1000
0000
0001
0000
0000
0000
0010
0000
0100
0000
0000
0000
0100
0000
0000
0000
1000
0000
0010
1000
0010
1000
,
0100
0000
0000
0000
0010
0000
0000
0000
MMMM
0000
0000
0000
MMMM
0000
0000
0000
0001
0000
0010
0000
0000
0000
0010
0000
0000
0000
0100
0000
1000
0001
1000
0001
,
0100
0000
0000
0000
MMMM
0000
0000
0000
1000
0000
0010
0000
0100
0000
0000
0000
0100
0000
0001
0000
0000
0000
0001
0000
0000
0000
1000
0000
0100
0010
0001
1000
,
0100
MMMM
0000
0000
0000
0000
0000
0000
;

//---------------dance-single - I honestly don't know----------------
#NOTEDATA:;
#CHARTNAME:Easy;
#STEPSTYPE:dance-single;
#DESCRIPTION:I honestly don't know;
#CHARTSTYLE:;
#DIFFICULTY:Easy;
#METER:3;
#RADARVALUES:0.227224,0.223528,0.124751,0.062375,0.003898,204.000000,188.000000,16.000000,8.000000,0.000000,0.000000,0.000000,0.000000,0.000000,0.227224,0.223528,0.124751,0.062375,0.003898,204.000000,188.000000,16.000000,8.000000,0.000000,0.000000,0.000000,0.000000,0.000000;
#CREDIT:;
#NOTES:
0000
0000
0000
0000
,
0000
0000
0000
0000
,
1000
0000
0000
0000
1000
0000
0001
0100
,
0001
0000
0000
0000
0001
0000
1000
0100
,
2000
0000
3001
0001
,
0010
0000
0010
0010
,
0100
0000
0000
1000
0000
0100
0000
1000
,
0000
0100
0000
1000
0000
0000
1000
0000
,
1001
0000
0001
0100
,
0100
0000
0010
1000
,
0001
0000
0000
0001
0000
0010
0000
0001
,
0000
0010
0000
0001
0000
0000
1000
0000
,
0010
0010
0010
0010
,
0100
0100
0100
0100
,
0100
0000
0000
0001
0000
0010
0000
0001
,
0000
0000
0000
1000
0000
0100
0000
1000
,
0001
0001
0001
0001
,
1000
1000
1000
1000
,
1001
0000
0000
0110
0000
1000
0000
0001
,
0000
0100
0000
0001
0000
1000
0000
0000
,
1001
0000
0000
0110
0000
0001
0000
1000
,
0000
0100
0000
1000
0000
0001
0000
0000
,
0001
1000
0000
1001
0000
0100
0000
1000
,
0000
0001
0000
0100
0000
0010
0000
0000
,
0110
0000
0000
1001
0000
1000
0000
0010
,
0000
0100
0000
0001
0000
0010
0100
0000
,
0100
0100
0010
0010
,
0000
0100
0000
1000
0000
0010
0000
0100
,
0020
0000
0000
0000
,
0230
0000
0000
0000
,
0301
0000
0001
1000
0000
0010
0100
0000
,
0100
0000
0010
0100
0000
0000
1001
0000
,
1000
0000
1000
0001
0000
0010
0100
0000
,
0100
0000
0000
0000
0010
0000
0100
0000
0000
0000
1000
0000
0000
0001
0000
0000
,
1000
0100
1000
0001
,
0100
0000
0001
0000
1000
0001
2000
0000
,
3001
0100
0001
1000
,
0100
0000
1000
0000
0001
1000
0002
0000
,
0103
0010
1000
0010
,
0100
0000
0001
0000
0010
0200
0000
0000
,
0000
0000
0300
0000
1001
0000
0000
0110
,
0000
1000
0000
0001
0000
0100
0000
0001
,
0000
1000
0000
0000
1001
0000
0000
0110
,
0000
0001
0000
1000
0000
0100
0000
1000
,
0000
0001
0000
0000
0001
1000
0000
1001
,
0000
0100
0000
1000
0000
0001
0000
0100
,
0000
0010
0000
0000
0110
0000
0000
1001
,
0000
1000
0000
0010
0000
0100
0000
0001
,
0000
0010
0000
0200
0010
0000
0010
0000
,
0010
0310
0100
1000
,
0010
0100
0020
0100
,
0100
0100
0130
0001
,
1000
0001
0000
0000
0000
0000
0000
0000
;

//---------------dance-single - There are spins----------------
#NOTEDATA:;
#CHARTNAME:Standard;
#STEPSTYPE:dance-single;
#DESCRIPTION:There are spins;
#CHARTSTYLE:;
#DIFFICULTY:Medium;
#METER:6;
#RADARVALUES:0.384276,0.508017,0.218313,0.319673,0.058477,345.000000,317.000000,28.000000,41.000000,0.000000,0.000000,0.000000,0.000000,0.000000,0.384276,0.508017,0.218313,0.319673,0.058477,345.000000,317.000000,28.000000,41.000000,0.000000,0.000000,0.000000,0.000000,0.000000;
#CREDIT:;
#NOTES:
0000
0000
0000
0000
,
0000
0000
0000
0000
,
0001
0100
0100
0001
0010
0010
0100
1000
,
0010
0100
0100
0010
1000
1000
0100
0010
,
0001
1000
0010
0100
0001
0000
0001
0100
,
0010
1000
0000
0000
1000
0100
1000
0010
,
0000
0000
0100
0020
0000
0230
0000
2300
,
0000
3020
0000
0032
0000
0103
1000
0000
,
0001
0010
0100
1000
0001
0000
1000
0010
,
0100
0001
0000
0000
0001
0100
0010
0100
,
0000
0000
0001
0020
0000
2030
0000
3200
,
0000
0302
0000
0023
0000
0130
0010
0001
,
0001
1001
0100
0110
1000
1001
0010
0110
,
0001
1001
0100
0110
1000
1001
0010
0010
,
0100
0000
0000
0200
0000
0302
0000
2003
,
0000
0000
3100
2000
0000
3002
0000
0103
,
0001
1001
0100
0110
1000
1001
0010
0110
,
0001
1001
0100
0110
1000
1001
0010
0010
,
0100
0000
0100
0010
0000
0010
1000
0002
,
0000
0023
0000
2030
0000
3100
0001
0000
,
1001
0000
0001
1000
0000
0010
0100
0002
,
0000
0203
0000
2300
0000
3010
0001
0000
,
1001
1001
0000
0010
0000
0100
0001
0020
,
0000
2030
0000
3002
0000
0103
1000
0000
,
1001
0000
0010
0100
0000
0001
1000
0020
,
0000
0032
0000
2003
0000
3100
0001
0100
,
0001
0100
0001
0100
0010
1000
0010
1000
,
0100
0010
0000
0110
0000
1001
0000
1000
,
0001
0100
0001
0000
0100
0001
0100
0000
0010
0100
0010
0000
0100
0010
0100
0000
,
0010
1000
0010
0000
1000
0010
1000
0000
0001
1000
0001
0000
1000
0001
1000
0000
,
0001
0100
0010
0100
0000
0100
0010
1000
,
0001
0010
0100
0010
0000
0001
1000
0000
,
1000
0010
0100
0010
0000
0010
1000
0100
,
0010
0000
0001
0000
0100
0000
0001
0000
0000
0000
1000
0000
0000
1001
0000
0000
,
1000
1000
1000
0010
0100
0001
0100
0100
,
0100
0100
0100
0010
1000
0001
1001
0000
,
0001
0001
0001
0010
0100
1000
0010
0010
,
0010
0010
0010
0100
0001
1000
1001
0000
,
1000
1000
1000
0010
0100
0001
0100
0100
,
0100
0100
0100
0010
2000
0002
0000
0000
,
0000
0000
0000
3003
1001
0000
0100
0010
,
0000
0010
1000
0002
0000
0023
0000
2030
,
0000
3100
0001
0000
1001
0000
0001
1000
,
0000
0010
0100
0002
0000
0203
0000
2300
,
0000
3010
0001
0000
1001
1001
0000
0010
,
0000
0100
0001
0020
0000
2030
0000
3002
,
0000
0103
1000
0000
1001
0000
0010
0100
,
0000
0001
1000
0020
0000
0032
0000
2003
,
0000
0000
3100
0000
0001
0000
0100
0000
0001
0100
0000
0000
0001
0000
0000
0000
,
1000
0000
0100
0000
1000
0100
1000
0000
1000
0100
0000
0000
0010
0000
0001
0000
,
0100
0000
0010
0000
0100
0000
0000
0000
0100
0001
0000
0000
0001
0000
0000
0000
,
0001
0000
0010
0000
0001
0010
0001
0000
0001
0010
0000
0000
0100
0000
1000
0000
,
0010
0010
0000
0000
0000
0000
0000
0000
;
