#TITLE:Astral Body;
#SUBTITLE:;
#ARTIST:Between the Buried and Me;
#TITLETRANSLIT:;
#SUBTITLETRANSLIT:;
#ARTISTTRANSLIT:;
#GENRE:;
#CREDIT:;
#BANNER:Astral Body-bn.png;
#BACKGROUND:Astral Body-bg.png;
#LYRICSPATH:;
#CDTITLE:cd-title-Benpai.png;
#MUSIC:Astral Body.ogg;
#OFFSET:0.008700;
#SAMPLESTART:96.716499;
#SAMPLELENGTH:17.450001;
#SELECTABLE:YES;
#DISPLAYBPM:100.000000:110.000000;
#BPMS:0.000000=110.000000
,129.500000=100.000000
,131.750000=105.599998
,146.500000=100.000000
;
#STOPS:224.250000=0.650000
;
#BGCHANGES:;
#KEYSOUNDS:;
#ATTACKS:;

//---------------dance-single - ----------------
#NOTES:
     dance-single:
     :
     Challenge:
     11:
     0.647565,0.772130,0.277093,0.561291,1.083504,638.000000,599.000000,39.000000,79.000000,1.000000,0.000000,0.647565,0.772130,0.277093,0.561291,1.083504,638.000000,599.000000,39.000000,79.000000,1.000000,0.000000:
// measure 0
0000
0000
0000
0000
,  // measure 1
0000
0000
0000
0000
,  // measure 2
0000
0000
0000
0000
,  // measure 3
0000
0000
0000
0000
0000
0000
0000
0000
0001
0100
0010
0100
0001
1000
0100
0001
,  // measure 4
0000
0210
0000
0000
,  // measure 5
0000
0000
0000
0000
0000
0000
0000
0000
0000
0000
1300
0001
0000
0000
0000
0000
,  // measure 6
0101
0000
0000
0000
,  // measure 7
0000
0000
0000
0000
0100
0010
0000
0010
1000
0000
0001
1000
0000
0000
0000
0000
,  // measure 8
1100
0000
0100
0000
0000
0000
0010
0000
0001
0000
0000
0000
0001
0000
1000
0000
1001
0000
0000
0000
0000
0000
0000
0000
0001
0100
0010
0000
1000
0000
0001
0000
,  // measure 9
1000
0010
0000
0000
0000
0000
0000
0000
1010
0010
0100
0010
1000
0001
0010
0110
,  // measure 10
0000
0000
0000
0000
2100
0000
0000
0000
0001
0000
0000
3000
0220
0000
0330
0000
,  // measure 11
2001
0000
0000
0010
0000
0010
0000
3010
0200
0000
0000
0000
0301
0000
0001
0000
,  // measure 12
0012
0000
0000
1000
0000
1000
0000
1003
0020
0000
0130
0001
1000
0100
0010
0100
,  // measure 13
2100
0000
0000
3100
0001
0100
0010
0001
2000
0000
0000
3010
0001
0010
0100
0001
,  // measure 14
0201
0000
0000
0000
0000
0000
0000
0000
0000
0000
0000
0000
0000
0000
0301
1000
,  // measure 15
0000
0000
0000
0000
1001
0000
0000
0000
0000
0000
0000
0000
0000
0000
0000
0000
0000
0000
0000
0000
0000
0000
0000
0000
0000
0000
0000
0000
1000
0010
1000
0000
,  // measure 16
0001
0000
1000
0100
0010
0000
0100
0000
1000
0001
1000
0000
0000
0000
0000
0000
0000
0000
0000
0000
0010
0100
0001
0000
0100
0000
0010
0000
1000
0000
0001
0000
,  // measure 17
0010
0000
0000
0000
0000
0000
0000
0000
1001
1000
0100
0010
0001
0100
0010
1000
,  // measure 18
0000
0000
0000
0000
0012
0000
0000
0000
1000
0000
0000
0003
0220
0000
0330
0000
,  // measure 19
1002
0000
0000
0100
0000
0100
0000
0103
0020
0000
0000
0000
1030
0000
1000
0000
,  // measure 20
2100
0000
0000
0000
0000
0000
0001
0000
0000
0000
0001
0000
0000
0000
3001
0000
0200
0000
0000
0000
0310
1000
0010
0000
0100
0000
0001
0000
0001
0000
1000
0000
,  // measure 21
2001
0000
0000
3100
0001
0100
0010
0001
2000
0000
0000
3010
0001
0010
0100
0001
,  // measure 22
0102
0000
0000
0000
0000
0000
0000
0000
0000
0000
0000
0000
1003
0100
1000
0000
0001
0000
0100
0000
0010
0000
0100
0000
0001
0000
0010
0000
0200
0000
0000
0000
,  // measure 23
0310
0000
0001
1000
0001
0000
0100
0000
0010
0000
0100
0001
1000
0000
0100
0000
0010
0000
0001
1000
0001
0000
0100
0000
0010
0000
1000
0001
1000
0000
0100
0000
,  // measure 24
0020
0000
0001
0000
0031
0000
2002
3003
,  // measure 25
2010
0000
3010
0100
0001
1000
0001
1000
0100
0010
0001
0010
0100
0000
0100
0000
,  // measure 26
2100
0000
0000
0000
0000
0000
0001
0000
0000
0000
0001
0000
0000
0000
3001
0000
0020
0000
0000
0000
0130
1000
0001
0000
1000
0000
0010
0000
0100
0000
0001
0000
,  // measure 27
2000
0000
0000
3100
0010
0100
1000
0001
0100
0010
0100
0001
1000
0001
1000
0010
,  // measure 28
1000
0010
0100
0001
0000
0001
1000
0100
0010
0100
1000
0010
0000
0010
0100
0001
,  // measure 29
1000
0001
0010
0100
0000
0100
1000
0010
1000
0100
0010
0001
0000
0001
1000
0010
,  // measure 30
0100
0001
1000
0100
0000
0100
1000
0001
0100
0010
0100
0001
0000
0001
0100
0010
,  // measure 31
1000
0001
0010
0100
0000
0100
1000
0001
0100
0001
0010
0100
1000
0100
1000
0001
,  // measure 32
0200
0320
2030
3020
0230
0302
2003
0000
0000
0000
0000
3100
0010
0001
1000
0010
,  // measure 33
0000
0000
0000
1000
0100
0010
0001
1000
0010
0100
0001
1000
0100
0010
0001
1000
,  // measure 34
0100
0000
0000
0010
0000
0000
0100
0000
0000
1000
0000
0000
0001
0000
0010
0000
0001
0000
1000
0000
0010
0000
0100
0000
0001
0000
0100
0000
0010
0000
1000
0000
0001
0000
0010
0000
0100
0000
1000
0000
0001
0000
0200
0000
0000
0000
0320
0000
,  // measure 35
0000
0230
0000
0302
0000
0000
2003
0000
0000
3200
0000
0000
0320
0000
0000
0034
0000
0000
0000
0000
0000
0M00
0000
0000
,  // measure 36
0000
0000
0003
0000
2001
0000
0000
0000
0000
0000
0000
0000
0000
3000
0000
0000
0000
0000
0000
0000
1100
0000
1000
0000
0001
0000
0200
0000
0000
0000
0310
0000
,  // measure 37
0001
0010
0100
0001
1000
0100
0020
0000
0031
0010
0001
1000
1000
0000
0010
0100
,  // measure 38
0001
1000
0010
1000
0002
0000
0103
2000
0000
3200
0000
0320
0000
1030
0001
0000
,  // measure 39
0010
0000
0100
1000
0100
0000
1000
0000
0001
0000
0100
0000
0010
0000
0002
0000
0000
0000
0013
0000
1000
0000
0001
0000
0010
0000
0100
0000
1000
0000
0100
0000
,  // measure 40
0010
0001
0200
0000
0301
1000
0100
2000
0000
3100
0001
0100
0010
0001
1000
0010
,  // measure 41
0100
0001
1000
0100
1000
0001
0001
0000
0100
0010
1000
0001
0010
0000
0011
0000
,  // measure 42
1001
1000
0010
0200
0000
0301
1000
0200
0000
0310
0100
1000
0001
0100
0010
0100
,  // measure 43
0001
2000
0000
3100
0010
0002
0000
1003
0010
0100
0020
0000
0130
1000
0100
0001
,  // measure 44
1000
0100
0010
0200
0000
1300
0001
2000
0000
3010
0100
0001
0100
0010
1000
0100
,  // measure 45
1000
0000
0002
0000
0000
0000
0103
0000
0110
0000
0000
0000
1010
0000
0000
0000
1001
0000
0000
0000
0011
0000
0010
0000
0100
0000
0001
0000
0100
0010
0100
0000
,  // measure 46
1000
0001
0100
0100
0010
0100
0001
1000
0100
0010
0001
1000
0001
1000
0010
0100
,  // measure 47
0001
0000
0000
1000
0000
0000
0001
0000
0100
0000
0001
0000
2000
0000
0000
0000
0000
0000
3100
0000
0000
0001
0000
0000
0100
0000
0000
0010
0000
0000
0001
0000
0000
1000
0000
0000
0010
0000
0000
0200
0000
0000
0000
0000
0000
0310
0000
0000
,  // measure 48
1000
0001
0010
0001
0100
0010
1000
0010
0100
0001
0010
0200
0000
0310
0001
1000
,  // measure 49
1010
0000
0010
0100
0101
0000
1001
0001
0100
0010
0100
0001
1000
0001
0020
0000
,  // measure 50
0031
0000
0000
0000
0000
0000
0000
0000
0000
0000
0000
0000
0100
0000
0000
0000
0000
0000
0000
0000
0000
0000
0000
0000
0002
0000
0000
0000
0000
0000
0000
0000
0000
0000
0000
0000
0000
0000
0000
0000
0000
0000
0003
0000
0000
0000
0000
0000
1001
0000
0000
0000
0000
0000
0000
0000
0000
0000
0000
0000
1000
0000
0000
0000
0000
0000
0000
0000
0100
0000
0000
0000
0000
0000
0000
0000
1000
0000
0000
0000
0000
0000
0000
0000
0002
0000
0000
0000
0000
0000
0000
0000
0000
0000
0000
0000
0000
0000
0000
0000
0000
0000
0000
0000
0000
0000
0000
0000
0103
0000
0000
0000
0000
0000
0000
0000
0000
0000
0000
0000
1000
0000
0000
0000
0000
0000
0000
0000
0000
0000
0000
0000
0100
0000
0000
0000
0000
0000
0000
0000
0000
0000
0000
0000
0020
0000
0000
0000
0000
0000
0000
0000
0000
0000
0000
0000
1030
0000
0000
0000
0000
0000
0000
0000
0000
0000
0000
0000
0001
0000
0000
0000
0000
0000
0000
0000
0000
0000
0000
0000
0010
0000
0000
0000
0000
0000
0000
0000
0000
0000
0000
0000
,  // measure 51
0200
0000
1300
0001
1000
0100
0010
0001
1000
0010
0100
0002
0103
0010
2000
0000
,  // measure 52
3010
0000
1010
0000
0000
0000
0011
0000
0000
0000
1100
0000
0000
0000
1000
0000
1000
0000
0001
0000
0100
0000
0010
0100
0001
0000
1000
0000
0100
0000
0010
0000
,  // measure 53
0100
0000
0000
0001
0000
0000
0100
0000
0000
0010
0000
0000
0001
0000
0000
1000
0000
0000
0010
0000
0000
0100
0000
0000
0010
0000
0000
1000
0000
0000
0001
0000
0000
0100
0000
0000
0010
0000
0000
1000
0000
0000
0001
0000
0000
1000
0000
0100
,  // measure 54
0000
1000
0000
0002
0000
0000
0000
0000
0000
0013
0000
0000
1000
0000
0000
0010
0000
0000
0100
0000
0000
1000
0000
0000
0001
0000
0000
0100
0000
0000
0020
0000
0000
0000
0000
0000
0130
0000
0000
0010
0000
0000
0200
0000
0000
0000
0000
0000
,  // measure 55
0301
1000
0100
0010
0100
0020
0000
0031
2000
0000
3010
0100
0001
0020
0000
0130
,  // measure 56
1000
0001
0000
1000
0010
0220
0000
0000
0000
0000
0000
0000
0000
0000
0000
0000
,  // measure 57
0000
0000
0000
0000
,  // measure 58
0000
0000
0000
0000
,  // measure 59
0000
0000
0000
0000
,  // measure 60
0000
0000
0000
0330
0000
0000
0000
0000
;
