#TITLE:μ9;
#SUBTITLE:;
#ARTIST:PAXA;
#TITLETRANSLIT:;
#SUBTITLETRANSLIT:;
#ARTISTTRANSLIT:;
#GENRE:;
#CREDIT:;
#BANNER:μ9.png;
#BACKGROUND:μ9-bg.png;
#LYRICSPATH:;
#CDTITLE:;
#MUSIC:SPACE POP μ9.mp3;
#OFFSET:0.000000;
#SAMPLESTART:48.333332;
#SAMPLELENGTH:13.000000;
#SELECTABLE:YES;
#DISPLAYBPM:180.000000;
#BPMS:0.000000=180.000000
;
#STOPS:
;
#BGCHANGES:;
#KEYSOUNDS:;
#ATTACKS:;

//---------------dance-single - ----------------
#NOTES:
     dance-single:
     :
     Hard:
     7:
     0.488632,0.596335,0.000000,0.221773,0.000000,401.000000,401.000000,0.000000,26.000000,0.000000,0.000000,0.488632,0.596335,0.000000,0.221773,0.000000,401.000000,401.000000,0.000000,26.000000,0.000000,0.000000:
0000
0000
0000
0000
,
0000
0000
0000
0000
,
0000
0000
0000
0000
,
0000
0000
0000
0000
,
0000
0000
0000
0000
,
0000
0000
0000
0000
,
0000
0000
0000
0000
,
0000
0000
0000
0000
,
0000
0000
0000
1000
0100
0001
0000
0010
,
0100
0001
0000
1000
0001
0100
0000
0010
,
0001
0100
0000
1000
0100
0001
0000
0001
,
1000
0100
0000
0100
0001
0010
0000
0010
,
0100
0001
0000
1000
0100
0001
0000
0010
,
0100
0001
0000
0100
0010
1000
0000
0001
,
0010
1000
0000
1000
0100
0001
0000
0010
,
0100
0001
0000
1000
0100
0001
0000
0010
,
0100
0001
0000
1000
0000
0100
0010
1000
,
0000
0000
0001
0020
0000
0030
0000
0000
,
0000
0000
0000
0001
0000
0010
1000
0001
,
0000
0000
1000
0200
0000
0300
0000
0000
,
0000
0000
0000
0010
0000
1000
0100
0010
,
0000
0000
0001
0200
0000
0300
0000
0000
,
0000
0000
0000
0001
0000
0010
1000
0001
,
0000
0000
1000
0200
0000
0300
0000
0000
,
0000
0000
0000
1000
0100
0000
0010
0000
,
1000
0000
0001
0000
0001
2000
0000
3000
,
0000
0100
0000
0000
1000
0001
0000
1000
,
0000
0100
0000
1000
0000
0001
2000
0000
,
3000
0000
0000
1000
0100
1000
0000
0100
,
0010
0100
0000
0010
0001
0010
0000
0001
,
0100
0001
0000
1000
0001
1000
0000
0010
,
0100
0010
0000
1000
0010
1000
0000
0100
,
0001
0100
0000
1000
0100
0001
0000
0100
,
0010
1000
0000
0100
0001
0010
0000
0001
,
0100
1000
0000
1000
0010
0001
0000
0010
,
0100
0010
0000
1000
0100
1000
0000
0001
,
0100
1000
0000
0001
0010
0001
0000
0010
,
0100
0010
0000
0100
1000
0100
0000
1000
,
0010
1000
0000
0001
1000
0001
0000
0100
,
0010
0100
0000
0001
0100
0001
0000
0100
,
1000
0100
0000
1000
0100
0001
0000
0100
,
0010
1000
0000
0100
0001
0010
0000
0001
,
0100
1000
0000
1000
0010
0001
0000
0010
,
0100
0010
0000
1000
0100
1000
0000
0001
,
0100
1000
0000
0100
1000
0100
1000
0100
,
1000
0100
0000
0010
0100
0010
0100
0010
,
0100
0010
0000
0001
0010
0001
0010
0001
,
0010
0001
0000
1000
0001
1000
0001
1000
,
0001
1000
0000
0100
0010
0100
0010
0100
,
0010
0100
0000
1000
0100
1000
0100
1000
,
0100
1000
0000
0001
0010
1000
0010
0001
,
0010
1000
0000
1000
0100
0001
0100
1000
,
0100
0001
0000
0000
1000
0100
1000
0020
,
0030
1000
0000
0000
0010
1000
0010
0002
,
0003
0010
0000
0000
0001
0010
0001
0200
,
0300
0001
0000
0000
0100
0001
0100
2000
,
3000
0100
0000
0000
0010
0100
0010
0002
,
0003
0010
0000
0000
1000
0001
1000
0200
,
0300
1000
0000
0000
0001
0100
0001
2000
,
3000
0001
0000
0000
0001
0100
0001
2000
,
3000
0100
0000
0000
1000
0100
1000
0010
,
0100
0001
0010
1000
0100
0010
0100
0001
,
1000
0100
0010
1000
0100
0001
0100
0010
,
0001
0100
0001
0010
1000
0100
0001
0010
,
0100
0001
1000
0100
0010
0100
0001
1000
,
0001
0100
1000
0010
0100
0001
0010
1000
,
0100
0010
0100
0001
1000
0100
0010
1000
,
0100
0001
0100
0010
0001
0100
0001
0010
,
1000
0100
0010
2000
0000
0000
0000
3200
,
0000
0000
0300
0020
0000
0000
0000
0030
,
0000
0000
0000
0002
0000
0000
0003
0020
,
0000
0000
0030
0200
0000
0000
0000
0300
,
0000
0000
0000
1000
0100
1000
0001
0010
,
0100
0010
0000
1000
0001
0100
0010
1000
,
0001
0010
0000
0100
1000
0100
0001
0010
,
0100
0010
0000
1000
0100
0001
0010
0100
,
0001
1000
0100
0000
0000
1000
0100
2000
,
0000
0010
3000
0000
0000
0001
0010
0002
,
0000
0100
0003
0000
0000
0100
0001
0200
,
0000
0001
0300
0000
0000
1000
0100
2000
,
0000
0010
3000
0000
0000
0001
0010
0002
,
0000
0100
0003
0000
0000
0010
1000
0020
,
0000
1000
0030
0000
0000
0000
0000
0000
;

//---------------dance-single - ----------------
#NOTES:
     dance-single:
     :
     Beginner:
     1:
     0.095046,0.139461,0.000000,0.017059,0.000000,78.000000,78.000000,0.000000,2.000000,0.000000,0.000000,0.095046,0.139461,0.000000,0.017059,0.000000,78.000000,78.000000,0.000000,2.000000,0.000000,0.000000:
0000
0000
0000
0000
,
0000
0000
0000
0000
,
0000
0000
0000
0000
,
0000
0000
0000
0000
,
0000
0000
0000
0000
,
0000
0000
0000
0000
,
0000
0000
0000
0000
,
0000
0000
0000
0000
,
0000
0000
1000
0000
,
0000
0000
0010
0000
,
0000
0000
1000
0000
,
0000
0000
0001
0000
,
0000
0000
0100
0000
,
0000
0000
0010
0000
,
0000
0000
1000
0000
,
0000
0000
0010
0000
,
0000
0000
0100
0000
,
0000
0000
0001
0000
,
0000
0000
1000
0000
,
0000
0001
0000
0000
,
0000
0000
0010
0000
,
0000
0100
0000
0000
,
0000
0000
1000
0000
,
0000
0010
0000
0000
,
0000
0000
1000
0000
,
0000
0000
0020
0000
,
0030
0001
0000
0000
,
0000
0000
2000
0000
,
3000
0010
0000
0000
,
0000
1000
0000
0000
,
0000
0001
0000
0000
,
0000
0100
0000
0000
,
0000
0010
0000
0000
,
0000
1000
0000
0000
,
0000
0001
0000
0000
,
0000
0100
0000
0000
,
0000
0000
0010
0000
,
0010
0000
0010
0000
,
0000
0000
1000
0000
,
1000
0000
1000
0000
,
0000
0000
0001
0000
,
0001
0000
0001
0000
,
0000
0000
0010
0000
,
0010
0000
0010
0000
,
0000
0010
0000
0000
,
0000
1000
0000
0000
,
0000
0001
0000
0000
,
0000
0010
0000
0000
,
0000
0100
0000
0000
,
0000
0010
0000
0000
,
0000
1000
0000
0000
,
0000
0001
0000
0000
,
0000
0010
0000
0000
,
0000
0000
1000
0000
,
0000
0000
0001
0000
,
0000
0000
0100
0000
,
0000
0000
1000
0000
,
0000
0000
0010
0000
,
0000
0000
1000
0000
,
0000
0000
0001
0000
,
0000
0000
0010
0000
,
0000
0100
0000
0000
,
0000
0001
0000
0000
,
0000
1000
0000
0000
,
0000
0100
0000
0000
,
0000
0100
0000
0000
,
0000
1000
0000
0000
,
0000
0001
0000
0000
,
0000
0000
0010
0000
,
0001
0000
0000
0000
,
0000
0010
0000
1000
,
0000
0000
0000
0000
,
0000
0100
0000
0010
,
0000
0000
0000
0000
,
0000
0001
0000
1000
,
0000
0000
0000
0000
,
0000
0000
0010
0000
,
0000
0000
1000
0000
,
0000
0000
0000
0001
,
0000
0000
0000
0010
,
0000
0000
0000
0100
,
0000
0000
0000
1000
;

//---------------dance-single - ----------------
#NOTES:
     dance-single:
     :
     Easy:
     3:
     0.263203,0.316666,0.000000,0.281481,0.000000,216.000000,216.000000,0.000000,33.000000,0.000000,0.000000,0.263203,0.316666,0.000000,0.281481,0.000000,216.000000,216.000000,0.000000,33.000000,0.000000,0.000000:
0000
0000
0000
0000
,
0000
0000
0000
0000
,
0000
0000
0000
0000
,
0000
0000
0000
0000
,
0000
0000
0000
0000
,
0000
0000
0000
0000
,
0000
0000
0000
0000
,
0000
0000
0000
0000
,
0000
0000
1000
1000
,
1000
1000
1000
1000
,
1000
1000
0001
0001
,
0001
0001
0001
0001
,
0001
0001
0010
0010
,
0010
0010
0010
0010
,
0010
0010
0100
0100
,
0100
0100
0100
0100
,
0100
1000
1000
1000
,
0000
0001
0000
0000
,
0000
0010
0010
0010
,
0000
1000
0000
0000
,
0000
1000
1000
1000
,
0000
0001
0000
0000
,
0000
0010
0010
0010
,
0000
1000
0000
0000
,
0000
0000
1000
1000
,
0001
0000
0001
0000
1000
0002
0000
0003
,
2000
3000
1000
1000
,
0001
0000
0001
0000
1000
0002
0000
0003
,
0000
0000
1000
0100
,
0001
0010
1000
0100
,
0100
0001
0010
1000
,
1000
0100
0001
0010
,
1000
0100
0001
0010
,
1000
1000
0100
0100
,
0001
0001
0010
0010
,
0001
0001
0100
0100
,
0010
0010
1000
0100
,
0001
0010
0001
0100
,
1000
0010
0001
1000
,
0001
0100
0010
0001
,
1000
0001
0100
0100
,
0100
0100
0010
0010
,
0010
0010
0001
0001
,
0001
0001
1000
1000
,
1000
1000
0200
0000
,
0300
0000
0020
0000
,
0030
0020
0000
0030
,
0000
0200
0000
0300
,
0000
0020
0000
0030
,
0000
0200
0000
0300
,
0000
2000
0000
3000
,
0000
0002
0000
0000
,
0003
0000
1000
0200
,
0000
0301
1000
0002
,
0000
1003
0010
0002
,
0000
1003
0100
2000
,
0000
3001
0010
0002
,
0000
1003
0010
0002
,
0000
1003
0001
0200
,
0000
0310
0001
2000
,
0000
3001
0000
1000
,
1000
0100
0001
0010
,
1000
0100
0001
0100
,
0010
0100
1000
0001
,
0001
0010
1000
0100
,
0001
0010
0100
0001
,
1000
0100
0001
0010
,
0001
1000
0010
0100
,
0001
1000
0200
0001
,
0302
0000
0000
0003
,
0000
0200
0010
0320
,
0000
0000
0000
0030
,
0000
0020
1000
0230
,
0000
0000
0000
0300
,
0000
0000
2000
0100
,
0002
0000
3003
0000
,
0000
0000
1000
0002
,
0000
0103
1000
0020
,
0000
1030
0001
0200
,
0000
0301
0010
2000
,
0000
3001
0010
0002
,
0000
1003
0100
0002
,
0000
0000
0003
0000
;

//---------------dance-single - ----------------
#NOTES:
     dance-single:
     :
     Medium:
     7:
     0.481321,0.562109,0.000000,0.238832,0.000000,395.000000,395.000000,0.000000,28.000000,0.000000,0.000000,0.481321,0.562109,0.000000,0.238832,0.000000,395.000000,395.000000,0.000000,28.000000,0.000000,0.000000:
0000
0000
0000
0000
,
0000
0000
0000
0000
,
0000
0000
0000
0000
,
0000
0000
0000
0000
,
0000
0000
0000
0000
,
0000
0000
0000
0000
,
0000
0000
0000
0000
,
0000
0000
0000
0000
,
0000
0000
1000
1000
,
1000
1000
1000
1000
,
1000
0100
1000
0000
0001
0000
0001
0000
,
0001
0001
0001
0001
,
0001
0100
0001
0000
0010
0000
0010
0000
,
0010
0010
0010
0010
,
0010
0100
0010
0000
0100
0000
0100
0000
,
0100
0000
0100
0000
0100
0000
0100
0010
,
0100
0000
1000
0000
1000
0100
1000
0000
,
0000
0000
0001
0010
0100
0010
0001
0100
,
0000
0000
0010
0000
0010
0100
0010
0000
,
0000
0000
1000
0100
0010
0001
0010
0100
,
0000
0000
1000
0000
1000
0001
1000
0000
,
0000
0000
0001
0010
1000
0001
1000
0001
,
0000
0000
0010
0000
0010
0100
0010
0000
,
0000
0000
1000
0100
0010
0100
0010
0001
,
0000
0000
0000
0000
1000
0000
0000
0001
,
0000
1000
0000
0010
0000
0200
0000
0300
,
0001
0000
0000
0100
0000
0010
0000
0100
,
0000
0001
0000
0000
1000
0002
0000
0003
,
0000
0000
1000
0100
0010
1000
0100
0001
,
0010
0000
1000
0010
0100
0001
1000
0100
,
0010
0000
0001
0010
0100
0001
0010
1000
,
0010
0000
0100
1000
0001
0010
0100
0001
,
1000
0000
0010
1000
0001
0010
1000
0100
,
0100
0000
0001
0100
0010
1000
0001
0010
,
0100
0000
0100
0001
1000
0100
0001
0010
,
0001
0000
1000
0001
0010
0100
1000
0010
,
0001
0000
1000
0001
1000
0001
0200
0000
,
0301
0000
0010
0100
0010
0100
2000
0000
,
3100
0000
0001
1000
0001
1000
0020
0000
,
1030
0000
0001
0100
0001
0100
2000
0000
,
3100
0000
0001
0100
0001
0010
0200
0000
,
0301
0000
1000
0001
0010
0001
0200
0000
,
0310
0000
1000
0100
1000
0100
2000
0000
,
3010
0000
1000
0100
0010
0001
0200
0000
,
0310
0000
0000
0000
1000
0100
1000
0100
,
1000
0100
0000
0000
0001
1000
0001
1000
,
0001
1000
0000
0000
0001
0100
1000
0010
,
0001
0100
0000
0000
1000
0010
0100
0010
,
0001
0010
0000
0000
0001
0100
1000
0010
,
0001
0100
0000
0000
0100
1000
0001
1000
,
0001
0010
0000
0000
0100
1000
0010
0001
,
0100
1000
0000
0000
0010
0001
1000
0010
,
0001
0010
0000
0000
0001
0000
0200
0000
,
0300
0010
0001
0010
1000
0100
0200
0000
,
0300
0010
0001
0010
0100
0010
0200
0000
,
0300
0010
0001
0010
1000
0100
0020
0000
,
0030
1000
0001
0010
0001
0010
2000
0000
,
3000
0010
0001
1000
0001
0010
2000
0000
,
3000
0010
0001
0100
0001
0010
0200
0000
,
0300
1000
0001
0010
0001
0000
0200
0000
,
0300
0010
0001
0010
0100
0010
1000
0100
,
1000
0000
0001
0010
0100
1000
0010
0100
,
0010
0100
0000
0010
0001
0100
0010
0100
,
1000
0001
0010
0000
0100
0001
1000
0001
,
0010
1000
0010
0000
0100
0001
1000
0010
,
0001
1000
0010
0000
0100
0010
0100
1000
,
0001
1000
0010
0000
1000
0100
0001
0100
,
0010
0001
0010
0000
1000
0100
1000
0001
,
0010
0100
1000
0000
0000
0000
0001
0000
,
0000
1000
0000
0002
0000
0000
0003
0000
,
0000
0000
0100
0000
0000
0010
0000
0200
,
0000
0301
0000
0000
,
0000
0000
0100
0000
0000
0001
0000
0200
,
0000
1300
0000
0000
,
0000
0000
1000
0000
0000
0001
0000
2000
,
0000
0000
3000
0000
1000
0100
0010
1000
,
0100
0000
0100
0002
,
0003
1000
0010
1000
0100
0001
0200
0000
,
0300
0010
0001
0010
1000
0010
0200
0000
,
0300
0010
0001
0010
1000
0100
0020
0000
,
0030
1000
0001
0010
0001
0010
0200
0000
,
0300
0010
0001
1000
0001
0010
2000
0000
,
3000
0010
0001
0100
0000
0000
0000
0000
;
