#TITLE:teraholic;
#SUBTITLE:;
#ARTIST:44teru-k;
#TITLETRANSLIT:;
#SUBTITLETRANSLIT:;
#ARTISTTRANSLIT:;
#GENRE:;
#CREDIT:;
#BANNER:;
#BACKGROUND:;
#LYRICSPATH:;
#CDTITLE:;
#MUSIC:teraholic.mp3;
#OFFSET:0.005000;
#SAMPLESTART:39.063999;
#SAMPLELENGTH:12.000000;
#SELECTABLE:NO;
#BPMS:0.000000=172.000000
,144.000000=86.000000
,176.000000=172.000000
;
#STOPS:
;
#BGCHANGES:0.000=teraholic.avi=1.000=0=1=1=StretchRewind====,
99999=-nosongbg-=1.000=0=0=0 // don't automatically add -songbackground-
;
#KEYSOUNDS:;
#ATTACKS:;

//---------------dance-single - ----------------
#NOTES:
     dance-single:
     :
     Hard:
     9:
     0.652380,0.920048,0.322352,0.232810,0.962580,510.000000,474.000000,36.000000,26.000000,0.000000,0.000000,0.652380,0.920048,0.322352,0.232810,0.962580,510.000000,474.000000,36.000000,26.000000,0.000000,0.000000:
0000
0000
0000
0000
,
0000
0000
0000
0000
,
1000
0100
0010
0001
,
0022
0000
0000
0033
1001
0000
0000
0000
,
1000
0100
0000
0010
0000
0001
0100
0001
0000
0100
0000
0010
,
1000
0010
0000
0100
0000
0001
0010
0001
0000
1000
0000
0001
,
0100
0001
0000
1000
0000
0100
0010
0100
0000
0010
0000
0001
,
1000
0000
0101
0000
0010
0000
2020
0000
0000
3030
0000
0000
,
1000
0001
0000
0100
0000
0010
1000
0100
0000
1000
0000
0001
,
0100
0010
0000
1000
0000
0100
0010
0100
0000
1000
0000
0001
,
0100
0010
0000
1000
0000
0100
0010
0100
0000
1000
0000
0100
,
0010
0000
0001
0100
0000
0000
0110
0000
0000
2020
0000
3030
,
1001
0000
0000
0001
0000
1000
0100
1000
0000
0001
0000
0100
,
0010
0100
0000
0001
0000
0010
0100
0010
0000
0001
0000
1000
,
0100
0010
0000
0001
0000
0100
0010
0100
0000
0001
0000
1000
,
0100
0000
0100
0000
0010
0001
1000
0000
0000
0000
0000
0000
,
0001
0100
0000
0001
0000
1000
0100
0010
0000
0001
0000
0010
,
0100
1000
0000
0001
0000
0100
0010
1000
0000
0001
0000
1000
,
0100
0000
0000
1000
0000
1000
0100
0000
0100
0010
0000
0010
,
0001
0000
1001
0000
,
1001
0000
0000
0001
0000
1000
0100
0010
0000
0001
0000
0010
,
0100
1000
0000
0001
0000
1000
0100
1000
0000
0001
0000
0100
,
0010
0100
0000
0001
0000
1000
0100
1000
0000
0001
0000
0100
,
0010
0000
1010
0000
1001
0000
0101
0000
0000
0000
0000
0000
,
1010
0000
0000
1000
0000
0001
0100
0001
0000
1000
0000
0100
,
0010
0001
0000
1000
0000
0001
0010
0100
0000
1000
0000
0001
,
0100
0010
0000
1000
0000
0100
0010
0100
0000
1000
0100
0000
,
1100
0000
0001
0010
0100
1000
0001
0000
0000
1000
0000
0000
,
1001
0001
0101
0100
,
0110
0010
1010
1000
,
1001
0001
0101
0100
,
0010
0000
1000
0000
0100
0000
1001
0000
0000
0000
0000
1000
,
0200
0000
0000
0310
0000
0001
0020
0000
0000
0130
0000
1000
,
0200
0000
0000
0310
0000
0001
0020
0000
0000
0130
0000
0000
,
1000
0001
1000
0001
0000
0000
0100
0010
0100
0010
0000
0000
,
2000
0000
3001
0000
,
1001
0000
0000
0000
0000
0000
0002
0000
0000
0000
0000
0000
0200
0003
0000
0000
0000
0000
0320
0000
0000
0000
0000
0000
,
2030
0000
0000
0000
0000
0000
3200
0000
0000
0000
0000
0000
0320
0000
0000
0000
0000
0000
0031
0000
0000
0000
0000
1000
,
0200
0000
0000
0000
0000
0000
0320
0000
0000
0000
0000
0000
0032
0000
0000
0000
0000
0000
0003
0000
0000
0000
0000
0001
,
0020
0230
2300
3001
,
1001
0000
0000
0001
0000
0100
0010
0000
1000
0100
0000
0010
0000
0000
0001
0100
0000
0000
0010
0000
0000
1000
0000
0100
,
0010
0000
0000
0001
0000
1000
0100
0000
0010
0100
0000
1000
0000
0001
0100
0001
1000
0010
0100
0001
0100
0010
0000
0000
,
1000
0000
0000
0001
0000
0100
0010
0000
1000
0100
0000
0010
0000
0000
0010
0100
0000
0000
1000
0000
0000
0010
0000
0100
,
0001
0000
0000
0100
0000
0010
0100
0000
0010
0100
0000
0001
0000
1000
0000
0010
0000
0100
0001
0100
0000
0010
0000
1000
,
1001
0000
0001
0100
0000
0100
0010
0000
0010
1000
0000
1000
,
0100
0000
0100
0010
0000
0010
0001
0000
0000
1000
0000
0000
,
2001
0000
0000
3001
0000
0001
0010
0000
0010
0100
0000
0100
,
1000
0000
1000
0010
1000
0100
0010
0001
0010
0100
1000
0001
,
0100
0000
0010
1000
0000
0001
0010
0000
0100
1000
0000
0001
,
0100
0000
0010
1000
0000
0100
0010
0000
0001
0010
0000
0000
,
1001
0000
0000
1000
0000
1000
0100
0000
0100
0001
0000
0001
,
0000
0100
0000
0100
0000
1000
0001
0100
0000
0001
0000
1000
,
0010
0110
0101
0011
,
1001
0000
0000
1010
0000
0000
0101
0000
0000
1001
0000
1000
,
0100
0000
0000
0011
0000
0001
0010
0000
0100
1000
0000
0001
,
0000
0000
1000
0100
0010
0001
0010
0100
1000
0100
0000
0000
,
1010
0000
1000
0100
0000
0100
0010
0000
0010
0001
0000
0001
,
0100
0000
0010
1000
0000
0001
0010
0000
0100
1000
0000
0000
,
0001
1000
0001
1000
0010
0100
0010
1000
0100
0010
0001
1000
,
0010
1000
0000
0001
0000
1000
0100
0010
0000
0001
0000
1000
,
0001
0000
0010
0100
0000
1000
0100
0000
0010
0001
0000
0010
,
0001
1000
0001
1000
0000
0100
1000
0000
0000
0001
0000
0001
,
0010
0000
0000
0001
0000
0010
0001
0000
1000
0100
0000
0010
,
0000
0001
0100
0010
1000
0100
0010
0001
0100
0010
1000
0001
,
0010
0000
0100
1000
0000
0100
0010
0000
0001
0010
0000
0100
,
1000
0001
0100
0010
0000
1000
0100
0000
0010
0001
0000
1000
,
0001
0100
0010
0100
0001
1000
0100
0010
0100
1000
0001
0100
,
0010
1000
0000
0100
0000
0010
0001
0010
0000
0100
0000
1000
,
0220
0000
0330
0000
;

//---------------dance-single - ----------------
#NOTES:
     dance-single:
     :
     Challenge:
     13:
     1.007991,1.491776,0.205947,0.349215,2.077383,788.000000,765.000000,23.000000,39.000000,34.000000,0.000000,1.007991,1.491776,0.205947,0.349215,2.077383,788.000000,765.000000,23.000000,39.000000,34.000000,0.000000:
0000
0000
0000
0000
,
1001
0000
0000
0000
0000
0000
0001
0000
0100
0000
0010
0000
1010
0000
0000
0000
0100
0000
0001
0000
0100
0000
0010
1000
,
0010
0000
0100
0001
0100
0010
1010
0000
0100
0010
0001
0010
,
0100
1000
0100
0010
0001
0010
0100
1000
0001
0100
0010
1000
0001
0000
0000
0000
0000
0000
MM01
0000
0000
0000
0001
0000
,
1001
1000
0000
0001
0000
0010
0100
0010
0000
0001
0000
1000
,
0100
0000
0010
0000
0001
0000
2000
0000
0000
0000
3100
0000
0010
0000
0100
0000
1000
0000
0002
0000
0000
0000
0103
0010
,
0100
0010
1000
0002
0000
1003
0100
0010
0001
0010
0000
0100
,
1100
0000
0000
0000
1001
0000
0000
0000
0101
0000
0000
0000
2002
0000
0000
0000
0000
0000
3003
0000
1000
0001
0100
0010
,
1000
0100
0000
0020
0000
0031
1000
0001
0000
0020
0000
0130
,
1000
0100
0000
0020
0000
0031
1000
0001
0000
0020
0000
0031
,
1000
0100
0000
0010
0001
1000
0010
0100
0001
0100
0000
0010
,
1010
0000
0000
0000
1000
0000
0100
0000
0010
0000
0001
0000
1000
0100
0010
0100
1000
0001
0100
0010
0100
0001
0010
0001
,
1000
0200
0000
0310
0000
0001
0010
0200
0000
1300
0000
0001
,
0100
0020
0000
1030
0000
0100
0010
0002
0000
0103
0000
0010
,
1000
0200
0000
0310
0001
0100
0010
1000
0010
0100
0000
0001
,
1001
0000
0000
0000
1010
0000
0000
0000
1000
0000
0100
0000
0010
0001
0010
0100
1000
0001
0100
0010
0100
0001
0010
0001
,
0010
0100
1000
0001
0000
1000
1000
0100
0010
0001
0000
1000
,
0100
0000
0010
0000
0100
0000
1000
0000
0000
0000
0001
0000
0100
0000
0010
0000
0100
0000
0001
0000
0000
0000
1000
0001
,
1000
0010
0100
0001
1000
0100
0010
0001
0010
0100
1000
0001
,
0100
0010
1000
0001
0010
0100
1000
0001
0100
0010
1000
0100
0010
0000
0001
0000
0100
0000
0010
0000
1000
0000
0100
0010
,
0001
1000
0000
0010
0000
0100
0001
0100
0000
0010
0000
1000
,
0100
0000
1000
0000
0000
0000
0001
0000
0000
0000
0010
0000
0100
0000
1000
0000
0000
0000
0001
0000
0000
0000
1000
0001
,
1000
0010
0000
0100
0000
0001
1000
0100
0010
0100
0000
1000
,
1001
0000
0000
0000
0110
0000
0000
0000
0100
0000
0001
0000
0100
0010
1000
0001
0010
0100
1000
0001
0100
0010
1000
0100
,
0010
0001
0010
0200
0000
1300
0100
0010
0001
0200
0000
0310
,
1000
0100
1000
0002
0000
0103
0010
0100
0010
0200
0000
0301
,
0010
0001
1000
0001
0000
1000
0100
0010
0001
1000
0000
0001
,
1001
0000
0000
0000
0010
0000
0010
0000
0100
0000
1000
0000
0002
0000
0000
0000
0000
0000
1003
0100
0010
0001
0010
0100
,
0010
0002
0000
0103
0000
0010
0100
0020
0000
1030
0000
0010
,
0100
0020
0000
0130
0000
0001
0010
0002
0000
0013
0000
0100
,
1000
0200
0000
1300
0000
1000
0001
0010
0100
1000
0000
0001
,
0101
0000
0000
0000
0110
0000
0000
0000
0010
0000
1000
0000
0001
0010
0100
1000
0001
0010
0001
1000
0100
0010
0001
1000
,
0010
0100
0000
0001
0000
0100
0010
1000
0100
0010
0100
1000
,
0001
0000
0100
0000
0010
0000
1000
0000
0010
0000
0100
0000
0001
0000
0010
0000
0001
0000
1000
0000
0100
0000
0010
0001
,
0010
0100
1000
0001
0100
0010
0100
0001
0010
0001
1000
0100
,
0010
0001
0010
0100
1000
0001
0100
0010
0100
0001
1000
0010
0100
0000
0001
0000
0100
0000
0010
0000
0000
0000
0000
0000
,
1002
0000
0000
0000
0000
0000
0203
0000
0000
0000
0000
0000
0320
0000
0000
0000
0000
0000
2030
0000
0000
0000
3000
1000
,
0200
0000
0000
0000
0000
0000
0320
0000
0000
0000
0000
0000
0032
0000
0000
0000
0000
0000
2003
0000
0000
0000
3000
0001
,
0200
0000
0000
0000
0000
0000
0320
0000
0000
0000
0000
0000
2030
0000
0000
0000
0000
0000
3200
0000
0000
0000
0300
0010
,
0002
0203
0320
1030
,
1001
0000
0000
0001
0000
0100
0010
0000
1000
0100
0000
0010
0000
0000
0001
0010
0000
0000
0100
0000
0000
1000
0000
0100
,
0010
0000
0000
0001
0000
0010
0100
0000
1000
0100
0000
0010
0000
0001
0010
0100
1000
0001
0100
0010
1000
0100
0010
0100
,
1000
0001
0100
0010
0100
0001
0010
0001
1000
0100
0010
0001
0010
0100
1000
0001
0100
0010
0100
0001
0010
0001
1000
0100
,
0010
0001
0010
0100
1000
0001
0100
0010
1000
0100
0010
0001
1100
0000
0000
1100
0000
0001
0010
0001
0000
0100
0000
0010
,
1001
0000
1000
010M
0000
0100
M01M
0000
0010
MM01
0000
0001
,
M010
0000
0000
0000
0010
0000
010M
0000
0000
0000
0100
0000
100M
0000
0000
0000
1000
0000
0MM1
0000
0000
0000
1000
0001
,
1000
0000
0100
0010
0000
0001
0010
0000
0100
1000
0000
0001
,
M1M0
0000
0000
0000
0001
0000
0100
0000
0100
0000
0010
0000
1000
0000
1000
0000
0100
0000
0010
0000
0001
0000
1000
0010
,
0100
0000
0100
M001
0000
0001
MM10
0000
0010
010M
0000
0100
,
10MM
0000
0000
0000
1000
0000
0MM1
0000
0000
0000
0001
0000
1000
0000
0000
0000
1000
0000
0100
0000
0000
0000
0010
0001
,
0100
0000
0010
1000
0000
1000
0100
0000
0010
0001
0000
0001
,
0000
0000
0101
0000
0000
0000
0101
0000
0000
0000
0010
0000
1000
0000
0010
0000
0000
0000
1000
0100
0010
0001
1000
0100
,
1000
0000
0010
M100
0000
0001
M010
0000
0100
100M
0000
0001
,
M010
0000
0000
0000
0100
0000
100M
0000
0000
0000
0001
0000
01M0
0000
0000
0000
0001
0000
M010
0000
0000
0000
0001
1000
,
0100
0000
1000
00M1
0000
1000
010M
0000
0100
M010
0000
0010
,
000M
0000
0000
0000
1000
0000
01M0
0000
1000
0000
0001
0000
0100
0000
0010
0000
1000
0000
0100
0000
0010
0000
0001
1000
,
0100
0010
0001
0010
0100
1000
0001
0100
0010
0100
0001
0010
,
0001
1000
0100
0010
0100
1000
0001
0100
0010
0100
0001
0010
,
0001
1000
0100
0010
0001
0010
0100
1000
0001
0100
0010
0100
,
0001
0010
0100
1000
0001
0010
0001
1000
0100
0010
0001
0010
0100
1000
0001
0100
0010
0100
0001
0010
0001
1000
0100
0010
,
0001
0000
0000
0000
1000
0001
1000
0000
0000
0000
0100
0000
0010
0000
0000
0000
0001
0000
0010
0100
1000
0000
0001
0010
,
0100
0000
1000
0000
0001
0000
0100
0000
0000
0000
0100
0001
0100
0000
0000
0000
0000
0000
0100
0010
0100
0000
0001
0100
,
0010
0000
1000
0000
0100
0010
0100
0000
0000
0000
0010
0000
0001
0010
0001
0000
1000
0000
0001
0100
0001
0000
1000
0010
,
0100
0000
0001
0000
0100
0010
0100
0000
0010
0000
1000
0100
0010
0000
0001
0000
0010
0000
0100
1000
0001
0000
0000
0000
,
1000
0000
0001
0000
0100
0010
0100
0000
0010
0000
1000
0001
1000
0000
0010
0000
0100
0001
0100
0000
0010
0000
1000
0100
,
1000
0000
0001
0000
0010
0000
0100
0000
0000
0000
1000
0001
0100
0000
0000
0000
0010
1000
0001
0000
0100
0000
0010
1000
,
0001
0100
0010
0100
0001
0010
0100
1000
0001
0100
0010
0100
,
0001
0100
0010
1000
0001
0010
0100
1000
0001
0010
0001
1000
0100
0010
0001
0010
0100
1000
0001
0100
0010
0100
0001
1000
,
0010
0000
0000
0000
;

//---------------dance-single - ----------------
#NOTES:
     dance-single:
     :
     Easy:
     6:
     0.379915,0.547999,0.483529,0.000000,0.000000,297.000000,243.000000,54.000000,0.000000,0.000000,0.000000,0.379915,0.547999,0.483529,0.000000,0.000000,297.000000,243.000000,54.000000,0.000000,0.000000,0.000000:
// measure 0
0000
0000
0000
0000
,  // measure 1
1000
0000
0001
0000
,  // measure 2
0100
0000
0010
0000
,  // measure 3
1000
0000
0001
0000
,  // measure 4
0100
0010
1000
0100
,  // measure 5
0010
0001
0100
0010
,  // measure 6
1000
0100
0010
0001
,  // measure 7
0100
0000
0010
0000
,  // measure 8
1000
0001
0100
0010
,  // measure 9
1000
0100
0010
0001
,  // measure 10
0100
0010
1000
0001
,  // measure 11
1001
0000
0110
0000
,  // measure 12
0011
0001
0100
0010
,  // measure 13
0110
0010
1000
0100
,  // measure 14
0110
0010
0001
0100
,  // measure 15
0010
0000
0010
0000
,  // measure 16
1001
0010
0100
0001
,  // measure 17
0010
0100
1000
0001
,  // measure 18
0100
0010
1000
0100
,  // measure 19
0010
0001
1000
0000
,  // measure 20
1001
0001
0100
0010
,  // measure 21
1000
0100
0010
0001
,  // measure 22
0100
0010
1000
0100
,  // measure 23
0010
0000
0010
0000
,  // measure 24
1001
0010
0100
0010
,  // measure 25
1000
0100
0010
0001
,  // measure 26
0100
0010
1000
0100
,  // measure 27
0110
0000
1001
0000
,  // measure 28
0101
0001
0100
0010
,  // measure 29
0110
0010
1000
0100
,  // measure 30
0110
0010
0001
0100
,  // measure 31
0101
0000
0001
0000
,  // measure 32
1001
0001
0010
0010
,  // measure 33
0100
1000
0001
0100
,  // measure 34
0010
0010
1000
0100
,  // measure 35
0010
0001
1000
0000
,  // measure 36
1001
0001
0100
0010
,  // measure 37
1000
0100
0001
0100
,  // measure 38
0010
0100
0010
0001
,  // measure 39
0100
0010
1000
0001
,  // measure 40
0110
1000
0001
0100
,  // measure 41
0010
1000
0100
0010
,  // measure 42
0010
0001
0100
0010
,  // measure 43
0010
0100
1000
0000
,  // measure 44
1001
0001
0100
0010
,  // measure 45
1000
0100
0010
0100
,  // measure 46
0110
0010
0001
0100
,  // measure 47
0010
1000
0100
0010
,  // measure 48
0011
0001
0100
0010
,  // measure 49
1000
0100
0010
0100
,  // measure 50
0110
0010
0001
0100
,  // measure 51
0000
0010
0000
0010
,  // measure 52
1010
1010
1010
0101
,  // measure 53
0101
0011
0011
0001
,  // measure 54
0101
0110
1010
1100
,  // measure 55
0110
0001
0100
0010
,  // measure 56
0110
1001
1100
0001
,  // measure 57
0011
0101
1001
0010
,  // measure 58
1100
0001
0010
0100
,  // measure 59
1000
0001
0100
0010
,  // measure 60
1001
0000
0100
0100
,  // measure 61
0100
0010
0110
0000
,  // measure 62
0011
0001
1000
0001
,  // measure 63
0101
0001
0011
1001
,  // measure 64
1010
1010
0101
0101
,  // measure 65
0011
0011
1100
0000
,  // measure 66
0001
0100
0010
1000
,  // measure 67
0100
0010
0001
0100
,  // measure 68
1001
0000
0000
0000
;

//---------------dance-single - ----------------
#NOTES:
     dance-single:
     :
     Beginner:
     3:
     0.223856,0.304444,0.170130,0.035817,0.000000,175.000000,156.000000,19.000000,4.000000,0.000000,0.000000,0.223856,0.304444,0.170130,0.035817,0.000000,175.000000,156.000000,19.000000,4.000000,0.000000,0.000000:
0000
0000
0000
0000
,
0000
0000
0000
0000
,
0000
0000
0000
0000
,
2000
0000
0000
0000
0000
3000
0000
0000
,
1001
0000
0001
0000
,
0100
0000
0010
0000
,
0100
0000
0001
0000
,
1000
0000
1001
0000
,
0110
0000
0010
0000
,
0100
0000
1000
0000
,
0001
0000
0100
0000
,
0010
0000
0010
0000
,
1001
0000
0001
0000
,
0100
0000
0100
0000
,
0010
0000
0010
0000
,
1000
1000
1000
0000
,
1001
0000
0001
0000
,
0010
0000
0010
0000
,
0100
0100
0100
0000
,
2002
0000
3003
0000
,
1001
0000
0001
0001
,
0001
0000
0100
0100
,
0100
0000
0010
0010
,
0010
0000
1001
0000
,
0110
0000
0001
0001
,
0001
0000
0100
0100
,
0100
0000
0010
0000
,
1000
0000
0001
0000
,
1001
0000
0010
0010
,
0010
0000
0100
0100
,
0100
0000
0001
0000
,
1000
0000
0010
0000
,
0110
0000
0010
0000
,
0010
0000
0100
0000
,
0001
1000
0001
0000
,
0100
0100
0100
0000
,
1001
0001
0001
0001
,
1000
1000
1000
1000
,
0100
0100
0100
0100
,
0010
0010
0010
0010
,
1001
0100
0100
0100
,
0010
0001
0010
0001
,
0100
0010
1000
0100
,
0010
0001
0200
0300
,
1001
0000
0100
0000
,
1000
0000
0001
0000
,
0010
0000
0010
0000
,
0100
0000
1000
0001
,
1001
0000
0100
0000
,
0010
0000
0001
0000
,
0100
0000
0010
0000
,
1000
0000
0000
0000
,
1001
0000
0001
0000
,
0100
0000
0010
0000
,
1000
1000
1000
0000
,
0001
0000
0000
0000
,
1001
0000
0001
0000
,
0100
0000
0010
0000
,
1000
0000
0001
0000
,
0010
0000
0100
0000
,
1001
0001
0000
1000
,
0000
0000
0100
0000
,
0010
0000
0000
0010
,
0000
0100
0100
0100
,
0100
0000
0001
0000
,
0001
0000
1000
0000
,
0001
0000
0010
0000
,
0100
0000
0010
0000
,
1001
0000
0000
0000
;

//---------------dance-single - ----------------
#NOTES:
     dance-single:
     :
     Medium:
     8:
     0.570513,0.766706,0.349215,0.205947,0.667090,446.000000,407.000000,39.000000,23.000000,0.000000,0.000000,0.570513,0.766706,0.349215,0.205947,0.667090,446.000000,407.000000,39.000000,23.000000,0.000000,0.000000:
0000
0000
0000
0000
,
0000
0000
0000
0000
,
1000
0100
0010
0001
,
0022
0000
0000
0033
1001
0000
0000
0000
,
1010
0000
0000
0010
0000
0001
0100
0000
0000
1010
0000
0010
,
1000
0000
0000
1010
0000
0001
0010
0000
0000
1001
0000
0001
,
0100
0000
0000
0101
0000
0001
0010
0000
0000
0011
0000
0001
,
1000
0000
0010
0000
0100
0000
0202
0000
0000
0303
0000
0000
,
1000
0001
0000
0100
0000
0010
1000
0000
0000
1000
0000
0001
,
0100
0000
0000
0010
0000
0100
0010
0000
0000
1000
0000
0001
,
1000
0000
0000
0100
0000
0010
0001
0000
0000
1000
0000
0100
,
0010
0000
0001
0100
0000
0000
0110
0000
0000
2020
0000
3030
,
1001
0000
0000
0001
0000
1000
0100
0000
0000
0010
0000
0001
,
0010
0000
0000
0100
0000
1000
0100
0000
0000
0010
0000
0001
,
0100
0000
0000
1000
0000
0100
0010
0000
0000
0001
0000
1000
,
0100
0000
0100
0000
0010
0001
1000
0000
0000
0000
0000
0000
,
0001
0100
0000
0001
0000
1000
0100
0000
0000
0010
0000
0001
,
0010
0000
0000
0100
0000
1000
0100
0000
0000
0010
0000
0001
,
1000
0000
0000
1000
0000
1000
0100
0000
0100
0010
0000
0010
,
0001
0000
1001
0000
,
1001
0000
0000
0001
0000
1000
0100
0000
0010
0001
0000
0010
,
0100
0000
0100
1000
0000
1000
0100
0000
0100
0001
0000
0001
,
0010
0000
0010
0001
0000
0001
0100
0000
0100
0001
0000
0100
,
0010
0000
1000
0000
0001
0000
0101
0000
0000
0000
0000
0000
,
1010
0000
0000
1000
0000
0001
0100
0000
0100
0010
0000
0010
,
1000
0000
1000
0010
0000
0010
1000
0000
0010
1000
0000
1000
,
0100
0000
0100
0010
0000
0001
0010
0000
0010
1000
0000
0000
,
1100
0000
0001
0010
0100
1000
0001
0000
0000
1000
0000
0000
,
1001
0001
0101
0100
,
0110
0010
1010
1000
,
1001
0001
0101
0100
,
0010
0000
1000
0000
0100
0000
1001
0000
0000
0000
0000
1000
,
0100
0000
0000
0010
0000
0001
0010
0000
0000
0100
0000
1000
,
0100
0000
0000
0010
0000
0001
0010
0000
0000
0100
0000
0000
,
1000
0001
0100
0010
,
2000
0000
3001
0000
,
1001
0000
0000
0000
0000
0000
0002
0000
0000
0000
0000
0000
0200
0003
0000
0000
0000
0000
0320
0000
0000
0000
0000
0000
,
2030
3200
0320
0032
,
0203
0320
2030
3002
,
0023
0230
2300
3001
,
1001
0001
0100
0000
0010
0000
1000
0000
,
0001
0100
0010
0000
1000
0001
0100
0010
,
1000
0001
1000
0001
0100
0010
0100
0010
,
1000
0100
0010
0100
0010
0000
0000
0000
,
1001
0000
0001
0100
0000
0100
0010
0000
0010
1000
0000
1000
,
0100
0000
0100
0010
0000
0010
0001
0000
0000
1000
0000
0000
,
2001
0000
0000
3001
0000
0001
0010
0000
0010
0100
0000
0100
,
1000
0000
1000
0100
0000
0100
0010
0000
0010
0001
0000
0001
,
0010
0000
0010
0100
0000
0100
1000
0000
0100
1000
0000
0001
,
0100
0000
0010
1000
0000
0100
0010
0000
0001
0010
0000
0000
,
1001
0000
0000
1000
0000
1000
0100
0000
0100
0010
0000
0010
,
0000
0100
0000
0100
0000
1000
0001
0000
0000
0001
0000
0000
,
1001
0110
0101
0011
,
1001
0000
0000
1010
0000
0000
0101
0000
0000
1001
0000
1000
,
0100
0000
0000
0011
0000
0001
0010
0000
0100
1000
0000
0001
,
0000
0000
1000
0100
0000
0100
0010
0000
0010
0001
0000
0000
,
0001
0000
1000
0100
0000
0100
0010
0000
0010
0001
0000
0001
,
0100
0000
0010
1000
0000
0001
0010
0000
0100
1000
0000
0000
,
0001
0100
0010
1000
,
1010
0000
0000
0001
0000
1000
0100
0000
0000
0010
0000
1000
,
0001
0000
0010
0100
0000
1000
0100
0000
0010
0001
0000
0010
,
0001
1000
0001
1000
0000
0100
1000
0000
0000
0001
0000
0001
,
0010
0000
0000
0001
0000
0010
0001
0000
1000
0100
0000
0010
,
0001
0100
0010
1000
,
1000
0100
1000
0100
1000
0100
1000
0100
1000
0100
1000
0100
,
0010
0001
0010
0001
0010
0001
0010
0001
0010
0001
0010
0001
,
0100
0010
0100
0010
0100
0010
0100
0010
0100
0010
0100
0010
,
1000
0100
0010
0001
0010
0100
1000
0001
0010
0100
1000
0001
,
0200
0000
0300
0000
;
