#TITLE:THE ONE - English ver.;
#SUBTITLE:;
#ARTIST:BABYMETAL;
#TITLETRANSLIT:;
#SUBTITLETRANSLIT:;
#ARTISTTRANSLIT:;
#GENRE:;
#CREDIT:mf32892;
#BANNER:[Mighty No. 9] - THE ONE - English ver.png;
#BACKGROUND:[Mighty No. 9] - THE ONE - English ver-bg.png;
#LYRICSPATH:;
#CDTITLE:;
#MUSIC:[Mighty No. 9] - THE ONE - English ver.ogg;
#OFFSET:-0.052584;
#SAMPLESTART:46.235497;
#SAMPLELENGTH:12.000000;
#SELECTABLE:YES;
#BPMS:0.000000=97.500000
,27.000000=48.750000
,39.000000=65.000000
,55.000000=97.500000
,103.000000=130.000000
;
#STOPS:
;
#BGCHANGES:0.000=[Mighty No. 9] - THE ONE - English ver.avi=1.000=0=0=0=StretchNoLoop====,
99999=-nosongbg-=1.000=0=0=0 // don't automatically add -songbackground-
;
#KEYSOUNDS:;
#ATTACKS:;

//---------------dance-single - ----------------
#NOTES:
     dance-single:
     :
     Hard:
     8:
     0.441336,0.551933,0.331990,0.737756,0.594815,335.000000,299.000000,36.000000,80.000000,0.000000,0.000000,0.441336,0.551933,0.331990,0.737756,0.594815,335.000000,299.000000,36.000000,80.000000,0.000000,0.000000:
// measure 0
0000
0000
0000
0000
,  // measure 1
0000
0000
0000
0000
,  // measure 2
0000
0000
0000
0000
,  // measure 3
2000
0000
0100
0000
3100
0010
0002
0000
1000
0000
1003
0000
0002
0000
0103
0010
,  // measure 4
0100
0001
0101
0000
0110
0000
1010
0000
1002
0000
1000
0000
0013
0000
0200
0000
,  // measure 5
0010
0000
0310
0000
0001
0100
0001
1000
0100
1000
0001
0010
0100
1000
0010
0100
,  // measure 6
0002
0000
0000
2003
,  // measure 7
0000
3200
0000
0000
0320
0000
0000
0032
,  // measure 8
0000
2003
0000
0000
3020
0000
0000
0000
0000
0000
0230
0000
0000
0000
0000
0000
,  // measure 9
0302
0000
0000
2003
0000
0000
3001
0010
,  // measure 10
0001
0000
0010
0000
0100
0000
2000
0000
0000
0010
0000
0000
3001
0000
0000
0002
0000
0000
0203
0000
0000
0010
0000
0000
,  // measure 11
0320
0000
0000
2030
0000
0000
3002
0000
0000
0023
0000
0000
0130
0000
1000
0000
0001
0000
0200
0000
0000
0010
0000
0000
,  // measure 12
0310
0000
1000
0000
0001
0000
0020
0000
0000
0100
0000
0000
0100
0000
0000
0230
0000
0000
0320
0000
0000
0001
0000
0000
,  // measure 13
0032
0000
0000
2003
0000
0000
3020
0000
0000
0130
0001
1000
0002
0000
0000
0013
0000
0000
2100
0000
0000
0000
0000
0000
,  // measure 14
0100
3100
0010
0000
0001
0000
1000
0000
0020
0000
0000
0100
0000
0230
0001
0000
,  // measure 15
0301
0100
0001
1000
0200
0000
0000
0000
0010
0310
0001
0000
1000
0000
0010
0000
,  // measure 16
0200
0000
0000
0010
0000
0310
1000
0010
0100
0010
0001
0010
0200
0000
0000
0301
,  // measure 17
0100
0001
1000
0000
0100
0000
0010
0000
0021
0000
0000
0130
0000
0100
2000
0000
,  // measure 18
3001
0100
0001
0000
0102
0000
0000
0100
0000
0100
1003
0000
0020
0000
0032
0000
,  // measure 19
0023
0000
0000
2030
0000
0000
3200
0000
0000
0320
0000
0000
0032
0000
0000
0000
,  // measure 20
0010
0000
1003
0000
0010
0000
0100
0000
0002
0000
0000
1003
0000
0100
2000
0000
,  // measure 21
0000
3002
0000
0000
0203
0000
0000
0000
0010
0000
0301
0000
0010
0000
0100
0000
,  // measure 22
2000
0000
0000
3010
0000
1000
0020
0000
0000
0230
0000
0000
0302
0000
0000
0000
,  // measure 23
0010
0000
1003
0000
0100
0000
0010
0000
0021
0000
0000
0130
0000
0000
1002
0000
,  // measure 24
0000
0103
0000
0000
1020
0000
1000
0000
0000
0000
0200
0000
0000
0000
0330
0000
,  // measure 25
0010
0000
0000
1000
0000
0000
0010
0000
0000
1000
0000
0000
0100
0000
0000
1000
0000
0000
0001
0000
0000
0010
0000
0000
0100
0000
0000
1000
0000
0000
0100
0000
0000
0010
0000
0000
0011
0000
0000
0000
0000
0000
0000
0000
0001
0000
0000
0000
,  // measure 26
0000
0000
0000
0000
0100
0000
0000
0000
0000
0000
0000
0000
0020
0000
0000
0000
0000
0000
0000
0000
2030
0000
0000
0000
0000
0000
0000
0000
3002
0000
0000
0000
0000
0000
0000
0000
0023
0000
0000
0000
0000
0000
0000
0000
0100
0030
0000
0000
,  // measure 27
0010
0100
0010
0001
0000
0101
0000
0110
0000
2010
0000
0100
,  // measure 28
0000
0001
0000
3002
0000
0100
0000
1003
0000
1010
0000
0010
,  // measure 29
1000
0000
1000
0001
0010
0100
0010
0100
1000
0020
0000
0100
,  // measure 30
0000
0100
0000
2030
0000
3002
0000
0023
0000
0230
0000
0301
,  // measure 31
0100
0001
0100
0010
0000
0011
0000
0101
0000
0210
0000
0001
,  // measure 32
0000
0310
0000
1020
0000
0100
0000
1030
0000
1100
0100
0000
,  // measure 33
0110
0000
0010
0001
0100
0001
1000
0010
0100
0002
0000
0010
,  // measure 34
0000
1003
0000
1100
0000
0110
0000
0011
0000
2001
0000
3010
,  // measure 35
0100
0010
1000
0001
0000
0010
0000
0011
0000
0210
0000
1000
,  // measure 36
0000
1300
0000
1020
0000
0100
0000
0130
0000
0101
0000
0001
,  // measure 37
1000
0000
1000
0001
0010
0100
0010
0100
1000
0020
0000
0100
,  // measure 38
0000
0031
0010
0100
0000
0110
0000
1010
0000
2001
0000
3100
,  // measure 39
0010
0001
1000
0010
0000
0100
0000
0110
0000
1002
0000
0010
,  // measure 40
0000
1000
0000
2003
0000
0100
0000
3001
0000
1001
0001
0000
,  // measure 41
0011
0000
0010
0100
1000
0010
0100
1000
0100
0002
0000
0000
,  // measure 42
0000
0000
0000
0003
;

//---------------dance-single - ----------------
#NOTES:
     dance-single:
     :
     Medium:
     6:
     0.248993,0.374526,0.147551,0.645536,0.175217,189.000000,173.000000,16.000000,70.000000,0.000000,0.000000,0.248993,0.374526,0.147551,0.645536,0.175217,189.000000,173.000000,16.000000,70.000000,0.000000,0.000000:
// measure 0
0000
0000
0000
0000
,  // measure 1
0000
0000
0000
0000
,  // measure 2
0000
0000
0000
0000
,  // measure 3
2000
0000
0000
0000
3100
0010
0200
0000
1000
0000
1300
0000
0002
0000
0000
0100
,  // measure 4
0003
0100
0010
0000
1000
0000
1001
0000
0002
0000
0000
0000
0013
0000
0210
0000
,  // measure 5
1000
0000
1300
0000
0002
0000
0003
2000
0000
3000
0020
0000
0030
0100
0010
0100
,  // measure 6
0002
0000
0000
2003
,  // measure 7
0000
3200
0000
0000
0320
0000
0000
0032
,  // measure 8
0000
0000
2003
0000
0000
3002
0000
0000
,  // measure 9
0203
0000
0000
0320
0000
0000
2030
0100
,  // measure 10
3100
0000
0020
0001
0031
2000
3020
0100
,  // measure 11
0130
0000
0002
0010
0023
0100
0230
1000
,  // measure 12
1300
0000
0002
0100
0103
0010
0200
0000
,  // measure 13
0320
2030
3002
0000
2000
0003
3200
0000
,  // measure 14
0000
0000
1300
0000
0100
0000
0010
0000
0001
0000
0000
1000
0000
1000
0001
0000
,  // measure 15
0000
0100
0000
0000
0210
0000
0000
0000
0000
0000
0301
0000
0010
0000
0100
0000
,  // measure 16
1000
0000
0000
0010
0000
0010
0200
0000
0000
0302
0000
0000
2003
0000
0000
0000
,  // measure 17
0000
0000
3100
0000
0010
0000
0001
0000
1000
0000
0000
1000
0000
0000
0010
0000
,  // measure 18
0000
0010
0000
0000
0200
0000
0000
0000
0000
0000
0000
0000
0301
0000
0010
0000
,  // measure 19
0200
0000
0000
2300
0000
0000
3002
0000
0000
2003
0000
0000
3020
0000
0000
0000
,  // measure 20
0000
0000
0130
0000
0010
0000
1000
0000
0100
0000
0000
1000
0000
0002
0000
0000
,  // measure 21
0000
0000
2003
0000
0000
3100
0010
0001
,  // measure 22
0100
0000
0000
0001
0000
2000
0000
0000
0000
0000
0000
0000
3002
0000
0000
0000
,  // measure 23
0000
0000
0103
0000
0010
0000
1000
0000
1001
0000
0000
0100
0000
0000
1001
0000
,  // measure 24
0000
0010
0000
0000
2001
0000
0000
0000
0000
0000
0200
0000
0000
0000
3300
0000
,  // measure 25
2002
0000
0000
0000
0000
3003
2000
0000
,  // measure 26
0000
0000
0000
3001
0000
0100
0000
0010
0000
2000
0000
0000
,  // measure 27
0000
0000
0000
3001
0000
0010
0000
0001
0000
0201
0000
0000
,  // measure 28
0000
0020
0300
1030
,  // measure 29
0100
0010
0001
1002
,  // measure 30
0000
0000
0000
1003
0000
0010
0000
0100
0000
0002
0000
0000
,  // measure 31
0000
0000
0000
1003
0000
0010
0000
1000
0000
1200
0000
0000
,  // measure 32
0000
0020
0300
0031
,  // measure 33
0100
0010
1000
0200
,  // measure 34
0000
0000
0000
1300
0000
0100
0000
0010
0000
1002
0000
0000
,  // measure 35
0000
0000
0000
0103
0000
0010
0000
0100
0000
0102
0000
0000
,  // measure 36
0000
0020
0003
0130
,  // measure 37
1000
0001
0100
0210
,  // measure 38
0000
0000
0000
0301
0000
0010
0000
0100
0000
2001
0000
0000
,  // measure 39
0000
0000
0000
3010
0000
1000
0000
0100
0000
0210
0000
0000
,  // measure 40
0000
2000
0300
3002
,  // measure 41
0203
0320
1030
2002
,  // measure 42
0000
0000
0000
3003
;
