#TITLE:Super Rush;
#SUBTITLE:;
#ARTIST:kors k;
#TITLETRANSLIT:;
#SUBTITLETRANSLIT:;
#ARTISTTRANSLIT:;
#GENRE:;
#CREDIT:;
#BANNER:Super Rush.png;
#BACKGROUND:Super Rush-bg.png;
#LYRICSPATH:;
#CDTITLE:;
#MUSIC:Super Rush.ogg;
#OFFSET:0.259000;
#SAMPLESTART:91.971519;
#SAMPLELENGTH:10.105263;
#SELECTABLE:YES;
#BPMS:0.000000=190.000000
,199.000000=95.000000
,199.250000=190.000000
,199.500000=95.000000
,199.750000=190.000000
,214.000000=95.000000
,214.250000=190.000000
,214.500000=95.000000
,214.750000=190.000000
;
#STOPS:64.000000=0.947000,
206.500000=0.158000,
216.000000=0.079000,
216.250000=0.079000,
217.500000=0.079000,
217.750000=0.079000,
222.500000=0.158000,
282.000000=0.947000,
339.500000=0.079000,
339.750000=0.079000,
341.000000=0.079000,
341.250000=0.079000
;
#BGCHANGES:;
#KEYSOUNDS:;
#ATTACKS:;

//---------------dance-single - ----------------
#NOTES:
     dance-single:
     :
     Hard:
     9:
     0.608854,0.805514,0.325460,0.278966,0.158856,550.000000,508.000000,42.000000,36.000000,0.000000,0.000000,0.608854,0.805514,0.325460,0.278966,0.158856,550.000000,508.000000,42.000000,36.000000,0.000000,0.000000:
0000
0000
0000
0000
,
0000
0000
0000
0000
,
0000
0000
0000
0000
,
0000
0000
0000
0000
,
0000
0000
0000
0000
,
0000
0000
0000
0000
,
0000
0000
0000
0000
,
0000
0000
0000
0000
,
0000
0000
0000
0000
,
1001
1000
0001
1000
,
0010
0100
0010
1000
,
0200
0310
0001
0010
,
0001
1000
0100
0010
0001
1000
0001
0000
,
1001
1000
0001
0100
,
0010
1000
0010
0100
0001
0010
0100
0010
,
0001
0000
1000
0000
0001
0000
1000
0000
0010
0100
0010
0100
0010
0100
0010
0100
,
0010
0000
1000
0010
0000
0010
0000
0010
,
0200
0301
0000
1000
0000
1000
0020
0130
,
0002
0013
0100
0010
0000
0010
0000
0010
,
0100
0000
1000
0000
0001
0100
0010
1000
0200
0000
0000
0000
0310
0000
0000
0100
,
1000
0001
0100
0001
0000
0001
2000
3001
,
0200
0000
0301
0000
0000
0000
0001
0000
0100
0000
0100
0000
0010
0100
0010
0100
,
0001
1000
0001
1000
0001
0000
1000
0000
0400
0000
0310
0000
0100
0000
0010
0000
,
0100
1000
0001
0100
1000
0100
0110
0000
,
1001
0000
0011
0000
0011
0000
1000
0010
,
0100
0001
0011
0000
0001
1000
0010
0020
,
0230
0310
1010
0000
1010
0000
0100
0010
,
1000
0000
0001
0000
1000
0100
1000
0100
0020
0000
0000
0000
0130
0000
0000
0100
,
0010
0001
0101
0000
0101
0000
2010
0000
,
3100
0000
0000
0000
0101
0000
0000
0000
0100
0000
0100
0000
1000
0001
1000
0001
,
0100
0010
0100
0010
0100
0000
0000
0000
0001
0000
0000
0000
0120
0000
0000
0000
,
1030
0000
0000
0001
0001
1000
1000
0100
,
1002
0000
0013
0000
0100
1000
0000
0010
,
0000
0100
0000
0010
1000
0000
1010
0000
,
0101
0000
0100
0000
0010
1000
0000
0001
,
0000
0100
0000
0100
0001
0000
0011
0000
,
1010
0000
2000
0000
3100
0020
0000
0031
,
0000
0200
0010
0000
0302
0000
1000
0000
,
2003
0000
0000
0000
3200
0000
0320
0000
0032
0000
2003
0000
3004
0400
0000
0000
,
0000
0303
0001
0010
0100
1000
0100
0010
,
1001
0000
0001
0000
0100
1000
0000
0100
,
0000
0010
0000
1000
0010
0000
0101
0000
,
0011
0000
0100
0000
1000
0010
0000
0001
,
0000
0000
0010
0000
0000
0000
0100
0000
0001
0000
0000
0000
0011
0000
0000
1000
,
0100
0000
1000
0100
0001
0100
0000
0010
,
0000
0001
0000
0100
0001
0000
0011
0000
,
1010
0000
1000
0100
1000
0010
0100
0001
,
0010
0000
0100
0000
0010
0000
0001
0200
0000
0310
1000
0100
1000
0020
0000
0130
,
0002
2003
3001
0000
1000
0010
0000
0100
,
0000
0000
0000
0000
0001
0000
0000
0000
0000
0000
0000
0000
0010
0000
0000
0000
0100
0000
0000
0000
0000
0000
0000
0000
1002
0000
0013
0000
0000
2001
0000
0000
,
3010
0100
0000
0010
1000
0000
0100
0000
,
0010
0000
0000
0000
0100
0000
1000
0000
0000
0000
0101
0100
0010
0000
0010
0000
,
1000
0000
0001
0100
0000
0001
0000
0010
,
0000
0000
0000
0000
0100
0000
0000
0000
1000
0000
0000
0000
0000
0000
0000
0000
2100
0000
3010
0000
0000
0201
0000
0000
0310
0000
0000
0000
1000
0000
0000
0000
,
0001
0001
0001
0000
0010
0000
0100
0100
0100
0000
1000
0000
0010
0000
0100
0000
,
0001
0020
0000
0130
0000
1001
0000
0000
,
0000
0000
0000
0000
,
0000
0000
0000
0000
,
0000
0000
0000
0000
,
0000
0000
1000
0010
,
0100
0001
0010
0001
,
1000
0100
2000
3010
,
0100
0001
0010
0100
,
0010
0001
1001
0001
,
1000
0001
0100
0100
,
0010
0000
0100
0001
0200
0000
0310
0000
,
1000
1000
0001
0010
,
0100
0010
0001
0000
1000
1000
0100
0100
,
0010
0010
0001
0001
1000
1000
0100
0100
,
0010
0000
0010
0000
0001
0000
0001
0000
0040
0400
0000
0000
0000
0000
0000
0000
,
0000
0000
0000
0000
0330
0000
0001
0100
,
0010
0100
0001
1000
0100
1000
0100
0010
,
0001
0100
0010
1000
0001
0100
0002
0000
,
1003
0100
0010
0100
0010
0001
1000
0010
,
0001
0010
0100
0001
1000
0000
0001
0100
,
0010
0100
0001
1000
0100
1000
0001
0010
,
0100
1000
0100
1000
0010
0100
0002
0000
,
0103
0000
0010
0000
1000
0000
0001
0000
0010
0000
0100
0000
0010
0000
0001
1000
,
0001
0000
0001
0000
1000
0040
4000
0030
3001
1000
0100
0000
1000
0000
0010
0000
,
0100
0001
0010
1000
0010
0100
1000
0001
,
0100
0001
0010
1000
0010
0100
1000
0000
,
0012
0000
0000
0000
0103
0000
0010
0000
1000
0000
0001
1000
0100
0000
0010
0000
,
0100
0000
1000
0000
0010
0000
0100
0010
0100
0000
0000
0000
0001
0000
0001
0000
,
0001
1000
0100
0001
0100
1000
0001
0100
,
0010
0000
0001
0000
0010
0000
1000
0000
0100
0000
0010
0000
0001
0000
0100
0100
,
0100
0000
0010
0000
1000
1000
1000
0000
0001
0000
0001
4000
0400
3000
0310
0000
,
0001
0010
0100
0000
1000
0000
0010
1000
,
0000
0100
0000
0010
0000
0001
0010
0000
,
0011
0000
1010
0000
1000
0000
0001
0100
,
0000
1000
0000
0100
0000
0010
0100
0000
,
1100
0000
0101
0000
0100
0000
0010
0100
,
0000
0001
0000
1000
0000
0100
0010
0000
,
0011
0000
1100
0000
1000
0000
0001
0100
,
0000
1000
0000
0100
0000
0010
1000
0000
,
1001
0110
1001
0000
;

//---------------dance-single - ----------------
#NOTES:
     dance-single:
     :
     Medium:
     8:
     0.451659,0.622443,0.216974,0.402951,0.030996,408.000000,380.000000,28.000000,52.000000,0.000000,0.000000,0.451659,0.622443,0.216974,0.402951,0.030996,408.000000,380.000000,28.000000,52.000000,0.000000,0.000000:
0000
0000
0000
0000
,
0000
0000
0000
0000
,
0000
0000
0000
0000
,
0000
0000
0000
0000
,
0000
0000
0000
0000
,
0000
0000
0000
0000
,
0000
0000
0000
0000
,
0000
0000
0000
0000
,
0000
0000
0000
0000
,
1001
0001
0010
0001
,
1000
0100
0001
0100
,
0020
0031
0100
1000
,
0100
0000
0010
0000
1000
0001
0100
0000
,
0001
0100
0010
1000
,
0100
0010
0001
1000
,
0010
0100
0010
1000
0001
0010
0100
1000
,
0000
0000
0001
0100
0000
0100
0000
0100
,
0010
0100
0000
0010
0000
0010
1000
0001
,
0010
0001
0000
1000
0000
1000
0000
1000
,
0010
1000
2010
0000
3100
0000
0010
0000
,
0200
2000
3300
0100
0000
0100
0000
0100
,
0010
0100
0000
0100
0000
0100
0010
0001
,
1000
0001
0000
0100
0000
0100
0000
0100
,
0000
0100
0010
1000
0001
0000
0011
0000
,
1010
2000
3002
0103
,
0010
0000
2000
0000
3010
0000
0100
0010
,
1000
0001
0020
0000
0230
0000
1300
0002
,
0000
0000
0103
0000
0020
0000
0000
0000
2030
0000
0000
0000
3002
0000
0000
0013
,
0000
0001
0200
0000
0320
0000
1030
0100
,
0001
0000
0200
0000
0310
0010
0001
0000
,
1000
0010
1000
2002
,
3003
0000
0000
0001
0010
0100
1000
0001
,
0200
0000
0310
0000
1000
0010
0000
1000
,
0000
0010
0000
1000
0010
0000
1010
0000
,
1010
0000
0001
0000
0100
0001
0000
0100
,
0000
0001
0000
0100
0001
0000
0101
0000
,
0101
0001
1000
0200
,
0000
2300
0000
0000
3020
0000
0000
0000
,
0230
0000
0000
0000
0310
0000
1000
0000
0100
0000
0010
0000
0004
4000
0000
0000
,
0000
0000
0000
3003
0000
0000
0000
0000
0000
0000
0000
0000
0000
0000
0100
0000
,
1001
0000
0001
0000
1000
0010
0000
1000
,
0000
0010
0000
1000
0010
0000
1010
0000
,
0101
0000
0001
0000
0010
0001
0000
0010
,
0000
0001
0000
0010
0001
0000
0011
0000
,
1100
0000
1000
0000
0100
1000
0000
0100
,
0000
0010
0000
0001
0010
0000
1001
0000
,
1001
0000
0001
0000
0100
0010
0000
1000
,
0000
0000
0010
0000
4000
0004
0000
0000
0000
0000
0000
0000
0000
0000
0000
0000
,
3003
0000
0001
0000
0100
0010
0000
1000
,
0000
0000
0000
0000
0010
0000
0000
0000
0000
0000
0000
0000
0100
0000
0000
0000
0001
0000
0000
0000
0000
0000
0000
0000
2000
0000
3020
0000
0030
0200
0000
0300
,
0002
0003
0010
0000
0000
0000
0100
0000
1000
0000
0000
0000
0001
0000
0000
0000
,
0100
0000
0001
0010
0000
0100
0000
0000
,
1000
0000
0100
1000
0000
0010
0000
0100
,
0000
0000
0000
0000
0001
0000
0000
0000
1000
0000
0000
0000
0000
0000
0000
0000
0200
0000
0320
0000
0030
0002
0000
0003
2000
0000
3000
0000
0010
0000
0000
0000
,
0200
0000
0310
2000
0000
3002
0000
0023
,
0000
0230
0000
2300
0000
3000
0000
0000
,
0000
0000
0000
0000
,
0000
0000
0000
0000
,
0000
0000
0000
0000
,
0000
0000
2000
0000
,
0000
3000
0020
0000
,
0000
0030
0200
0000
,
0000
0300
0002
0000
,
0000
0003
1000
0010
,
1000
0010
0100
0001
,
0100
0000
0001
0100
0010
0000
1000
0000
,
0010
0100
0001
0100
,
0010
0000
1000
0000
0001
0010
0100
1000
,
0001
0010
0100
1000
0001
0010
0100
1000
,
0001
0000
0010
0000
0100
0000
1000
0000
0004
4000
0000
0000
0000
0000
0000
0000
,
0000
0000
3003
0101
,
0001
0100
0010
1000
,
0100
0001
0100
0020
,
0031
0000
0100
0000
1000
0100
0010
0000
,
1000
0000
0001
0100
0010
0000
1000
0100
,
1000
0010
0100
0001
,
0010
0001
1000
0200
,
1300
0000
0010
0000
0100
0000
0010
1000
,
0100
0001
0200
0320
0031
1000
0010
0000
,
1000
0000
0010
0000
0100
0000
0001
0010
,
0001
1000
0001
0100
0001
1000
0100
0000
,
2002
3003
0110
0000
0001
0000
1000
0100
,
0010
0100
1000
0001
0100
0000
0010
1000
,
0100
0000
1000
0000
0001
0000
1000
0001
,
0010
0001
0100
0001
1000
0100
0010
0200
,
0300
1000
0002
0000
1003
0020
0230
0320
,
1030
0001
1000
0000
0001
0000
0100
0001
,
0000
0100
0000
0001
0000
0100
0001
0000
,
0101
0000
1010
0000
1000
0000
0010
1000
,
0000
0010
0000
1000
0000
0010
1000
0000
,
1010
0000
1100
0000
1000
0000
0100
1000
,
0000
0100
0000
1000
0000
0100
1000
0000
,
1100
0000
0101
0000
0001
0000
0100
0001
,
0000
0100
0000
0001
0000
0100
0001
0000
,
1001
0110
1001
0000
;

//---------------dance-single - ----------------
#NOTES:
     dance-single:
     :
     Easy:
     5:
     0.329888,0.512600,0.154981,0.294464,0.007749,298.000000,278.000000,20.000000,38.000000,0.000000,0.000000,0.329888,0.512600,0.154981,0.294464,0.007749,298.000000,278.000000,20.000000,38.000000,0.000000,0.000000:
0000
0000
0000
0000
,
0000
0000
0000
0000
,
0000
0000
0000
0000
,
0000
0000
0000
0000
,
0000
0000
0000
0000
,
0000
0000
0000
0000
,
0000
0000
0000
0000
,
0000
0000
0000
0000
,
0000
0000
0000
0000
,
1001
0001
0100
0001
,
0100
0010
1000
0100
,
2000
3010
0100
0010
,
0100
0001
1000
0010
,
1000
0100
0010
0100
,
1000
0001
0010
0100
,
0020
0032
0203
0320
,
1030
0001
0010
0001
,
1000
0100
0020
0230
,
1300
0010
0100
0001
,
1000
0101
0011
0010
,
0200
1300
0010
0200
,
0301
0010
0001
0110
,
1001
1000
0200
1300
,
0010
1001
0110
1010
,
0101
0000
0001
0000
1000
0000
0000
0001
,
0000
1000
0001
0010
,
0100
0000
1000
0000
0100
0000
0000
1000
,
0000
0001
0100
0010
,
1000
0010
0010
0200
,
0301
0010
0110
1100
,
1001
0001
1000
0220
,
0330
0000
0100
0002
0000
0000
0000
0000
,
0003
1000
0000
0001
,
0000
0100
0000
0010
,
0010
1000
0000
0001
,
0000
0100
0000
0010
,
0010
1000
0000
0001
,
0000
0100
0000
0010
,
0010
1000
0001
0100
,
0010
2000
0000
0000
,
3000
0001
0100
0010
,
1000
0010
0100
0001
,
0001
1000
0001
0010
,
0001
1000
0100
0010
,
0010
0100
1000
0010
,
0100
0001
0010
0100
,
0100
0010
0001
1000
,
0010
0000
0202
0000
0000
0000
0000
0003
,
0300
0001
0100
0010
,
1000
0000
0000
0000
0000
0000
0000
0000
0010
0000
0000
0000
0000
0000
0000
0000
1000
0000
0000
0000
0000
0000
0000
0000
0001
0000
0000
0000
0000
1000
0000
0000
,
0000
0001
0000
0100
0000
0010
0000
1000
,
0000
0100
0000
0010
0000
0100
0000
0000
,
1000
0010
0100
0001
,
0010
0000
0000
0000
0000
0000
0000
0000
0001
0000
0000
0000
0000
0000
0000
0000
1000
0000
0000
0000
0000
0001
0000
0000
0000
0000
0000
0000
0200
0000
0000
0000
,
0000
0300
0020
0000
0030
1000
0000
0001
,
0000
0100
0000
0010
0000
1001
0000
0000
,
0000
0000
0000
0000
,
0000
0000
0000
0000
,
0000
0000
0000
0000
,
0000
0000
0000
0000
,
0000
0000
0000
0000
,
0000
0000
0000
0000
,
0000
0000
0000
0000
,
0000
0000
1000
0010
,
0100
0001
0010
1000
,
0010
0001
0100
0001
,
1000
0001
1000
0100
,
0001
0100
2000
3200
,
0320
0032
2003
3200
,
0320
0032
2003
3020
,
0230
0302
0003
1000
,
0010
0100
0001
0100
,
0010
0100
0001
2001
,
3010
0100
0001
0010
,
1000
0010
0100
1000
,
0100
1000
0001
0100
,
1000
0100
0010
0102
,
0013
0100
1000
0002
,
0013
2000
3100
0100
,
0010
0100
1000
0010
,
0100
0001
0010
1002
,
0013
0100
0010
0001
,
0001
1000
0100
1000
,
0010
0100
0001
0010
,
0100
0010
0001
2000
,
3000
0002
0000
0003
1000
0000
0010
0000
,
0100
0001
1001
0000
,
1000
0000
0010
0000
,
0100
0100
0001
0000
,
0010
0000
0001
0000
,
0100
0100
0010
0000
,
1000
0000
0001
0000
,
0100
0100
0001
0000
,
1000
0000
0010
0000
,
0100
0100
1001
0000
;

//---------------dance-single - ----------------
#NOTES:
     dance-single:
     :
     Beginner:
     2:
     0.127306,0.256300,0.054243,0.000000,0.000000,115.000000,108.000000,7.000000,0.000000,0.000000,0.000000,0.127306,0.256300,0.054243,0.000000,0.000000,115.000000,108.000000,7.000000,0.000000,0.000000,0.000000:
// measure 0
0000
0000
0000
0000
,  // measure 1
0000
0000
0000
0000
,  // measure 2
0000
0000
0000
0000
,  // measure 3
0000
0000
0000
0000
,  // measure 4
0000
0000
0000
0000
,  // measure 5
0000
0000
0000
0000
,  // measure 6
0000
0000
0000
0000
,  // measure 7
0000
0000
0000
0000
,  // measure 8
0000
0000
0000
0000
,  // measure 9
0010
0000
0000
0000
,  // measure 10
1000
0000
0000
0000
,  // measure 11
0001
0000
0000
0000
,  // measure 12
0100
0000
0000
0000
,  // measure 13
0010
0000
0000
0000
,  // measure 14
0100
0000
0000
0000
,  // measure 15
0001
0000
1000
0000
,  // measure 16
0000
0010
0000
0000
,  // measure 17
0000
0100
0000
0000
,  // measure 18
0000
0001
0000
0000
,  // measure 19
0000
1000
1000
0000
,  // measure 20
0000
0001
0000
0000
,  // measure 21
0000
0100
0000
0000
,  // measure 22
0000
0010
0000
0000
,  // measure 23
0000
1000
1000
1000
,  // measure 24
1001
0001
0000
0000
,  // measure 25
0000
0001
0000
0000
,  // measure 26
0000
1000
1000
0000
,  // measure 27
0000
1000
0000
0000
,  // measure 28
0000
0010
0010
0000
,  // measure 29
0000
0100
0000
0000
,  // measure 30
0000
0010
0000
0100
,  // measure 31
0000
0001
0000
0000
,  // measure 32
0000
1000
0000
0000
,  // measure 33
0000
0000
0000
0010
,  // measure 34
0010
0000
0000
0000
,  // measure 35
0000
0000
0000
0010
,  // measure 36
0010
0000
0000
0000
,  // measure 37
0000
0000
0000
0010
,  // measure 38
0010
0000
0000
0000
,  // measure 39
0000
1001
0000
0000
,  // measure 40
0000
1000
0000
0000
,  // measure 41
0000
0001
0000
0100
,  // measure 42
0100
0010
0000
0000
,  // measure 43
0000
1000
0000
0001
,  // measure 44
0001
1000
0000
0000
,  // measure 45
0000
0010
0000
0100
,  // measure 46
0100
0001
0000
1000
,  // measure 47
0000
0110
0000
0000
,  // measure 48
0000
1000
0000
0000
,  // measure 49
0000
0001
0000
0000
,  // measure 50
0000
1000
0000
0000
0000
0000
0000
0000
,  // measure 51
0000
0001
0000
0000
0000
0000
0000
0000
,  // measure 52
0100
0000
0000
0000
,  // measure 53
0010
0000
0000
0000
1000
0000
0000
0001
,  // measure 54
0000
0000
1000
0000
0000
0001
0000
0000
,  // measure 55
0000
0100
0000
0000
0000
1001
0000
0000
,  // measure 56
0000
0000
0000
0000
,  // measure 57
0000
0000
0000
0000
,  // measure 58
0000
0000
0000
0000
,  // measure 59
0000
0000
0000
0000
,  // measure 60
0000
0000
0000
0000
,  // measure 61
0000
0000
0000
0000
,  // measure 62
0000
0000
0000
0000
,  // measure 63
0000
0000
0010
0000
,  // measure 64
0000
0000
0100
0000
,  // measure 65
0000
0000
0001
0000
,  // measure 66
0000
0000
1000
0000
,  // measure 67
0000
0000
0010
0000
,  // measure 68
0000
0000
0000
0000
,  // measure 69
0000
0000
0100
0000
,  // measure 70
0000
0000
0000
0001
,  // measure 71
0000
0000
0000
1000
,  // measure 72
0000
0001
0000
0100
,  // measure 73
0000
0000
0000
0010
,  // measure 74
0000
0010
0000
1000
,  // measure 75
0000
0000
0000
0100
,  // measure 76
0000
1000
0000
0001
,  // measure 77
0000
0000
0000
0100
,  // measure 78
0000
0010
0000
1001
,  // measure 79
0000
0000
0000
1000
,  // measure 80
0000
0001
0000
0100
,  // measure 81
0010
0000
0000
0100
,  // measure 82
0000
0010
0000
1000
,  // measure 83
0000
0000
0000
0001
,  // measure 84
0000
1000
0000
0010
,  // measure 85
0000
0100
0000
0000
0010
0000
0000
0000
,  // measure 86
0100
0000
1001
0000
,  // measure 87
0000
0000
0000
0000
,  // measure 88
1000
1000
0000
0000
,  // measure 89
0000
0000
0000
0000
,  // measure 90
0001
0001
0000
0000
,  // measure 91
0000
0000
0000
0000
,  // measure 92
0100
0100
0000
0000
,  // measure 93
0000
0000
0000
0000
,  // measure 94
0010
0010
1001
0000
;
