#TITLE:Shiny Kung-fu Revival;
#SUBTITLE:;
#ARTIST:t+pazolite;
#TITLETRANSLIT:;
#SUBTITLETRANSLIT:;
#ARTISTTRANSLIT:;
#GENRE:;
#CREDIT:;
#BANNER:[Mighty No. 9] - Placeholder.png;
#BACKGROUND:[Mighty No. 9] - Placeholder - bg.png;
#LYRICSPATH:;
#CDTITLE:;
#MUSIC:[Mighty No. 9] - Shiny Kung-fu Revival.ogg;
#OFFSET:0.000000;
#SAMPLESTART:79.911003;
#SAMPLELENGTH:15.000000;
#SELECTABLE:YES;
#BPMS:0.000000=111.111000
,2.000000=110.999001
,20.000000=222.222000
,84.000000=111.111000
,100.000000=222.222000
,164.000000=111.111000
,212.000000=222.222000
;
#STOPS:
;
#BGCHANGES:;
#KEYSOUNDS:;
#ATTACKS:;

//---------------dance-single - ----------------
#NOTES:
     dance-single:
     :
     Challenge:
     13:
     1.092382,1.620573,0.631956,0.221185,1.050628,968.000000,888.000000,80.000000,28.000000,0.000000,0.000000,1.092382,1.620573,0.631956,0.221185,1.050628,968.000000,888.000000,80.000000,28.000000,0.000000,0.000000:
0000
0000
0000
0000
,
0000
0000
0000
0000
,
0000
0000
0000
0000
,
1001
0000
1000
0000
0010
0100
0000
0010
0000
1000
0000
0001
0100
0010
0100
0001
,
0010
0000
0100
0000
1000
0000
0010
0000
1000
0000
0100
0000
0010
0000
0001
0000
0100
0010
0100
0010
0100
0010
0100
0010
0100
0000
0000
0000
0001
0000
0000
0000
,
1000
0000
1000
0100
0010
0001
0100
0010
0100
0001
0010
0100
1000
0000
0020
0000
,
0000
0130
0010
1000
0001
0000
0100
0000
,
0010
0000
1000
0100
0001
0100
1000
0010
0001
0010
1000
0100
1000
0000
0020
0000
,
0000
1030
0100
0010
0001
0000
0100
0000
,
0001
0000
0100
0001
0010
0000
0100
1000
0010
0000
0100
0000
0001
0000
0010
0000
,
1000
0000
0010
0000
0001
0000
0100
0000
0010
0000
1000
0100
0010
0000
0100
0000
,
1000
0100
1000
0100
0010
0100
0010
0100
0010
0001
0010
0001
0100
0000
0002
0000
,
0000
0023
0230
2300
3020
0000
0230
0000
,
0301
0000
1000
0000
0100
0000
0001
0000
0100
0000
1000
0010
1000
0000
0020
0000
,
0000
0000
0130
0000
0001
0000
0010
0000
1000
0000
0010
0001
0100
0000
0001
0000
,
1000
0100
1000
0100
1000
0001
1000
0001
1000
0010
0100
0001
0010
0000
0002
0000
,
0000
0000
1003
0000
0100
0000
0001
0000
0100
0000
1000
0010
0100
0000
0000
0000
,
0001
0100
0001
0100
0001
1000
0001
1000
0001
1000
0010
0100
0001
0000
0002
0000
,
0000
0000
0103
0000
0001
0000
1000
0000
0100
0000
0010
0001
0100
0000
0010
0000
,
1000
0000
0100
1000
0001
0000
0100
0010
0100
0000
0010
1000
0010
0000
2000
0000
,
0000
3100
1000
0001
0100
0001
0010
0100
,
1100
0000
0100
0000
1000
0000
0001
0000
0100
0000
0010
1000
0100
0000
1000
0000
,
1001
0000
1000
0000
0100
0000
0001
0100
0000
0000
0010
0000
0001
0100
0010
1000
,
1001
0000
1000
0010
1000
0000
0100
0000
0010
0001
0010
0000
0001
0000
1000
0000
,
0100
0000
0000
0000
1000
0000
0010
0000
0100
0000
0001
0010
0100
0010
0001
0010
0100
0000
0100
0000
0010
0001
0100
0000
0010
0000
1000
0010
0100
0001
0010
0100
,
1000
0000
0010
0100
0001
0000
0010
0100
1000
0000
1000
0100
0001
0000
0001
0100
,
1000
0010
0110
0100
0101
0001
0011
0010
,
0110
0000
0100
1000
0100
0000
1000
0010
1000
0000
0010
1000
0001
0000
0100
0000
,
0110
0010
1010
1000
1001
0000
0110
0000
,
1001
0000
1000
0100
0010
0000
0001
0100
1000
0000
0100
0010
0100
0000
0001
0000
,
0010
0001
0011
0010
0110
0100
1100
1000
,
1010
0000
0000
0000
0010
0000
0100
0000
0000
0000
0100
0001
1000
0100
0001
0000
,
0100
0000
1000
0000
0001
0100
0001
0000
0001
0010
0001
0000
0001
0100
0001
0000
,
0101
0000
0001
0000
0011
0000
0010
0000
0110
0000
0100
1000
0010
0000
1000
0000
,
1010
1000
1001
0001
0101
0100
0110
0110
,
0110
0000
0100
0000
0101
0000
0001
0000
1001
0000
0001
0100
0010
0000
1000
0000
,
1010
1000
1010
0010
0110
0000
0101
0000
,
1001
0000
0001
0011
0000
1100
0000
1001
,
0000
1010
0000
0010
1000
0001
0100
0010
,
1000
0100
1000
0100
0010
0001
0010
0001
,
0100
0010
1000
0100
1000
0010
0100
0001
0010
1000
0010
0001
0100
0000
0000
0000
,
0110
0000
0100
0000
0010
0000
1000
0001
0000
0001
0010
0100
1000
0000
1000
0000
,
1001
0000
0100
0000
0010
0000
0100
0001
0000
0010
0000
0001
0100
0000
0010
1000
,
0100
0000
1000
0000
0010
0000
1000
0100
0000
0010
0001
0100
1000
0000
0100
0000
,
0010
1000
0100
0010
0000
0011
0000
0110
0000
0010
0100
1000
0010
0000
0100
0000
,
0101
0000
0100
0000
0010
0000
1000
0100
1000
0100
0010
0001
0100
0010
1000
0000
,
0100
0000
1000
0000
0001
0000
0001
0100
0000
0010
0000
1000
0100
0000
1000
0010
,
0001
0000
0010
1000
0100
0000
0010
0011
0000
1001
0000
1100
0000
0000
1000
0100
,
0010
0000
0100
0000
0010
0000
0100
0000
1000
0010
0100
0001
0100
0001
0010
0000
0000
0000
0100
0000
1000
0000
0000
0000
1001
0000
0000
0000
1100
0000
0000
0000
,
0011
0000
0000
0000
0010
0000
0000
0000
0100
1000
0010
0100
0001
0000
0010
0000
0000
0000
0001
0000
0100
0000
0010
0000
1000
0000
0000
0000
0100
0000
0000
0000
,
0110
0000
0000
0000
0010
0000
0000
0000
0001
0100
0010
1000
0100
0000
1000
0000
0000
0000
0001
0000
0100
0000
1000
0000
0100
0000
0001
0000
0010
0000
0000
0000
,
0110
0100
1000
1100
1000
0010
1010
0010
0100
0110
0100
0001
0011
0001
0101
0000
,
0001
0010
0100
1000
0010
0100
0001
0010
1000
0010
0001
0100
0010
1000
0100
0000
0000
0000
0100
0000
1000
0000
0001
0000
0100
0000
0000
0000
0110
0000
0000
0000
,
1001
0000
0001
0100
0010
0000
1000
0000
0100
0000
0010
0001
0010
0000
0001
1000
,
0010
1000
0100
0001
0100
1000
0010
0001
,
0010
0000
0000
0000
1000
0000
0000
0000
0100
0000
1000
0100
0010
0000
0110
0000
,
0000
0000
1000
0000
0100
0000
0010
0000
0100
0000
1000
0010
0100
0001
0010
0001
,
0100
0000
0001
1000
0100
0000
1000
0000
0010
0000
0100
0001
0100
0000
0001
0000
,
1000
0100
0010
0100
1000
0000
0010
0000
0100
0000
0001
0010
1000
0000
0010
0001
,
1000
0000
0000
0011
0000
1100
0000
1001
,
0000
0000
0001
0100
0001
0100
0010
1000
0010
0000
0000
0000
1010
0000
0000
0000
,
0101
0000
0001
1000
0001
0000
0010
0000
1000
0000
0010
0001
0010
0000
0001
0000
,
0100
1000
0100
0001
1000
0010
0100
0000
,
0110
0000
0000
0000
1000
0000
0000
0000
0010
0000
1000
0100
1000
0000
0010
0000
,
0100
0000
0000
0001
0000
0000
0010
0000
0000
0001
0000
0000
0100
0000
0000
0000
0000
0000
0010
0000
0000
0000
0000
0000
1000
0000
0000
0000
0100
0000
0000
0000
0001
0000
0000
0000
0100
0000
0000
0000
1000
0000
0000
0000
0010
0000
0000
0000
,
0100
0000
0000
0000
0010
1000
0010
0100
0001
0000
0000
0000
0001
0100
0010
0000
,
0000
0000
1010
0000
0000
0000
0101
0000
0000
0000
0100
0010
0100
0010
1000
0001
,
0100
0000
0010
0000
1000
0000
0100
0000
0001
0000
0100
1000
0010
0100
0020
0000
,
0000
0130
1000
1001
,
0110
0000
0000
0000
0100
0000
0000
0000
0001
0000
0100
0010
0100
0000
0020
0000
,
0000
0000
1030
0000
0100
0000
0001
0000
0100
0000
1000
0001
0100
0001
1000
0100
,
0010
0000
0100
1000
0010
0000
0100
0001
0010
0000
0001
1000
0200
0000
0000
0000
,
0310
0100
1000
0010
0100
0001
0010
0100
0010
0000
0000
0000
0110
0000
0000
0000
,
1001
0000
0001
0010
1000
0000
1000
0010
0001
0000
0100
0010
0100
0000
0001
0000
,
0000
0000
1000
0100
0010
0001
0100
0000
0000
0000
0001
0010
0001
0000
0000
0000
,
0011
0000
0001
1000
0010
0000
1000
0100
0010
0000
0001
0100
0010
1000
0200
0000
,
0000
0000
0000
0000
0000
0300
0000
0000
1001
0000
0000
0000
0110
0000
0000
0000
,
1001
0000
1000
0100
0010
0001
0100
0010
0100
0001
1000
0100
1000
0000
2000
0000
,
0000
3100
0010
0001
1000
0000
0110
0000
,
1010
0000
0010
1000
0001
0100
0001
1000
0100
0010
0001
0100
0010
0000
0200
0000
,
0000
0310
1000
0001
0100
0000
1010
0000
,
0101
0000
0100
0001
0010
0000
0100
1000
0010
0000
0100
0000
0001
0000
1001
0000
,
1000
0000
0001
0000
0100
0000
0010
0000
0100
0000
0001
0010
0001
0000
1000
0000
,
0100
1000
0100
1000
0010
0100
0010
0100
0001
0010
0100
1000
0001
0000
0002
0000
,
0000
0023
0230
2300
3020
0000
0230
0000
,
0301
0010
0100
1000
0010
0100
0001
0010
0100
0010
0001
0000
0100
0000
0020
0000
,
0000
0000
1030
0000
0100
0000
0001
0000
0100
0000
1000
0000
0010
1000
0010
0000
,
0100
0000
0001
1000
0001
1000
0100
0010
0001
0100
0010
1000
0100
0000
0020
0000
,
0000
0000
0031
0000
0100
0000
0010
0000
1000
0000
0100
1000
0001
0000
0100
0000
,
0001
0010
0100
1000
0010
0001
0010
1000
0100
0001
0100
1000
0010
0000
0200
0000
,
0000
0000
0301
0000
0100
0000
0010
1000
0001
0000
0010
0001
0100
0010
1000
0100
,
1000
0001
1000
0000
0100
0010
0100
0000
1000
0010
0100
0001
0010
0000
0002
0000
,
0000
0103
0010
1000
0100
0001
0100
1000
,
0000
0110
0000
0000
;

//---------------dance-single - ----------------
#NOTES:
     dance-single:
     :
     Hard:
     12:
     0.911823,1.178599,0.584560,0.244883,0.675403,808.000000,734.000000,74.000000,31.000000,0.000000,0.000000,0.911823,1.178599,0.584560,0.244883,0.675403,808.000000,734.000000,74.000000,31.000000,0.000000,0.000000:
0000
0000
0000
0000
,
0000
0000
0000
0000
,
0000
0000
0000
0000
,
1001
0000
0100
0000
1000
0001
0000
0011
0000
1001
0000
0100
1000
0001
0010
0100
,
1000
0010
1000
0010
0100
0001
0100
0001
0010
0100
0010
0100
0000
0000
1000
0000
,
0010
0000
1000
0100
1000
0000
1000
0010
1000
0000
0010
0000
0000
0000
0210
0000
,
0000
0310
1000
0100
0010
0000
0001
0000
,
0001
0010
0001
0000
0010
0100
0010
0000
0100
1000
0100
1000
0100
0000
2100
0000
,
0000
3001
1000
0100
0010
0000
0100
0000
,
1000
0000
0010
0100
0001
0000
0010
0100
1000
0000
0010
0000
0000
0000
1002
0000
,
0000
0103
0010
1000
0010
0000
0100
0000
,
0010
0000
1000
0100
0010
0000
0001
0100
0010
0000
1000
0000
0000
0000
0012
0000
,
0000
0203
0320
2030
3002
0000
0203
0000
,
0310
1000
0010
0000
1000
0100
1000
0000
0100
0010
0100
0010
0100
0000
0210
0000
,
0000
1300
0100
0001
0100
0000
1000
0000
,
1000
0000
0010
0100
0001
0000
0010
0001
0100
0000
0010
0000
0000
0000
1020
0000
,
0000
0130
0001
0010
0001
0000
1000
0000
,
0110
0000
0100
0000
0001
0000
1000
0000
0100
0000
0010
0001
0010
0000
0002
0000
,
0000
0000
0103
0000
0010
0000
1000
0000
0001
0000
0100
0010
0100
0000
0001
0000
,
0010
0100
1000
0000
0010
0100
0001
0000
0010
0100
1000
0000
0010
0000
0120
0000
,
0000
0130
0001
1000
0010
1000
0100
0010
,
0001
0000
0100
0000
1000
0000
0100
0000
0001
0000
0010
0100
0010
0000
0100
0000
,
1100
0000
1000
0000
0010
0000
0100
0010
0000
0010
1000
0000
0001
0100
0010
0000
,
0110
0000
0010
0000
1000
0000
0100
0010
0100
0010
0001
0000
0100
0000
0010
0000
,
0100
0000
0000
0000
0001
0000
0010
0000
0000
0000
0001
0000
0100
0000
0010
0000
0100
0000
0000
0000
0001
0000
1000
0000
0100
0000
1000
0010
1000
0010
0100
0001
,
0100
0000
0001
0000
1000
0000
0100
0000
0010
0000
0100
1000
0100
0000
1000
0000
,
0000
0001
0011
0010
0110
0100
1100
1000
,
1001
0000
0001
0000
0100
0000
0000
0000
0001
0000
0100
0010
0100
0000
0001
0000
,
0010
0100
0010
0100
1000
0000
1010
0000
,
0110
0000
0010
0000
0100
0000
0000
0000
0010
0000
1000
0100
1000
0000
0100
0000
,
0000
0010
0011
0001
0101
0100
0110
0000
,
0100
0000
0001
1000
0000
0100
0010
0100
,
0000
0000
1000
0000
0010
0000
0001
0000
0010
0000
1000
0100
1000
0000
0001
0000
,
0011
0011
0011
0011
,
0011
0000
0011
0000
0011
0000
0011
0010
,
0110
0110
0110
0110
,
0100
1000
0100
1000
0010
0000
1010
0000
,
0101
0000
0000
1001
0000
1100
0000
1010
,
0000
0101
0000
0000
0010
0000
0010
0100
,
1000
0100
1000
0100
0010
0001
0010
0001
,
0100
0010
0100
0010
1000
0010
1000
0010
0100
0001
0010
0100
1000
0000
0000
0000
,
0100
0000
0010
0000
0001
0000
0100
0010
0000
0010
1000
0010
1000
0000
0100
0000
,
0100
0000
1000
0000
0001
0000
0100
0001
0000
0100
0000
0010
0100
0000
0001
0010
,
1000
0000
0010
0000
0100
0000
0010
0100
0000
1000
0001
0100
0010
0000
1000
0000
,
0001
0100
0001
0100
0000
0010
0000
1010
0000
0100
0001
0100
1000
0000
0100
0000
,
0101
0000
0100
0000
0001
0000
0010
0100
0000
1000
0010
0100
0001
0000
0100
0000
,
0100
0000
0010
0000
1000
0000
0100
1000
0000
1000
0000
0010
0100
0000
0100
0001
,
0010
0000
0100
1000
0010
0000
0000
1010
0000
1100
0000
0110
0000
0000
0010
0001
,
0100
0010
0100
0010
1000
0100
0001
0100
0000
1000
0010
0000
0010
0000
1000
0000
,
1001
0000
1000
0000
0010
1000
0010
1000
0000
0001
0010
0100
1000
0000
0100
0000
,
1100
0000
1000
0000
0001
0100
0001
0100
0000
0010
1000
0100
0001
0100
1000
0000
,
1010
0000
1000
0100
0000
1000
0010
0000
0100
0010
0000
0100
0001
0010
0100
1000
,
0010
0000
1000
0000
0010
0000
1000
0000
0100
0010
0100
0010
0001
0010
0001
0000
0000
0000
0100
0000
0010
0000
1000
0000
0001
0000
0000
0000
1001
0000
0000
0000
,
0110
0000
0010
0000
1000
0000
0000
0000
0001
0100
0001
0000
0100
0000
0000
0000
,
0010
1000
0100
0000
0010
0000
0001
0000
0100
0000
0000
0000
0010
0000
0000
0000
,
1010
0000
0000
0000
1000
0000
0000
0000
0010
0100
0001
0000
0010
0000
0100
0000
,
1000
0000
0100
0000
1000
0000
0010
0000
0100
0000
0001
0100
0001
0100
0001
0100
,
0010
0000
0000
0000
0110
0000
0000
0000
0100
0001
0100
0000
0001
0000
1000
0000
,
0100
1000
0100
1000
0100
0000
1000
0000
0010
0000
0000
0000
0100
0000
0001
1000
,
0001
0000
0000
1010
0000
1100
0000
0110
,
0000
0000
0010
0000
0100
1000
0100
1000
0100
0000
0000
0000
1000
0000
0000
0000
,
1010
0000
0000
0000
1000
0000
0100
0000
0010
0001
0010
0001
0010
0000
0100
0000
,
0000
1000
0010
1000
0001
0000
0100
0000
,
0110
0000
0000
0000
1000
0000
0000
0000
0010
0000
1000
0100
1000
0000
0010
0000
,
0000
0000
0000
1000
0000
0000
0000
0000
0000
0001
0000
0000
1000
0000
0100
0000
0010
0000
0001
0000
0010
0000
0100
0000
,
1000
0000
0000
0000
0001
0100
0001
0000
0010
0000
0000
0000
0100
1000
0100
0000
,
0000
0000
0110
0000
0000
0000
0011
0000
0000
0000
0001
0000
0100
0010
0100
0000
,
0010
0000
1000
0000
0100
0000
1000
0000
0100
0010
0100
0000
0010
0000
0002
0000
,
0000
0203
0320
1030
,
1001
0000
0010
0000
0100
0001
0010
2000
,
0000
0000
3010
0000
0001
0000
0100
0000
0010
0000
1000
0010
1000
0010
1000
0010
,
1000
0000
0100
0000
1000
0010
0002
0000
,
0013
0000
1000
0100
1000
0100
1000
0100
1000
0000
0000
0000
0110
0000
0000
0000
,
1001
0000
0100
0000
0010
0001
1000
0100
,
0000
0000
1100
0000
0000
0000
1010
0000
0000
0000
0010
0000
0100
0010
0100
0000
,
0010
0000
1000
0000
0100
0000
1000
0000
0010
0000
0100
0001
0100
0000
0002
0000
,
0000
0003
0101
1001
,
0011
0000
0010
0100
1000
0000
0010
0100
0001
0000
1000
0010
0100
0000
0120
0000
,
0000
1030
0100
0010
0001
0000
0100
0000
,
1000
0000
0010
1000
0010
0000
1000
0001
1000
0000
0001
0100
0001
0000
0102
0000
,
0000
0013
0100
1000
0010
0000
1000
0000
,
1100
0100
1000
0010
0100
0001
0010
0100
,
1000
0000
0010
0000
0001
0000
0010
0000
1000
0000
0100
0000
0010
0100
0010
0000
,
0100
1000
0100
0000
1000
0010
1000
0000
1000
0001
1000
0001
1000
0000
1002
0000
,
0000
0023
0032
2003
3020
0000
0230
0000
,
0301
0010
0001
0010
0001
0000
1000
0100
1000
0100
1000
0000
0010
0000
0200
0000
,
0000
0301
0010
1000
0010
0000
0001
0000
,
1000
0000
0001
0100
0001
0000
0001
0010
0001
0000
0100
0000
0000
0000
0120
0000
,
0000
1030
0100
1000
0010
0000
0100
0000
,
0001
0100
0001
0100
0001
0100
0001
0100
0001
0100
0001
0100
0001
0000
0020
0000
,
0000
0130
1000
0001
0100
0000
0010
0000
,
1000
0000
0010
0100
0010
0000
0100
0001
0100
0000
0001
0000
0000
0000
0021
0000
,
0000
0031
0100
0010
0100
0001
0010
0100
,
0000
1001
0000
0000
;

//---------------dance-single - ----------------
#NOTES:
     dance-single:
     :
     Easy:
     9:
     0.557476,0.736624,0.473967,0.213285,0.090844,494.000000,434.000000,60.000000,27.000000,0.000000,0.000000,0.557476,0.736624,0.473967,0.213285,0.090844,494.000000,434.000000,60.000000,27.000000,0.000000,0.000000:
0000
0000
0000
0000
,
0000
0000
0000
0000
,
0000
0000
0000
0000
,
1001
0000
0000
0010
0000
0010
0000
1000
0000
0001
0000
0100
0010
0000
1000
0000
,
1001
1000
1100
0100
0120
0000
0030
0100
,
1000
0000
1000
0000
0010
0100
0000
0020
,
0000
1030
0100
0000
0010
0000
0100
0000
,
1000
0000
1000
0000
0010
0100
0000
0002
,
0000
0013
0100
0000
1000
0000
0010
0000
,
0100
0000
0100
0000
0001
0010
0000
0200
,
0000
1300
0010
0000
1000
0000
0100
0000
,
0010
0000
0010
0000
0001
0100
0000
0020
,
0000
1030
0100
0010
0001
0000
0000
0000
,
1001
0000
1000
0000
0010
1000
0001
0200
,
0000
0310
0100
0000
0001
0000
1000
0000
,
0010
0000
0010
0000
1000
0100
0010
0002
,
0000
0103
0001
0000
0010
0000
0100
0000
,
1000
0000
1000
0000
0010
0100
0001
2000
,
0000
3100
1000
0000
0010
0000
0100
0000
,
0010
0000
0010
0000
1000
0100
0010
0200
,
0000
1300
0010
1000
0000
1000
0001
1000
,
0002
0000
1003
0010
,
0110
0000
0000
0000
0010
0000
0000
0000
1001
0000
0000
1010
0000
0000
1100
0000
,
0100
1000
0010
0100
0001
0010
0100
1000
,
0010
0000
1000
0000
0001
0000
0010
0000
0001
0000
1000
0000
0000
0020
0000
0000
,
1030
0000
0100
0000
1000
0000
0010
0100
,
0010
1010
1001
1100
,
0110
0000
0010
0000
0100
0000
1000
0001
,
0010
0010
0010
0100
,
1100
0000
1000
0000
0010
0000
0100
0001
,
0100
0101
1001
1100
,
1010
0000
0000
1100
0000
0000
1000
0010
,
0000
0100
0001
0000
0011
0000
1100
0000
,
1001
1000
1000
1000
,
1000
1000
1000
1000
,
0010
0010
0010
0010
,
0010
0010
0010
0010
,
0010
0000
0000
1010
0000
1100
0000
0110
,
0000
0011
0000
0000
0001
0000
0100
0000
,
0010
0100
0010
0100
0010
0100
0010
0100
,
0020
0000
0000
1030
,
0001
0000
1000
0000
0010
0000
0000
0100
0000
0000
0001
0000
1000
0000
0100
0000
,
1000
0000
0010
0000
0100
0000
0000
0001
0000
0001
0000
0000
0010
0000
0100
0000
,
1000
0000
0010
0000
1000
0000
0000
0100
0000
0000
0010
0000
0100
0000
1000
0000
,
0010
0000
0100
0000
0000
0001
0000
2000
0000
0000
0000
0000
3010
0000
0100
0000
,
0001
0000
0010
0000
0100
0000
0000
1000
0000
0000
0010
0000
0100
0000
0010
0000
,
1000
0000
0100
0000
0010
0000
0000
0001
0000
0001
0000
0000
0100
0000
0010
0000
,
1010
0000
0000
0000
1001
0000
0000
1100
0000
1100
0000
1100
0000
0000
0010
0000
,
0100
0000
1000
0000
0010
0000
0000
0200
0000
0000
0000
0000
0301
0000
0100
0000
,
0002
1000
1000
1000
1000
1000
1000
1000
,
1003
0010
1000
0010
1000
0010
1000
0010
,
1010
0000
0000
1001
0000
0000
1100
0000
0000
1010
0000
0000
0101
0000
0001
0000
,
2000
0000
0000
0000
0000
0000
0000
3001
0000
0000
0000
0000
0000
0000
0001
0000
,
0101
0000
0100
0000
0010
1000
0010
0000
,
1000
0001
1000
0000
0100
0000
0010
0000
,
0100
0000
1000
0000
0010
0000
0100
0001
,
0000
0010
0000
0001
1000
0000
0110
0000
,
1001
0000
1000
0000
0001
0100
0001
0000
,
1000
0010
1000
0100
,
1100
0000
0000
1001
0000
0110
0000
1001
,
0000
0001
0100
0010
,
0110
0000
0100
0000
0001
1000
0001
0000
,
0100
0010
1000
0100
,
1000
0000
0010
0000
0100
0010
0100
0010
,
0000
1000
0000
0001
0100
0000
0010
0000
,
1010
0000
0000
0000
1001
0000
0000
0110
,
0000
0110
0000
0110
0000
0000
0010
0000
,
1000
0000
0100
0000
1000
0000
0001
0200
,
0000
0000
0310
0100
,
1001
0000
0000
0000
0000
0000
0000
1001
,
0000
0000
0010
1000
,
1010
0000
1000
0000
0100
0000
0010
0002
,
0000
0000
0103
0000
,
0110
0000
0010
0000
1010
0000
0000
1001
,
0000
0110
0000
1001
0000
0000
0010
0000
,
1000
0100
1000
0000
1000
0001
1000
0020
,
0000
0000
0130
0001
,
1001
0000
1000
0000
0010
0100
0000
0020
,
0000
1030
0100
0000
0010
0000
0100
0000
,
1000
0000
1000
0000
0010
0100
0000
0002
,
0000
0013
0100
0000
1000
0000
0010
0000
,
0100
0000
0100
0000
0001
0010
0000
0200
,
0000
1300
0010
0000
1000
0000
0100
0000
,
0010
0000
0010
0000
0001
0100
0000
0020
,
0000
1030
0100
0010
0001
0000
0000
0000
,
1001
0000
1000
0000
0010
1000
0001
0200
,
0000
0310
0100
0000
0001
0000
1000
0000
,
0010
0000
0010
0000
1000
0100
0010
0002
,
0000
0103
0001
0000
0010
0000
0100
0000
,
1000
0000
1000
0000
0010
0100
0001
2000
,
0000
3100
1000
0000
0010
0000
0100
0000
,
0010
0000
0010
0000
1000
0100
0010
0200
,
0000
1300
0010
1000
0100
0010
0001
0100
,
0000
1001
0000
0000
;

//---------------dance-single - ----------------
#NOTES:
     dance-single:
     :
     Beginner:
     6:
     0.361118,0.441975,0.323878,0.157989,0.000000,320.000000,279.000000,41.000000,20.000000,0.000000,0.000000,0.361118,0.441975,0.323878,0.157989,0.000000,320.000000,279.000000,41.000000,20.000000,0.000000,0.000000:
// measure 0
0000
0000
0000
0000
,  // measure 1
0000
0000
0000
0000
,  // measure 2
0000
0000
0000
0000
,  // measure 3
1001
0000
0110
0000
,  // measure 4
1001
0110
2002
3003
,  // measure 5
1000
0000
0100
0000
1000
0000
0000
0020
,  // measure 6
0000
0130
0100
0100
,  // measure 7
0001
0000
1000
0000
0001
0000
0000
0002
,  // measure 8
0000
0103
0010
0100
,  // measure 9
0001
0010
0100
1000
,  // measure 10
0010
0100
0001
1000
,  // measure 11
0010
0010
0100
0100
,  // measure 12
0002
0000
0000
0000
,  // measure 13
0013
0000
0010
0000
0100
0000
0000
0200
,  // measure 14
0000
1300
0001
1000
,  // measure 15
0010
0000
1000
0000
0001
0000
0000
0002
,  // measure 16
0000
0103
0001
1000
,  // measure 17
0100
0000
0100
0000
1000
0000
0000
2000
,  // measure 18
0000
3010
1000
0001
,  // measure 19
0100
0100
0001
0001
,  // measure 20
1000
0000
0010
0100
,  // measure 21
0110
0000
0000
0000
,  // measure 22
1001
0000
0110
0010
,  // measure 23
0110
0100
0001
1000
,  // measure 24
1001
1000
0010
0100
,  // measure 25
0110
0100
0001
1000
,  // measure 26
0000
0010
0100
0010
,  // measure 27
0100
0010
1000
0100
,  // measure 28
0010
0001
0001
0001
,  // measure 29
1001
1000
0001
0100
,  // measure 30
0000
0010
0010
0010
,  // measure 31
0100
0110
0000
1001
,  // measure 32
0000
0001
1000
0001
,  // measure 33
1001
1000
1000
1000
,  // measure 34
1000
1000
1000
1000
,  // measure 35
0001
0001
0001
0001
,  // measure 36
0001
0001
0001
0001
,  // measure 37
1001
0000
0000
0010
0000
0100
0000
0010
,  // measure 38
0000
0100
0000
0000
0010
0000
1000
0000
,  // measure 39
0010
0010
0010
0010
,  // measure 40
0200
0000
0000
0310
,  // measure 41
0110
0000
0000
0000
,  // measure 42
1001
0000
0000
0000
,  // measure 43
0110
0000
0000
0000
,  // measure 44
1001
0000
0000
0000
,  // measure 45
1001
1000
0010
0100
,  // measure 46
0010
1000
0001
0100
,  // measure 47
0110
0110
0000
0000
,  // measure 48
1001
1000
0001
0000
,  // measure 49
2000
0000
0000
0000
,  // measure 50
3100
0000
0000
0000
,  // measure 51
1001
0000
0000
1001
,  // measure 52
0001
0100
0010
0000
,  // measure 53
1000
0100
1000
0000
,  // measure 54
0001
0100
0001
1000
,  // measure 55
0010
0000
0010
0000
0100
0000
0000
0001
,  // measure 56
0000
0000
1001
0000
,  // measure 57
1001
1000
0010
0000
,  // measure 58
1000
0001
1000
0001
,  // measure 59
0100
0000
0000
0010
0000
0100
0000
0010
,  // measure 60
0000
2000
0000
3001
,  // measure 61
1001
0001
0010
0100
,  // measure 62
1000
1000
0010
0100
,  // measure 63
0001
0001
1000
1000
,  // measure 64
1001
0000
0100
0000
,  // measure 65
1001
0000
0000
0000
0110
0000
0000
1001
,  // measure 66
0000
0000
0000
1001
0000
0000
0010
0000
,  // measure 67
0100
0100
0001
1000
,  // measure 68
0010
0000
0000
0100
,  // measure 69
0110
0000
0000
0000
0000
0000
0000
0110
,  // measure 70
0000
0000
0000
0020
,  // measure 71
1030
1000
1000
0002
,  // measure 72
0000
0000
1003
0000
,  // measure 73
1001
0000
0000
0000
0110
0000
0000
0110
,  // measure 74
0000
0000
0000
0110
0000
0000
0010
0000
,  // measure 75
0100
0100
0001
1000
,  // measure 76
0020
0000
1030
0100
,  // measure 77
1000
0000
0100
0000
1000
0000
0000
0020
,  // measure 78
0000
0130
0100
0100
,  // measure 79
0001
0000
1000
0000
0001
0000
0000
0002
,  // measure 80
0000
0103
0010
0100
,  // measure 81
0001
0010
0100
1000
,  // measure 82
0010
0100
0001
1000
,  // measure 83
0010
0010
0100
0100
,  // measure 84
0002
0000
0000
0000
,  // measure 85
0013
0000
0010
0000
0100
0000
0000
0200
,  // measure 86
0000
1300
0001
1000
,  // measure 87
0010
0000
1000
0000
0001
0000
0000
0002
,  // measure 88
0000
0103
0001
1000
,  // measure 89
0100
0000
0100
0000
1000
0000
0000
2000
,  // measure 90
0000
3010
1000
0001
,  // measure 91
0100
0100
0001
0001
,  // measure 92
1000
0000
0010
0100
,  // measure 93
0000
1001
0000
0000
;

//---------------dance-single - ----------------
#NOTES:
     dance-single:
     :
     Medium:
     10:
     0.736906,0.847118,0.616158,0.197486,0.193537,653.000000,575.000000,78.000000,25.000000,0.000000,0.000000,0.736906,0.847118,0.616158,0.197486,0.193537,653.000000,575.000000,78.000000,25.000000,0.000000,0.000000:
0000
0000
0000
0000
,
0000
0000
0000
0000
,
0000
0000
0000
0000
,
1001
0000
0000
0100
1000
0000
0010
0000
0100
0000
0000
0001
0010
0000
0100
0000
,
1010
1000
1001
0001
0102
0000
0000
0103
,
0010
0000
1000
0000
0001
0000
0010
0000
0100
1000
0100
0000
0000
0000
2000
0000
,
0000
3010
0100
0001
0010
0000
0100
0000
,
0110
0000
0100
0000
1000
0000
0010
0000
0100
0001
0100
0000
0000
0000
0020
0000
,
0000
0031
0100
0010
1000
0000
0100
0000
,
1100
1000
0100
1000
0001
0010
0001
0200
,
0000
0310
0100
0001
0010
0000
0100
0000
,
1000
0010
1000
0100
1000
0010
1000
0002
,
0000
1003
0100
0010
0001
0000
0000
0000
,
1001
0000
0001
0000
0100
0000
0001
0000
0010
0000
0100
1000
0100
0000
2000
0000
,
0000
3010
1000
0001
0010
0000
0100
0000
,
1000
0000
0010
0000
0001
0000
0010
0000
1000
0000
0100
0010
0100
0000
0020
0000
,
0000
0130
1000
0001
0010
0000
0100
0000
,
1010
0010
0100
0010
1000
0100
0010
0200
,
0000
1300
0001
0100
0010
0000
1000
0000
,
1000
0100
1000
0001
0100
0001
0000
0002
,
0000
0103
0010
0100
0001
1000
0100
0010
,
0100
0000
1000
0000
0010
0000
0100
0000
0001
0000
0010
0001
1000
0000
0010
0000
,
0100
0000
0010
0000
1000
0000
0001
0010
0000
0010
0001
0000
0100
0000
0010
0000
,
1001
0000
1000
0000
0100
0000
0010
0000
0001
0100
0001
0000
0010
0000
0100
0000
,
1000
0000
1000
0100
0000
0100
1000
0000
0010
0000
0100
0000
0001
0020
0000
0000
,
0031
0000
0000
0000
0100
0000
0000
0000
0010
0000
1000
0100
1000
0000
0010
0000
,
0000
0100
0001
0010
1000
0010
0001
0100
,
0010
0000
0000
0000
1000
0000
0000
0000
0100
0000
0010
0100
0010
0000
0001
0000
,
1000
0100
0001
0100
1000
0000
1001
0000
,
0110
0000
0000
0000
0100
0000
0000
0000
0001
0000
0010
0001
0100
0000
0010
0000
,
0000
0100
0001
0100
1000
0100
0001
0000
,
1001
0000
0000
0110
0000
0000
0010
1000
,
0000
1000
0001
0010
0001
0100
0010
1000
,
1001
1001
1001
1001
,
1001
1001
1001
1001
,
0110
0110
0110
0110
,
0010
1000
0010
0001
0010
0000
1000
0000
,
1001
0000
0000
1100
0000
1010
0000
0101
,
0000
0011
0000
0000
0100
0000
0010
0000
,
1000
0100
1000
0100
0010
0001
0010
0001
,
0100
0010
0100
0000
0001
0000
0010
0000
0100
0000
1000
0000
0010
0000
0100
0000
,
0110
0000
0100
0000
0001
0000
0010
0100
0000
0010
0001
0000
0100
0000
0010
0000
,
1000
0000
0100
0000
0001
0000
0100
1000
0000
0100
0000
0010
0100
0000
1000
0000
,
1010
0000
1000
0000
0100
0000
0010
0100
0000
1000
0001
0000
0010
0000
0100
0000
,
1000
0000
1000
0000
0000
0110
0000
1001
0000
0000
0000
0000
0101
0000
1010
0000
,
1001
0000
1000
0000
0010
0000
1000
0100
0000
0010
0100
0000
1000
0000
0010
0000
,
0100
0000
0010
0000
1000
0000
0001
0100
0000
0100
0000
0001
0010
0000
0100
0000
,
0110
0000
0000
0000
1001
0000
0000
0011
0000
1001
0000
1100
0000
0000
1000
0000
,
0010
0000
1000
0000
0100
1000
0010
0200
0000
0000
0000
0000
0310
0000
1000
0000
,
1001
0001
0001
0001
0001
0001
0001
0001
,
0101
0100
0100
0100
0100
0100
0100
0100
,
0110
0000
0000
1010
0000
0000
1001
0000
0000
1100
0000
0000
0011
0000
0010
0000
,
0001
0100
0001
0100
0001
0010
0100
2000
0000
0000
0000
0000
0000
0000
3010
0000
,
0110
0000
0100
0000
0001
0010
0100
0000
,
0010
0001
1000
0010
1000
0000
0100
0000
,
0110
0000
0010
0000
0001
0100
0001
0100
,
0000
0101
0000
0001
1000
0000
1010
0000
,
0110
0000
0100
0000
0001
0010
0100
0010
,
0000
0001
0100
0010
1000
0000
0100
0000
,
1100
0000
0000
0011
0000
0101
0000
0110
,
0000
0010
1000
0001
0100
0000
0010
0000
,
0110
0000
0010
0000
1000
0100
0001
0100
,
0000
0010
0001
0100
0010
0000
1000
0000
,
1010
0000
0010
0000
1000
0100
0002
0000
,
0103
0000
0000
1000
0000
0000
0001
0000
0000
0010
0000
0000
0100
0000
0000
0000
0000
0000
1000
0000
0010
0000
0100
0000
,
0001
0000
0000
0000
1001
0000
0000
0110
,
0000
0000
1010
0000
0000
0000
0101
0000
0000
0000
0001
0010
0001
0000
0100
0000
,
0010
1000
0100
1000
0010
1000
0100
0020
,
0000
0130
1000
0000
,
1001
0000
1000
0000
0010
1000
0001
0200
,
0000
0301
0010
0100
1000
0000
0100
0000
,
1100
0000
0100
0000
1000
0100
0020
0000
,
0000
0100
1030
0000
,
0011
0000
0010
0000
0001
0100
1000
0100
,
0000
0101
0000
0011
0000
0010
0100
1000
,
0010
0100
0001
0010
1000
0010
0001
0200
,
0000
0000
0310
1000
,
1001
0000
1000
0000
0001
0000
0010
0000
0100
1000
0100
0000
0000
0000
2000
0000
,
0000
3010
1000
0001
0010
0000
0100
0000
,
0110
0000
0100
0000
1000
0000
0010
0000
0100
0001
0100
0000
0000
0000
0020
0000
,
0000
0031
1000
0010
1000
0000
0100
0000
,
1100
1000
0100
1000
0001
0010
0001
0200
,
0000
0310
0100
0001
0010
0000
0100
0000
,
1100
1000
0010
1000
0100
1000
0100
0020
,
0000
0031
0100
0010
0100
0000
0000
0000
,
1001
0000
0001
0000
0100
0000
0001
0000
0010
0000
0100
1000
0100
0000
2000
0000
,
0000
3010
0100
0001
0010
0000
0100
0000
,
0110
0000
0100
0000
1000
0000
0010
0000
1000
0000
0001
0010
0001
0000
0002
0000
,
0000
0013
0100
0010
0100
0000
1000
0000
,
1010
0010
0100
0010
1000
0100
0010
0200
,
0000
1300
0001
0100
0010
0000
1000
0000
,
1001
1000
0001
1000
0100
0010
0000
0002
,
0000
0103
0010
0100
0001
1000
0100
0010
,
0000
0110
0000
0000
;
