#TITLE:Pick Me Up;
#SUBTITLE:;
#ARTIST:Perfume;
#TITLETRANSLIT:;
#SUBTITLETRANSLIT:;
#ARTISTTRANSLIT:;
#GENRE:;
#CREDIT:;
#BANNER:[Mighty No. 9] - Pick Me Up.png;
#BACKGROUND:[Mighty No. 9] - Pick Me Up-bg.png;
#LYRICSPATH:;
#CDTITLE:;
#MUSIC:[Mighty No. 9] - Pick Me Up.ogg;
#OFFSET:0.000000;
#SAMPLESTART:61.841999;
#SAMPLELENGTH:15.000000;
#SELECTABLE:YES;
#DISPLAYBPM:128.000000;
#BPMS:0.000000=128.000000
;
#STOPS:
;
#BGCHANGES:0.000=[Mighty No. 9] - Pick Me Up.avi=1.000=0=0=0=StretchNoLoop====,
99999=-nosongbg-=1.000=0=0=0 // don't automatically add -songbackground-
;
#KEYSOUNDS:;
#ATTACKS:;

//---------------dance-single - ----------------
#NOTES:
     dance-single:
     :
     Hard:
     9:
     0.573034,0.629993,0.406096,0.091164,0.625720,484.000000,435.000000,49.000000,11.000000,0.000000,0.000000,0.573034,0.629993,0.406096,0.091164,0.625720,484.000000,435.000000,49.000000,11.000000,0.000000,0.000000:
0000
0000
0000
0000
,
0000
0000
0000
0000
,
0000
0000
0000
0000
,
0000
0000
0000
0000
,
0000
0000
0000
0000
,
0100
0000
0001
0010
0000
0011
0000
0000
0100
0000
0001
0010
0000
0011
0000
0000
,
0010
0000
0100
1000
0000
1000
0000
0000
0010
0000
0100
1000
0000
1000
0000
0000
,
0010
0000
0100
0110
0000
0110
0000
0000
0100
0000
0010
0110
0000
0110
0000
0000
,
0200
0000
0000
0000
0000
0000
0000
0000
0301
0010
0001
0020
0200
0000
0330
0000
,
1000
0000
0000
0100
0000
0000
1000
0000
0000
0000
0010
0000
0100
0000
0001
0000
,
0001
0000
0000
1000
0000
0000
0100
0000
0000
0000
1000
0000
0010
0000
0100
0000
,
0010
0000
0000
1000
0000
0000
0001
0000
0000
0000
0010
0000
0001
0000
0100
0000
,
0010
0000
0000
0100
0000
0000
0010
0000
1000
0000
0100
0000
1000
0000
0010
0000
,
0001
0000
0000
0010
0000
0000
1000
0000
0000
0000
0100
0000
0010
0000
0001
0000
,
1000
0000
0000
0001
0000
0000
0010
0000
0000
0000
0001
0000
0100
0000
0010
0000
,
0100
0000
0000
0001
0000
0000
1000
0000
0000
0000
0100
0000
1000
0000
0010
0000
,
0220
0000
0000
0000
0330
0000
0010
0000
0000
1000
0100
0000
1000
0000
0000
0000
,
0010
0000
0100
0010
0000
0010
0000
0000
1000
0000
0100
1000
0000
1000
0000
0000
,
0010
0000
0100
0001
0000
0001
0000
0000
0010
0000
0001
0100
0000
0100
0000
0000
,
0010
0000
1000
0100
0000
0100
0000
0000
0100
0000
0010
0001
0000
0001
0000
0000
,
0001
0000
0100
0010
0000
0010
1000
0000
0100
0000
1000
0010
0000
1000
0100
0000
,
1000
0000
0010
0100
0000
0100
0000
0000
0010
0000
0100
0001
0000
0001
0000
0000
,
0010
0000
0001
0100
0000
0100
0000
0000
0010
0000
1000
0100
0000
0100
0000
0000
,
1000
0000
0010
0100
0000
0100
0010
0000
0010
0000
1000
0100
0000
0100
0010
0000
,
0001
0000
0100
0010
0000
0100
0001
0000
0010
0000
0001
0010
0000
0001
0100
0000
,
0020
1000
0100
0001
,
0100
0100
0100
0000
0100
0000
0030
0000
,
2000
0100
0010
0001
,
0010
0010
0010
0000
0100
0000
3000
0000
,
0100
0010
0001
0000
0010
0100
1000
0000
,
1000
0100
1000
0001
0100
0010
0110
0000
,
0010
1000
0001
1000
0001
1000
0001
0000
,
0101
0000
0000
0000
1010
0000
0000
0000
0010
0100
0010
1000
1100
0000
0000
0000
,
0010
0000
1000
0100
0000
1100
0000
0000
0001
0000
0100
0010
0000
0110
0000
0000
,
0010
0000
0100
0001
0000
0010
0001
0000
0100
0010
0100
0000
0110
0000
0000
0000
,
0010
0000
1000
0100
0000
0100
1000
0000
0010
0000
0010
0100
0000
0001
0010
0000
,
1010
0000
0100
0010
0000
0010
1000
0000
0100
0010
0001
0000
0002
0000
0100
0000
,
0103
0000
0010
1000
0000
1010
0000
0000
0010
0000
0100
0001
0000
0011
0000
0000
,
0001
0000
0100
0010
0000
0010
0100
0000
0010
1000
0100
0000
0011
0000
0000
0000
,
0100
0000
0010
0100
0000
0010
0100
0000
0100
0000
0100
0001
0000
1000
0001
0000
,
1001
0000
0001
0100
0000
0010
0100
0000
0010
1000
0100
1000
0010
0100
0001
0000
,
0010
0000
0001
0100
0000
0101
0000
0000
0010
0000
1000
0100
0000
1100
0000
0000
,
1000
0000
0010
0100
0000
0100
0010
0000
0101
0000
0010
0000
2002
0000
3003
0000
,
0100
0000
0100
0010
0000
0010
0100
0000
0010
0000
1000
0100
0000
0100
1000
0000
,
1000
0000
0010
0100
0000
0100
1000
0000
0100
0000
0001
0000
0010
0000
0001
0000
,
0100
0000
0001
0010
0000
0011
0000
0000
0100
0000
0001
0010
0000
0011
0000
0000
,
0100
0000
0010
1000
0000
1000
0100
0000
1100
0000
0100
0000
0011
0000
0000
0000
,
0100
0000
0010
1000
0000
0100
1000
0000
0100
0000
0010
1000
0000
0100
1000
0000
,
0110
0000
0000
0100
0000
0000
0100
0000
0001
0000
0010
0000
0001
0000
0100
0000
,
0110
0000
0010
1000
0000
1010
0000
0000
0110
0000
0001
0010
0000
0011
0000
0000
,
1000
0000
0100
1000
0000
0010
0100
0000
0010
0000
0100
0000
0101
0000
0000
0000
,
0011
0000
0001
0100
0000
0101
0000
0000
0101
0000
0010
1000
0000
0100
1000
0000
,
1100
0000
0001
0010
0000
0100
0001
0000
0010
0000
0001
0000
0100
0000
0100
0000
,
1010
0000
0000
1100
0000
1100
0000
0000
0011
0000
0000
0101
0000
0101
0000
0000
,
0100
0000
0100
0010
0000
0010
1000
0000
1000
0000
0100
0000
1100
0000
0000
0000
,
0011
0000
0001
0010
0000
0101
0000
0000
0110
0000
0010
1000
0000
0000
0010
0000
,
0100
0000
0000
0100
0000
0000
0100
0000
0010
0000
1000
0000
0200
0000
0000
0000
,
0310
0000
0001
0100
0000
0100
0000
0000
0010
0000
1000
0100
0000
0100
0000
0000
,
1000
0000
0010
0100
0000
0100
0000
0000
0001
0000
0010
0001
0000
0100
0000
0000
,
0010
0100
0010
0100
0010
0100
0010
0100
0010
0100
0010
0100
0010
0100
0010
0100
,
0010
0000
0000
1000
0000
1100
0000
0000
0010
0000
0000
0001
0000
0101
0000
0000
;

//---------------dance-single - ----------------
#NOTES:
     dance-single:
     :
     Medium:
     7:
     0.406096,0.453595,0.232055,0.149178,0.468254,343.000000,315.000000,28.000000,18.000000,0.000000,0.000000,0.406096,0.453595,0.232055,0.149178,0.468254,343.000000,315.000000,28.000000,18.000000,0.000000,0.000000:
0000
0000
0000
0000
,
0000
0000
0000
0000
,
0000
0000
0000
0000
,
0000
0000
0000
0000
,
0000
0000
0000
0000
,
2000
0000
0000
0100
0000
3100
0000
0000
2000
0000
0000
0100
0000
3100
0000
0000
,
0020
0000
0000
0001
0000
0031
0000
0000
0020
0000
0000
0001
0000
0031
0000
0000
,
0100
0000
0000
0110
0000
0110
0000
0000
0010
0000
0000
1010
0000
1010
0000
0000
,
2002
0000
0000
3003
0010
0010
0110
0000
,
0100
0000
0000
1000
0000
0000
0100
0000
0000
0000
1000
0000
0010
0000
0100
0000
,
0100
0000
0000
0001
0000
0000
0100
0000
0000
0000
0100
0000
0001
0000
0010
0000
,
0100
0000
0000
1000
0000
0000
0100
0000
0000
0000
1000
0000
0010
0000
1000
0000
,
0100
0000
0000
1000
0000
0000
0010
0000
0100
0000
0010
0000
0100
0000
0000
0000
,
0001
0000
0000
0010
0000
0000
0001
0000
0000
0000
0100
0000
0010
0000
0100
0000
,
0001
0000
0000
0100
0000
0000
1000
0000
0000
0000
0100
0000
0001
0000
0100
0000
,
0010
0000
0000
0100
0000
0000
1000
0000
0000
0000
0100
0000
0001
0000
0010
0000
,
0100
1000
0010
0100
0010
0000
0110
0000
,
1002
0000
0000
1000
0000
1000
0000
0000
0203
0000
0000
0010
0000
0010
0000
0000
,
2300
0000
0000
0001
0000
0001
0000
0000
3020
0000
0000
0100
0000
0100
0000
0000
,
2030
0000
0000
0001
0000
0001
0000
0000
3020
0000
0000
0100
0000
0100
0000
0000
,
0032
0000
0000
0010
0000
0010
0000
0000
0203
0000
0000
1000
0000
1000
0000
0000
,
0310
0000
0000
0100
0000
0001
0000
0000
0010
0000
0000
0001
0000
0100
0000
0000
,
0010
0000
0000
1000
0000
0100
0000
0000
1000
0000
0000
0010
0000
0100
0000
0000
,
0001
0000
0000
0100
0000
0001
0000
0010
0001
0000
0000
0010
0000
1000
0000
0100
,
1000
0000
0000
0010
0000
0100
0000
0001
0100
0000
0000
0010
0000
1000
0000
0000
,
0200
1000
0010
0001
,
1000
0001
1000
0300
,
0020
1000
0100
1000
,
0001
0100
0100
0030
,
0002
1000
0010
0100
,
0010
0010
0100
0003
,
1000
1000
0001
0001
,
0110
1010
0101
1001
,
1010
0000
0000
1000
0000
1000
0000
0000
0101
0000
0000
0100
0000
0100
0000
0000
,
0010
0000
0000
1000
0000
0000
0100
0000
1000
0000
1000
0000
0001
0000
0000
0000
,
0100
0000
0000
0100
0000
0000
0010
0000
0010
0000
0000
0010
0000
0000
0100
0000
,
0010
0000
0000
1000
0000
0000
0100
0000
1000
0000
1000
0000
0010
0000
0100
0000
,
0001
0000
0000
0001
0000
0010
0000
0000
0001
0000
0000
0001
0000
0010
0000
0000
,
0001
0000
0000
0100
0000
0000
0010
0000
0100
0000
0100
0000
0110
0000
0000
0000
,
0010
0000
0000
1000
0000
0000
0100
0000
0010
0000
0000
1000
0000
0000
0100
0000
,
0010
0000
0000
0001
0000
0000
0100
0000
0010
0000
0010
0000
0100
0000
0001
0000
,
0010
0000
0000
0001
0000
0001
0000
0000
0010
0000
0000
0001
0000
0001
0000
0000
,
0100
0000
0000
0010
0000
0000
1000
0000
1100
0000
0000
0000
0011
0000
0000
0000
,
0110
0000
0000
0100
0000
0000
0100
0000
0110
0000
0000
0010
0000
0000
0010
0000
,
0010
0000
0000
1000
0000
0000
0100
0000
1000
0000
0010
0000
0001
0000
0010
0000
,
1000
0000
0000
0100
0000
1100
0000
0000
0010
0000
0000
0001
0000
0011
0000
0000
,
0001
0000
0000
0100
0000
0000
0010
0000
1000
0000
0100
0000
1000
0000
0000
0000
,
0010
0000
0000
0100
0000
0000
0101
0000
0010
0000
0000
1000
0000
0000
1010
0000
,
0200
0000
0000
0000
0010
0010
0310
0000
,
1000
0000
0000
0100
0000
1100
0000
0000
1000
0000
0000
0100
0000
1100
0000
0000
,
0010
0000
0000
0001
0000
0100
0000
0000
0010
0000
0010
0000
0110
0000
0000
0000
,
0100
0000
0000
0001
0000
0010
0000
0000
0100
0000
0000
0001
0000
0000
0010
0000
,
0001
0100
0010
1000
0001
1000
1000
0000
,
0001
0000
0000
0001
0000
0100
0000
0000
0001
0000
0000
0001
0000
0100
0000
0000
,
0010
1000
0100
1000
0010
0010
0100
0000
,
0100
0000
0000
0001
0000
0010
0000
0000
0100
0000
0000
0001
0000
0010
0000
0000
,
0001
0000
0000
0001
0000
0000
0001
0000
0010
0000
0001
0000
1000
0000
1000
0000
,
0010
0000
0000
0010
0000
0000
0000
0000
0010
0000
0000
0010
0000
0000
0000
0000
,
1000
0000
0000
1000
0000
0000
0000
0000
1000
0000
0000
1000
0000
0000
0000
0000
,
0001
0000
0000
0001
0000
0000
0000
0000
0001
0000
0000
0001
0000
0000
0000
0000
,
0100
0000
0000
0100
0000
0110
0000
0000
0010
0000
0000
0010
0000
0110
0000
0000
;

//---------------dance-single - ----------------
#NOTES:
     dance-single:
     :
     Easy:
     4:
     0.255734,0.353884,0.140891,0.140891,0.000000,216.000000,199.000000,17.000000,17.000000,0.000000,0.000000,0.255734,0.353884,0.140891,0.140891,0.000000,216.000000,199.000000,17.000000,17.000000,0.000000,0.000000:
0000
0000
0000
0000
,
0000
0000
0000
0000
,
0000
0000
0000
0000
,
0000
0000
0000
0000
,
0000
0000
0000
0000
,
1000
1000
0001
0001
,
1000
1000
0001
0001
,
0100
0010
0100
0010
0100
0010
0100
0010
,
0220
0000
0000
0330
,
0010
0000
0000
0000
,
0001
0000
0000
0000
,
0001
0000
0000
0000
,
1010
0000
0100
0000
,
0010
0000
0000
0000
,
1000
0000
0000
0000
,
0100
0000
0010
0000
,
0001
0000
0000
0000
0100
0001
0100
0000
,
0200
0000
0310
0000
,
0020
0000
1030
0000
,
2000
0000
3100
0100
,
0020
0000
0031
0001
,
0002
0000
0103
0000
,
0200
0000
0301
0000
,
0001
0010
0100
0000
,
1000
0100
1000
0000
,
0010
0010
0100
0100
,
0010
0100
0010
0000
,
1000
0100
1000
1000
,
0001
0100
0010
0000
,
0010
1000
0100
1000
,
0001
0001
1000
0000
,
0010
0100
0001
0010
,
0011
0101
1010
1100
,
0010
0100
0010
1000
,
0100
0000
1000
0000
0010
0100
0001
0000
,
0010
0010
0001
0001
,
0100
0010
1000
0000
0100
0000
0100
0000
,
1000
0010
1000
0010
,
0010
0100
0001
0000
0011
0000
1100
0000
,
0010
0100
0010
0100
,
0100
0000
0100
0000
0001
0010
0001
0000
,
0001
1000
0001
1000
,
0010
0000
0100
0000
0001
0010
0001
0000
,
0100
0010
1000
0100
,
1000
0000
1000
0000
0010
1000
0010
0000
,
0100
0100
0010
0010
,
1000
0000
0100
0000
0010
0001
0100
0000
,
0001
0001
1000
1000
,
0220
0000
0000
0030
0010
0010
0310
0000
,
0010
1000
0100
1000
,
0010
0100
0001
0000
0010
0000
0011
0000
,
0010
0001
1000
1000
,
0001
0000
0101
0000
0010
0010
1010
0000
,
1000
0100
0100
0000
1000
0100
0100
0000
,
1000
1000
0001
0101
,
0100
0010
0100
0010
,
2020
0000
0000
3030
0010
0010
0010
0000
,
0020
0000
0230
0000
,
0302
0000
0023
0000
,
0230
1000
1000
1300
,
0010
1010
0100
0101
,
1001
0000
0000
0000
;

//---------------dance-single - ----------------
#NOTES:
     dance-single:
     :
     Beginner:
     2:
     0.133787,0.176942,0.024863,0.058014,0.000000,113.000000,110.000000,3.000000,7.000000,0.000000,0.000000,0.133787,0.176942,0.024863,0.058014,0.000000,113.000000,110.000000,3.000000,7.000000,0.000000,0.000000:
// measure 0
0000
0000
0000
0000
,  // measure 1
0000
0000
0000
0000
,  // measure 2
0000
0000
0000
0000
,  // measure 3
0000
0000
0000
0000
,  // measure 4
0000
0000
0000
0000
,  // measure 5
1000
0000
0000
0000
,  // measure 6
1000
0000
0000
0000
,  // measure 7
0001
0000
0000
0000
,  // measure 8
0002
0000
0000
0003
,  // measure 9
0100
0000
0000
0000
,  // measure 10
0010
0000
0000
0000
,  // measure 11
1000
0000
0000
0000
,  // measure 12
0100
0000
0000
0000
,  // measure 13
1000
0000
0000
0000
,  // measure 14
0001
0000
0000
0000
,  // measure 15
0100
0000
0000
0000
,  // measure 16
0000
0000
0000
0000
,  // measure 17
0010
0000
0010
0000
,  // measure 18
1000
0000
1000
0000
,  // measure 19
0100
0000
1000
0000
,  // measure 20
0001
0001
0001
0000
,  // measure 21
0100
0000
0010
0000
,  // measure 22
1000
0000
0100
0000
,  // measure 23
1000
0000
0010
0000
,  // measure 24
0100
0000
0010
0010
,  // measure 25
0010
0000
1000
0000
,  // measure 26
0100
0000
1000
0000
,  // measure 27
0001
0000
0100
0000
,  // measure 28
0010
0000
1000
0000
,  // measure 29
0100
0000
1000
0000
,  // measure 30
0001
0000
0100
0000
,  // measure 31
0010
0000
0100
0000
,  // measure 32
0220
0000
0000
0330
,  // measure 33
0010
0010
0010
0010
,  // measure 34
0100
0000
1000
0000
,  // measure 35
0001
0001
0001
0001
,  // measure 36
1000
0000
0001
0000
,  // measure 37
1000
1000
1000
1000
,  // measure 38
0100
0000
0001
0000
,  // measure 39
0100
0100
0100
0100
,  // measure 40
0001
0000
0001
0000
,  // measure 41
0100
0000
0010
0000
,  // measure 42
0100
0100
0100
0000
,  // measure 43
0010
0000
1000
0000
,  // measure 44
0100
0100
0100
0000
,  // measure 45
1000
0000
0001
0000
,  // measure 46
0100
0100
0100
0000
,  // measure 47
0010
0000
0100
0000
,  // measure 48
0002
0000
0000
0000
0000
0000
0000
0003
,  // measure 49
0010
0000
0010
0000
,  // measure 50
0001
0000
0010
0000
,  // measure 51
0100
0000
0100
0000
,  // measure 52
1000
0000
0010
0000
,  // measure 53
1000
0000
1000
0000
,  // measure 54
0001
0000
0001
0000
,  // measure 55
0100
0000
0100
0000
,  // measure 56
0020
0000
0000
0000
0100
0000
0100
0030
,  // measure 57
0020
0000
0000
0030
,  // measure 58
2000
0000
0000
3000
,  // measure 59
0001
0000
0100
0000
,  // measure 60
0010
0000
1010
0000
,  // measure 61
1001
0000
0000
0000
;
