#TITLE:PANINARO '95;
#SUBTITLE:;
#ARTIST:PET SHOP BOYS;
#TITLETRANSLIT:;
#SUBTITLETRANSLIT:;
#ARTISTTRANSLIT:;
#CREDIT:;
#BANNER:[Mighty No. 9] - PANINARO '95.png;
#BACKGROUND:[Mighty No. 9] - PANINARO '95-bg.png;
#LYRICSPATH:;
#CDTITLE:cdtitle.png;
#MUSIC:[Mighty No. 9] - PANINARO '95.mp3;
#OFFSET:-0.032;
#SAMPLESTART:15.391;
#SAMPLELENGTH:14.087;
#SELECTABLE:YES;
#BPMS:0.000=123.761;
#STOPS:;
#BGCHANGES:;

//---------------dance-single - ----------------
#NOTES:
     dance-single:
     :
     Hard:
     7:
     0.348,0.511,0.038,0.038,0.067:
0000
0000
0000
0000
,
0000
0000
0000
0000
,
0000
0000
0000
0000
,
2000
0000
0000
0000
,
3001
0010
0001
0010
0001
0000
0001
0000
,
1000
0100
1000
0100
1000
0000
1000
0000
,
0010
1000
0010
1000
0010
0000
0010
0000
,
1000
0001
1000
0001
1000
0000
1000
0000
,
0001
0010
0100
0000
0100
1000
0100
0000
,
0010
0001
0010
0000
0001
0100
0001
0000
,
1000
0100
1000
0000
0001
0010
0001
0000
,
1000
0001
1000
0000
1001
0000
0000
0000
,
0001
0010
0000
0010
0000
0010
0000
0010
,
0000
0001
0000
0001
0000
0001
0000
0001
,
0000
1000
0000
1000
0000
0010
0000
0010
,
0000
0100
0000
0100
0000
0100
0000
0100
,
0001
0010
0001
0000
0100
0001
0100
0000
,
1000
0100
1000
0000
0010
1000
0010
0000
,
0001
0010
0001
0000
1000
0010
1000
0000
,
0010
0100
0010
0000
0100
0010
0100
0000
,
0001
0010
0000
0010
0000
0010
0000
0010
,
0000
0001
0000
0001
0000
0001
0000
0001
,
1000
0010
0000
0010
0000
0100
0000
0100
,
0000
0001
0000
0001
0000
0001
0000
0001
,
1000
0000
0100
0000
,
0010
0000
0000
0000
,
1000
0000
0100
0000
,
0010
0000
0000
0000
,
0001
0000
0100
0001
0000
0100
0001
0000
1000
0000
0100
1000
0000
0100
1000
0000
,
0001
0000
0100
0001
0000
0100
0001
0000
1000
0000
0010
1000
0000
0010
1000
0000
,
0001
0000
0010
0001
0000
0010
0001
0000
1000
0000
0010
1000
0000
0010
1000
0000
,
0001
0000
0010
0001
0000
0010
0001
0000
2000
0000
0000
0000
0000
0000
0000
0000
,
0000
3001
0000
0010
0000
0001
0000
1000
,
0000
0100
0000
1000
0000
0001
0000
1000
,
0000
0010
0000
0100
0000
0001
0000
0010
,
0000
0001
0000
1000
0000
0010
0000
1000
,
0001
0010
0000
1000
0001
0010
0000
1000
,
0000
1000
0000
1000
0001
0010
0000
0000
,
0010
0100
0000
1000
0000
0100
0000
0010
,
0000
0001
0000
0100
0000
0001
0000
0100
,
0010
0010
1000
0000
0001
0001
0100
0000
,
0001
0001
0010
0010
0100
0100
1000
0000
,
0010
1000
0010
0100
0001
0010
0001
0000
,
1000
1000
0100
0100
0010
0010
0001
0000
,
1100
0000
1100
0000
0001
0010
0001
0000
,
0001
0001
1000
1000
0010
0100
0000
0000
,
0001
0010
0010
0000
0001
0010
0100
0000
,
1000
0010
0100
0010
1000
0001
0001
0000
,
1000
0010
1000
0001
1000
0000
0100
0100
,
0010
0001
0010
0100
1000
0000
2002
0000
,
0000
0000
0000
0000
,
3003
0000
0000
0000
;

//---------------dance-single - ----------------
#NOTES:
     dance-single:
     :
     Medium:
     5:
     0.307,0.341,0.191,0.029,0.000:
0000
0000
0000
0000
,
0000
0000
0000
0000
,
0000
0000
0000
0000
,
0002
0000
0000
0000
,
1003
0100
1000
0000
0001
0000
1000
0000
,
0001
0010
0001
0000
0100
0000
0100
0000
,
0010
0100
0010
0000
1000
0000
0001
0000
,
0010
0001
0010
0000
0001
0000
0100
0000
,
1010
0100
1100
0010
,
1001
0100
1010
0001
,
0011
1000
1001
0010
,
0101
1000
0011
0000
,
1000
0100
1000
0000
0001
0000
0001
0000
,
0010
0001
0010
0000
0100
0000
0100
0000
,
1000
0010
1000
0000
0001
0000
0001
0000
,
0100
0100
0100
0100
,
1001
0100
1001
0100
,
1001
0100
1001
0000
,
0110
1000
0110
0001
,
0110
1000
0110
0000
,
0001
0010
0001
0000
0100
0000
0100
0000
,
0010
1000
0010
0000
1000
0000
1000
0000
,
0001
0010
0100
0000
1000
0000
1000
0000
,
0001
1000
0001
0000
1000
0000
1000
0000
,
0001
0000
0001
0000
,
0001
0000
0000
0000
,
1000
0000
1000
0000
,
1000
0000
0000
0000
,
0001
0001
0000
0000
0001
0001
0000
0000
,
0001
0001
0000
0000
0000
0000
0000
0000
,
0001
0001
0000
0000
0000
1000
1000
0000
,
0000
0000
0000
0100
0100
0000
0100
0000
,
1000
0001
1000
0000
0010
0000
0100
0000
,
0001
0100
0001
0000
1000
0000
0010
0000
,
1000
0100
1000
0000
0100
0000
0010
0000
,
0001
1000
0001
0000
0100
0000
0000
0010
,
1010
0000
0000
0010
1010
0000
0000
0001
,
0000
0001
0000
0001
0101
0000
0000
0000
,
1000
1000
0100
0100
,
0010
0001
0010
0001
0010
0000
0000
0000
,
0001
0010
0001
0000
1000
0100
1000
0000
,
0001
0010
0001
0000
1000
0010
1000
0000
,
0001
0010
0001
0000
1000
0100
1000
0000
,
0001
0100
0001
0000
0001
1000
0001
0000
,
1000
0010
1000
0000
0001
1000
0001
0000
,
0100
0001
0100
0001
0100
0001
0000
0000
,
1000
0001
1000
0000
0010
0000
1000
0000
,
0001
0010
0100
1000
0100
0010
0001
0000
,
1000
0010
1000
0000
0010
0000
0100
0000
,
0001
0010
0001
0000
0010
0000
2200
0000
,
0000
0000
0000
0000
,
3300
0000
0000
0000
;

//---------------dance-single - ----------------
#NOTES:
     dance-single:
     :
     Easy:
     3:
     0.207,0.243,0.095,0.029,0.000:
0000
0000
0000
0000
,
0000
0000
0000
0000
,
0000
0000
0000
0000
,
2000
0000
0000
0000
,
3001
0010
0100
1000
,
0010
1000
0001
0100
,
0010
1000
0001
0010
,
0100
1000
0001
0100
,
0010
0000
1001
0000
,
0010
0000
1001
0000
,
0001
0000
0110
0000
,
1000
0000
0110
0000
,
0001
0010
0001
0001
,
1000
0010
0100
0100
,
0001
0010
0100
1000
,
0100
0010
0001
0001
,
1000
0000
0010
0000
,
0001
0000
0100
0000
,
1000
0000
0010
0000
,
0001
0000
0100
0000
,
1000
0010
1000
1000
,
0001
0010
0100
0100
,
1000
0001
0100
0010
,
1000
0100
0010
0000
,
0001
0000
0010
0000
,
0100
0000
0000
0000
,
0001
0000
0010
0000
,
0100
0000
0000
0000
,
1001
0000
1001
0000
,
1001
0000
0000
0000
,
1001
0000
0000
0000
,
1000
0000
0000
0000
,
0010
0010
1000
1000
,
0100
0100
0010
0010
,
0001
0001
1000
1000
,
0010
0010
0100
0100
,
0001
0010
1000
0100
,
0001
0010
1000
0000
,
0010
0000
0001
0000
,
0100
0000
0000
0000
,
0010
1000
0100
0100
,
0010
0001
0100
0100
,
0010
1000
0001
0001
,
0010
0100
1000
1000
,
0001
0001
0010
0010
,
0100
0100
1000
0000
,
0010
1000
0001
0010
,
0100
1000
0100
0010
,
1001
0000
0010
1000
,
0100
0010
0001
0022
,
0000
0000
0000
0000
,
0033
0000
0000
0000
;

//---------------dance-single - ----------------
#NOTES:
     dance-single:
     :
     Beginner:
     1:
     0.090,0.119,0.019,0.000,0.000: // measure 1
0000
0000
0000
0000
,  // measure 2
0000
0000
0000
0000
,  // measure 3
0000
0000
0000
0000
,  // measure 4
1001
0000
0000
0000
,  // measure 5
0001
0000
0000
0000
,  // measure 6
1000
0000
0000
0000
,  // measure 7
0010
0000
0000
0000
,  // measure 8
0010
0000
0000
0000
,  // measure 9
0001
0000
0001
0000
,  // measure 10
0001
0000
0001
0000
,  // measure 11
1000
0000
1000
0000
,  // measure 12
1000
0000
1000
0000
,  // measure 13
0010
0000
0000
0000
,  // measure 14
0000
0000
0000
0000
,  // measure 15
0010
0000
0010
0000
,  // measure 16
0010
0000
0000
0000
,  // measure 17
0100
0000
0100
0000
,  // measure 18
0100
0000
0100
0000
,  // measure 19
0010
0000
0010
0000
,  // measure 20
0010
0000
0010
0000
,  // measure 21
0010
0000
0000
0000
,  // measure 22
0000
0000
0000
0000
,  // measure 23
1000
0000
1000
0000
,  // measure 24
1000
0000
0000
0000
,  // measure 25
0010
0000
0010
0000
,  // measure 26
0010
0000
0000
0000
,  // measure 27
0010
0000
0010
0000
,  // measure 28
0010
0000
0000
0000
,  // measure 29
1000
0000
1000
0000
,  // measure 30
1000
0000
0000
0000
,  // measure 31
0001
0000
0000
0000
,  // measure 32
0000
0000
0000
0000
,  // measure 33
0001
0000
0000
0000
,  // measure 34
1000
0000
0000
0000
,  // measure 35
0001
0000
0000
0000
,  // measure 36
0010
0000
0000
0000
,  // measure 37
0100
0000
0100
0000
,  // measure 38
0100
0100
0100
0000
,  // measure 39
0000
0000
0000
0000
,  // measure 40
0001
0000
0000
0000
,  // measure 41
1000
0000
0000
0000
,  // measure 42
0010
0010
0010
0000
,  // measure 43
0010
0000
0000
0000
,  // measure 44
1000
0000
1000
0000
,  // measure 45
1000
0000
0000
0000
,  // measure 46
0001
0000
0000
0000
,  // measure 47
0010
0000
0010
0000
,  // measure 48
0010
0000
0000
0000
,  // measure 49
0100
0000
0000
0000
,  // measure 50
0100
0000
0000
1001
;
