#VERSION:0.83;
#TITLE:Otenba So ⑨te!;
#SUBTITLE:;
#ARTIST:t+pazolite ft. リズナ;
#TITLETRANSLIT:;
#SUBTITLETRANSLIT:;
#ARTISTTRANSLIT:;
#GENRE:;
#ORIGIN:;
#CREDIT:;
#BANNER:otenba-bn.png;
#BACKGROUND:otenba-bg.png;
#PREVIEWVID:;
#JACKET:otenba-jacket.png;
#CDIMAGE:;
#DISCIMAGE:;
#LYRICSPATH:;
#CDTITLE:;
#MUSIC:otenba.ogg;
#OFFSET:0.000000;
#SAMPLESTART:41.133999;
#SAMPLELENGTH:9.143000;
#SELECTABLE:YES;
#BPMS:0.000=210.000;
#STOPS:;
#DELAYS:;
#WARPS:;
#TIMESIGNATURES:0.000=4=4;
#TICKCOUNTS:0.000=4;
#COMBOS:0.000=1;
#SPEEDS:0.000=1.000=0.000=0;
#SCROLLS:0.000=1.000;
#FAKES:;
#LABELS:0.000=Song Start;
#BGCHANGES:;
#KEYSOUNDS:;
#ATTACKS:
;

//---------------dance-single - ----------------
#NOTEDATA:;
#CHARTNAME:;
#STEPSTYPE:dance-single;
#DESCRIPTION:;
#CHARTSTYLE:;
#DIFFICULTY:Beginner;
#METER:2;
#RADARVALUES:0.113764,0.172543,0.039326,0.000000,0.000000,81.000000,77.000000,4.000000,0.000000,0.000000,0.000000,0.000000,0.000000,0.000000,0.113764,0.172543,0.039326,0.000000,0.000000,81.000000,77.000000,4.000000,0.000000,0.000000,0.000000,0.000000,0.000000,0.000000;
#CREDIT:Mu-box;
#NOTES:
0000
0000
0000
0000
,
1000
0000
0000
0000
,
0000
0000
0000
0000
,
0001
0000
0000
0000
,
0000
0000
0000
0000
,
0100
0000
0000
0000
,
0000
0000
0000
0000
,
0010
0000
0000
0000
,
0000
0000
0000
0000
,
0100
0000
0000
0000
,
0001
0000
0000
0000
,
1000
0000
0000
0000
,
0100
0000
0000
0000
,
1000
0000
0000
0000
,
0001
0000
0000
0000
,
1000
0000
0001
0000
,
1000
0000
0000
0000
,
0001
0000
0000
0000
,
0100
0000
0000
0000
,
0010
0000
0000
0000
,
1000
0000
0000
0000
,
0001
0000
1000
0000
,
0001
0000
0000
0000
,
0100
0000
0010
0000
,
0100
0000
0000
0000
,
0001
0000
0000
0000
,
0001
0000
0000
0000
,
1000
0000
0000
0000
,
1000
0000
0000
0000
,
0010
0000
0000
0000
,
0010
0000
0000
0000
,
0100
0000
0000
0000
,
0000
0000
0000
0000
,
0010
0000
0000
0000
,
0000
0000
0000
0000
,
0001
0000
0000
0000
,
1001
0000
0000
0000
,
1000
0000
0000
0000
,
0100
0000
0000
0000
,
1000
0000
0000
0000
,
0010
0000
0000
0000
,
0100
0000
0000
0000
,
0001
0000
0000
0000
,
1000
0000
0000
0000
,
0001
0000
0000
0000
,
0100
0000
0000
0000
,
0010
0000
0000
0000
,
1000
0000
0000
0000
,
0100
0000
0000
0000
,
1000
0000
0000
0000
,
0010
0000
0000
0000
,
0100
0000
0000
0000
,
0001
0000
0000
0000
,
0000
0000
0000
0000
,
1001
0000
0000
0000
,
0000
0000
0000
0000
,
1000
0000
0000
0000
,
0000
0000
0000
0000
,
0001
0000
0000
0000
,
0000
0000
0000
0000
,
0100
0000
0000
0000
,
0010
0000
0000
0000
,
0100
0000
0000
0000
,
0000
0000
0000
0000
,
0001
0000
0000
0000
,
0000
0000
0000
0000
,
1000
0000
0000
0000
,
0000
0000
0000
0000
,
0001
0000
0000
0000
,
1000
0000
0000
0000
,
1001
0000
0000
0000
,
0001
0000
0000
0000
,
0100
0000
0000
0000
,
0001
0000
0000
0000
,
1000
0000
0000
0000
,
0100
0000
0000
0000
,
1000
0000
0000
0000
,
0010
0000
0000
0000
,
0100
0000
0000
0000
,
0100
0000
0000
0000
,
0001
0000
0000
0000
,
0010
0000
0000
0000
,
0100
0000
0000
0000
,
1000
0000
0000
0000
,
0010
0000
0000
0000
,
0100
0000
0000
0000
,
0001
0000
0000
0000
,
0000
0000
0000
1001
;

//---------------dance-single - ----------------
#NOTEDATA:;
#CHARTNAME:;
#STEPSTYPE:dance-single;
#DESCRIPTION:;
#CHARTSTYLE:;
#DIFFICULTY:Easy;
#METER:6;
#RADARVALUES:0.408709,0.560763,0.206461,0.000000,0.000000,291.000000,270.000000,21.000000,0.000000,0.000000,0.000000,0.000000,0.000000,0.000000,0.408709,0.560763,0.206461,0.000000,0.000000,291.000000,270.000000,21.000000,0.000000,0.000000,0.000000,0.000000,0.000000,0.000000;
#CREDIT:Mu-box;
#NOTES:
0000
0000
0000
0000
,
1000
0010
1000
0001
,
0010
0100
1000
0100
,
0010
0001
0100
0001
,
1000
0010
0100
0001
,
0100
0010
0100
0010
,
1000
0100
0010
0001
,
0010
0100
0010
0100
,
1000
0010
0100
0001
,
1000
0000
0000
0000
,
0001
0000
0000
0000
,
0100
0000
0000
0000
,
0010
0000
0000
0000
,
0100
0000
0001
0000
,
1000
0100
0010
0001
,
0100
0000
0010
0000
,
0100
0000
0110
0000
,
1001
0000
1000
0010
,
0100
0000
0000
0001
,
0010
0000
0001
0100
,
0010
0000
0000
1000
,
0100
0000
1000
0000
,
0001
0010
0100
1000
,
0010
0000
0100
0000
,
0001
0000
0110
0000
,
1000
0100
1000
0100
,
1000
0010
1000
0010
,
1000
0001
1000
0001
,
0010
0100
0010
0001
,
0100
0001
0100
0001
,
1000
0001
1000
0001
,
0010
0100
0010
0100
,
0010
0100
0010
0100
,
1000
0001
1000
0001
,
1000
0001
1000
0001
,
1001
0000
0000
0000
,
1001
0001
0100
0001
,
0010
0100
0010
0001
,
1000
0010
1000
0010
,
1000
0010
0100
0001
,
0010
0100
0010
0100
,
0010
0001
1000
0010
,
0110
0000
0000
0000
,
0100
0000
0001
0000
,
1000
0001
0010
0100
,
0010
0100
1000
0010
,
0100
0010
1000
0001
,
0001
0010
0100
0010
,
0001
0100
0010
1000
,
0100
0000
0000
1000
0000
0000
0001
0000
,
1001
0000
0000
0000
,
0001
0000
0000
0100
0000
0010
0000
1000
,
0001
0000
0000
0000
,
0000
0000
0000
0000
,
1001
0000
0000
0001
0000
0100
0000
0000
,
0101
0000
0000
0100
0000
0010
0000
0000
,
1010
0000
0000
1000
0000
0100
0000
0000
,
1100
0000
0000
1000
0000
0001
0000
0000
,
0011
0000
0000
0001
0000
1000
0000
0000
,
1001
0000
0000
1000
0000
0010
0000
0000
,
0110
0000
0100
0000
0000
0001
0000
0000
,
1000
0010
0100
0001
,
1000
0000
0000
1000
0000
0100
0000
0000
,
1000
0000
0000
0010
0000
0100
0000
0000
,
0001
0000
0000
0010
0000
0001
0000
0000
,
0100
0000
0000
0010
0000
1000
0000
0000
,
0100
0000
0000
1000
0000
0001
0000
0000
,
0100
0000
0000
0001
0000
1000
0000
0000
,
0010
0000
0100
0000
0000
0010
0000
0000
,
1000
0000
0000
0000
,
1001
1000
0010
1000
,
0100
0010
0100
1000
,
0001
0100
0001
0100
,
0001
0100
0010
1000
,
0100
0010
0100
0010
,
0100
1000
0001
0100
,
0110
0000
0000
0000
,
0010
0000
1000
0000
,
0001
1000
0100
0000
,
0100
0010
0001
0100
,
0010
0100
0001
0000
,
1000
0100
0010
0100
,
1000
0010
0100
0000
,
0001
0000
0000
1000
0000
0000
0001
0000
,
1001
0000
0000
0000
,
1000
0000
0000
0001
0000
0100
0000
0010
,
1000
0110
1001
0110
,
1000
0001
0100
0110
;

//---------------dance-single - ----------------
#NOTEDATA:;
#CHARTNAME:;
#STEPSTYPE:dance-single;
#DESCRIPTION:;
#CHARTSTYLE:;
#DIFFICULTY:Medium;
#METER:8;
#RADARVALUES:0.637642,0.690170,0.668541,0.255619,0.009831,454.000000,386.000000,68.000000,26.000000,0.000000,0.000000,0.000000,0.000000,0.000000,0.637642,0.690170,0.668541,0.255619,0.009831,454.000000,386.000000,68.000000,26.000000,0.000000,0.000000,0.000000,0.000000,0.000000;
#CREDIT:Mu-box;
#NOTES:
0000
0000
0000
0000
,
1000
0000
0100
0000
1000
0000
0001
0010
,
0000
0001
0100
0000
0001
0000
1000
0000
,
0010
0000
1000
0000
0100
0000
1000
0010
,
0000
1000
0100
0000
1000
0000
0001
0000
,
1000
0000
0100
0000
0010
0000
0100
0001
,
0000
0100
1000
0000
0010
0000
0100
0000
,
0001
0000
0010
0000
0100
0000
0010
1000
,
0000
0010
0001
0000
1000
0000
0010
0000
,
0100
0000
0001
0000
0000
0100
0000
0000
,
0001
0000
1000
0000
0000
0100
0000
0000
,
1000
0000
0100
0000
0000
0010
0000
0000
,
0100
0000
0010
0000
0000
0001
0000
0000
,
1000
0000
0010
0000
0000
1000
0000
0000
,
0001
0000
0100
0000
0000
0010
0000
0000
,
1000
0000
0100
0000
0000
1000
0000
0000
,
0001
0000
0010
0000
0000
0001
0000
0000
,
1000
0000
0010
0000
0100
0001
1000
0000
,
0001
0000
0010
0000
0100
1000
0001
0000
,
1000
0000
0010
0000
0100
0001
1000
0000
,
0001
0000
0010
0000
0100
1000
0001
0000
,
0100
0000
0001
0000
0010
0001
1000
0000
,
0100
0000
1000
0000
0010
1000
0001
0000
,
0100
0000
0001
0000
1000
0100
0010
0000
,
0001
0000
0100
0000
0001
1000
0010
0000
,
2000
3100
2000
3001
,
0020
0031
0200
0310
,
2000
3100
0020
0031
,
0002
0103
0020
1030
,
0002
0013
0002
0103
,
0020
1030
0200
0310
,
0200
1300
0200
0310
,
0200
1300
0020
0130
,
0002
0013
0200
0310
,
0200
1300
0020
0130
,
1001
0000
0000
0000
,
1001
0000
0001
1000
0100
0000
1100
0000
,
0011
0000
0010
0001
0100
0000
0101
0000
,
1010
0000
0010
1000
0100
0000
1100
0000
,
0011
0000
0010
0001
0100
0000
0101
0000
,
1010
0000
0010
0100
0001
0000
0011
0000
,
1100
0000
0100
1000
0010
0000
1010
0000
,
0101
0000
0001
0010
0100
0000
1100
0000
,
1001
0000
1000
0001
0100
0000
0110
0000
,
1001
0000
0001
1000
0010
0000
1010
0000
,
0101
0000
0100
0001
0010
0000
0011
0000
,
1100
0000
0100
1000
0010
0000
1010
0000
,
0101
0000
0001
0010
0100
0000
1100
0000
,
1001
0000
0001
0100
0010
0000
0110
0000
,
1010
0000
0010
1000
0100
0000
0110
0000
,
0011
0000
0010
0001
0100
0000
0110
0000
,
1010
0000
1000
0001
0100
0000
0010
0000
,
0100
0000
0000
0000
,
0002
0000
0000
2003
0000
0000
3200
0000
0000
0320
0000
0000
0230
0000
2300
0000
,
3001
0000
1000
0100
0000
1000
0000
0010
,
0000
1000
0000
0001
0010
0000
0001
0000
,
0100
0000
0001
0100
0000
0001
0000
1000
,
0000
0100
0000
1000
0100
0000
1000
0000
,
0001
0000
0100
0001
0000
1000
0000
0010
,
0000
1000
0000
0001
0000
0010
0100
0000
,
0010
0000
0001
0100
0000
0010
0000
1000
,
0100
1000
0010
0100
,
0001
0000
0010
0100
0000
0010
0000
0001
,
0000
1000
0000
0010
0100
0000
0010
0000
,
1000
0000
0100
0010
0000
0100
0000
1000
,
0000
0001
0000
0100
0000
0010
0100
0000
,
0001
0000
1000
0100
0000
1000
0000
0010
,
0000
0100
0001
0000
0010
0000
0100
0000
,
0010
0000
0001
0100
0000
0010
0000
1000
,
0001
0000
0000
0100
,
1001
0000
1000
0001
0010
0000
0011
0000
,
1100
0000
0100
1000
0010
0000
1010
0000
,
0101
0000
0100
0001
0010
0000
0011
0000
,
1100
0000
0100
1000
0010
0000
1010
0000
,
0101
0000
0100
0010
1000
0000
1100
0000
,
0011
0000
0010
0001
0100
0000
0101
0000
,
1010
0000
1000
0100
0010
0000
0011
0000
,
1001
0000
0001
1000
0010
0000
0110
0000
,
1001
0000
1000
0001
0100
0000
0101
0000
,
1010
0000
0010
1000
0100
0000
1100
0000
,
0011
0000
0010
0001
0100
0000
0101
0000
,
1010
0000
1000
0100
0010
0000
0011
0000
,
1001
0000
1000
0010
0100
0000
0110
0000
,
0101
0000
0100
0001
0010
0000
0110
0000
,
1100
0000
0100
1000
0010
0000
0110
0000
,
0101
0000
0001
1000
0010
0000
0100
0000
,
1001
0110
1001
0110
,
0010
1000
0001
1001
;

//---------------dance-single - ----------------
#NOTEDATA:;
#CHARTNAME:Mu-box;
#STEPSTYPE:dance-single;
#DESCRIPTION:;
#CHARTSTYLE:;
#DIFFICULTY:Hard;
#METER:9;
#RADARVALUES:0.669946,0.733306,0.393260,0.717699,0.014747,477.000000,437.000000,40.000000,73.000000,2.000000,0.000000,0.000000,0.000000,0.000000,0.669946,0.733306,0.393260,0.717699,0.014747,477.000000,437.000000,40.000000,73.000000,2.000000,0.000000,0.000000,0.000000,0.000000;
#CREDIT:Mu-box;
#NOTES:
// measure 0
0000
0000
0000
0000
,  // measure 1
1001
0000
0011
0000
0101
0000
0001
0010
,  // measure 2
0000
0100
1000
0000
0010
0000
0100
0000
,  // measure 3
1001
0000
1100
0000
1010
0000
1000
0010
,  // measure 4
0000
0100
0001
0000
0010
0000
0100
0000
,  // measure 5
1001
0000
0101
0000
0011
0000
0010
1000
,  // measure 6
0000
0010
0001
0000
0100
0000
0010
0000
,  // measure 7
1001
0000
1010
0000
1100
0000
0100
0001
,  // measure 8
0000
0100
1000
0000
0010
0000
0100
0000
,  // measure 9
0002
0000
0003
0001
0100
0010
1000
0200
,  // measure 10
0000
0000
0000
0000
0000
0310
0001
0010
,  // measure 11
0200
0000
0000
2300
0000
3010
0100
0001
,  // measure 12
0020
0000
0000
0032
,  // measure 13
0203
0000
0300
0100
0020
0000
0030
0010
,  // measure 14
2000
3200
0320
0230
,  // measure 15
1300
0010
0100
0001
0010
0100
0010
0001
,  // measure 16
0100
0000
0000
0100
0010
0000
0000
0000
,  // measure 17
2010
0000
0000
3010
1000
0001
0010
0100
,  // measure 18
2000
0000
0000
0000
3000
1000
0100
0010
,  // measure 19
0002
0000
0003
0001
0100
0010
1000
0001
,  // measure 20
0020
0000
0030
0002
,  // measure 21
2003
0000
3000
1000
0200
0000
0300
0100
,  // measure 22
0020
0032
0203
0320
,  // measure 23
1030
0100
0010
0001
0100
0010
1000
0001
,  // measure 24
0010
0000
0010
0001
1000
0000
0100
0000
,  // measure 25
0010
0001
0100
0010
1000
0100
0010
0200
,  // measure 26
0000
1300
0010
0100
0001
0000
0100
0010
,  // measure 27
1000
0100
1000
0010
0100
0001
0010
0100
,  // measure 28
0001
0100
1000
0010
0002
0000
0023
0000
,  // measure 29
0130
0001
0010
0100
1000
0010
0100
0020
,  // measure 30
0000
1030
0100
0010
0001
0000
2000
0000
,  // measure 31
3002
0010
1000
0100
,  // measure 32
1003
0000
0001
0000
2000
0000
3010
0200
,  // measure 33
0001
1000
0001
0010
,  // measure 34
0301
1000
0100
0010
,  // measure 35
0100
1000
0001
0100
0010
0100
0001
1000
,  // measure 36
0001
0100
0001
2000
0000
0000
0000
3100
,  // measure 37
1000
0010
1000
0002
0000
0000
0013
0000
,  // measure 38
0001
0100
0001
2000
0000
3000
0000
1000
,  // measure 39
0010
0100
0010
0002
0000
0013
1000
0100
,  // measure 40
0010
0100
1000
0002
0000
0003
0000
0101
,  // measure 41
0000
1010
0000
1002
0000
0000
0013
0000
,  // measure 42
0210
0000
0000
0000
0000
0000
0300
1000
,  // measure 43
0010
0100
0000
0001
0000
1001
0000
0001
,  // measure 44
0100
0001
1000
0200
0000
0000
0300
0100
,  // measure 45
1000
0001
1000
0020
0000
0000
0130
0000
,  // measure 46
0001
0010
0001
2000
0000
3000
0000
1000
,  // measure 47
0100
0010
0100
0002
0000
0103
1000
0010
,  // measure 48
0100
0010
1000
0002
0000
0000
0003
0001
,  // measure 49
0100
0001
1000
0010
0000
0000
1010
0000
,  // measure 50
2002
0000
0000
0000
3003
0000
0000
1000
,  // measure 51
0001
0010
0000
0100
0000
0010
0000
0001
,  // measure 52
2000
0000
0000
0000
,  // measure 53
3002
0000
0000
2003
0000
0000
3020
0000
0000
0230
0000
0000
0320
0000
2030
0000
,  // measure 54
3001
0000
0001
1000
0000
1100
0000
1001
,  // measure 55
0000
0101
0000
0001
0100
0000
0001
0000
,  // measure 56
1000
0000
0001
0010
0000
0011
0000
1001
,  // measure 57
0000
1010
0000
1000
0100
0000
1000
0000
,  // measure 58
0001
0000
0100
0001
0000
0101
0000
0001
,  // measure 59
1000
0100
0000
1000
0100
1000
0010
0000
,  // measure 60
0100
0000
0001
0010
0000
0110
0000
1000
,  // measure 61
0010
1001
1010
0101
,  // measure 62
1000
0001
0100
0020
0100
0000
1030
0000
,  // measure 63
0010
0100
0001
0020
0000
1030
0010
0100
,  // measure 64
0010
0001
1000
0020
0100
0000
1000
0000
,  // measure 65
0130
0010
0100
2000
0000
3100
0001
0000
,  // measure 66
0001
1000
0010
0200
0010
0000
0301
0000
,  // measure 67
0100
0010
1000
0200
0000
0301
0100
0010
,  // measure 68
0100
1000
0010
0200
0000
0301
0010
0100
,  // measure 69
1000
0000
0001
1000
0001
0000
0100
0000
0010
0000
0000
0000
1MM1
0000
0000
0000
,  // measure 70
1000
0100
1000
0002
0000
0000
0000
0103
,  // measure 71
0001
0010
0001
2000
0000
0000
3010
0000
,  // measure 72
1000
0100
1000
0002
0000
0003
0000
0001
,  // measure 73
0010
0100
0010
2000
0000
3010
0001
0100
,  // measure 74
0010
0100
0001
2000
0000
3000
0000
1100
,  // measure 75
0000
0011
0000
2001
0000
0000
3010
0000
,  // measure 76
0210
0000
0000
0000
0000
0000
0300
0001
,  // measure 77
0010
0100
0000
1000
0000
1001
0000
1000
,  // measure 78
0100
1000
0001
0200
0000
0000
0300
0100
,  // measure 79
0001
1000
0001
0020
0000
0000
0130
0000
,  // measure 80
1000
0010
1000
0002
0000
0003
0000
0001
,  // measure 81
0100
0010
0100
2000
0000
3100
0001
0010
,  // measure 82
0100
0010
0001
2000
0000
3000
0000
1000
,  // measure 83
0100
1000
0001
0010
0000
0000
0011
0000
,  // measure 84
2002
0000
0000
0000
3003
0000
0000
0001
,  // measure 85
1000
0010
0000
0100
0000
0010
0000
1000
,  // measure 86
0001
0100
0001
1000
0100
0010
0100
1000
,  // measure 87
0010
0100
0001
1001
;
