#TITLE:NEURO-CLOUD-9;
#SUBTITLE:;
#ARTIST:Camellia;
#TITLETRANSLIT:;
#SUBTITLETRANSLIT:;
#ARTISTTRANSLIT:;
#GENRE:;
#CREDIT:;
#MUSIC:NEURO-CLOUD-9.ogg;
#BANNER:Banner.png;
#BACKGROUND:BG.png;
#CDTITLE:;
#SAMPLESTART:27.741;
#SAMPLELENGTH:12.557;
#SELECTABLE:YES;
#OFFSET:0.163;
#BPMS:0.000=172.020
,80.000=43.005
,80.250=86.010
,80.500=344.040
,81.000=688.080
,90.000=172.020
,214.000=43.005
,214.250=86.010
,214.500=344.040
,215.000=688.080
,224.000=172.020
,348.000=86.010
,350.000=43.005
;
#STOPS:;
#DISPLAYBPM:172.020;
#BGCHANGES:;
#FGCHANGES:;

//--------------- dance-single - Wari ----------------
#NOTES:
     dance-single:
     Wari:
     Beginner:
     2:
     0,0,0,0,0:
0000
0000
0000
0000
,
0000
0000
0000
0000
,
0000
0000
0000
0000
,
0000
0000
0000
0000
,
0000
0000
0000
0000
,
1001
0000
0000
0000
,
1000
0000
0000
0000
,
0001
0000
0000
0000
,
1000
0000
0000
0000
,
0110
0000
0000
0000
,
0001
0000
0000
0000
,
1000
0000
0000
0000
,
0001
0000
0000
0000
,
1001
0000
0000
0000
,
1000
0000
0000
0000
,
0100
0000
0000
0000
,
0001
0000
0000
0000
,
0010
0000
0000
0000
,
0010
0000
0000
0000
,
0100
0000
0000
0000
,
1001
0000
0000
0000
,
0000
0000
0000
0000
,
0000
0000
0000
0000
,
0000
0100
0000
0000
,
0000
0010
0000
0000
,
0000
1000
0000
0000
,
0000
0001
0001
0000
,
0000
0000
0100
0000
,
0000
0000
1000
0000
,
0000
0000
0010
0000
,
0000
0000
0001
0000
,
0000
0000
1000
0000
,
0000
0000
0010
0000
,
0000
0000
0100
0000
,
0000
0000
0110
0000
,
0000
0000
1001
0000
,
0000
0000
0001
0000
,
1000
0000
0001
0000
,
1000
0000
1001
0000
,
0001
0000
0000
0000
,
1000
0000
0110
0000
,
0000
0000
1000
0000
,
0001
0000
0100
0000
,
0000
0000
0001
0000
,
0010
0000
0100
0000
,
1000
0000
0000
0000
,
1001
0000
0100
0000
,
0000
0010
0000
0000
,
0100
0000
0100
0000
,
0000
0000
1000
0000
,
0000
0000
1001
0000
,
0001
0000
1001
0000
,
1000
0000
0100
0000
,
0010
0000
0110
0000
,
0000
0000
0000
0000
,
0000
0000
0000
0000
,
0000
0000
0000
0010
,
0000
0000
0000
1000
,
0000
0000
0000
0100
,
0000
0000
0000
0001
,
0001
0000
0000
0000
,
1000
0000
0000
0000
,
0010
0000
0000
0000
,
0100
0000
0000
0000
,
1001
0000
0000
0000
,
0110
0000
0000
0000
,
0001
0000
0000
0000
,
0100
0000
0000
0000
,
0010
0000
0000
0000
,
1000
0000
0000
0000
,
0100
0000
0000
0000
,
0001
0000
0000
0000
,
0010
0000
0000
0000
,
1000
0000
0000
0000
,
0001
0000
0000
0000
,
0010
0000
0000
0000
,
1001
0000
0000
0000
,
0100
0000
0000
0000
,
0001
0000
0000
0000
,
0010
0000
0000
0000
,
1000
0000
0000
0000
,
0001
0000
0000
0000
,
1000
0000
0000
0000
,
0100
0000
0000
0000
,
0010
0000
0000
0000
,
0100
0000
0000
0000
,
0001
0000
1000
0000
,
1001
0000
0000
0000
;

//--------------- dance-single - Wari ----------------
#NOTES:
     dance-single:
     Wari:
     Easy:
     5:
     0,0,0,0,0:
0000
0000
0000
0000
,
0000
0000
0000
0000
,
0000
0000
0000
0000
,
0000
0000
0000
0000
,
0000
0000
0000
0000
,
2002
0000
0000
0000
,
0000
0000
0000
0000
,
0000
0000
0000
0000
,
0000
0000
0000
0000
0000
0000
0000
3003
,
2000
0000
0000
0000
,
3002
0000
0000
0000
,
0023
0000
0000
0000
,
0230
0000
0000
0000
,
2300
0000
3020
0000
,
0032
0000
0203
0000
,
2300
0000
3002
0000
,
0023
0000
2030
0000
,
3020
0031
0200
0310
,
2000
3100
0002
0103
,
1001
0110
1001
0110
,
2002
0000
0000
0000
,
0000
0000
0000
0000
,
0000
0000
3003
0001
,
1000
0001
0000
1000
,
0010
0001
0000
1000
,
0100
0001
0000
0010
,
1000
0100
0010
1000
,
0001
1000
0000
0001
,
0100
0000
1000
0000
0001
0100
0010
0000
,
0001
1000
0001
0000
1000
0000
0100
0000
,
0001
1000
0010
0001
,
0100
0010
1000
0001
,
1000
0110
0000
1001
,
0000
0100
0010
0001
,
0100
0010
1001
1000
,
0001
0100
0010
0000
,
1000
0000
0110
0000
,
1001
0000
0001
0100
,
1000
0010
0001
1000
,
0100
0010
0100
0001
,
0100
1000
0001
0010
,
0100
0010
0200
0302
,
2003
3100
0010
0000
,
0001
0100
1000
0100
,
0001
0010
2000
0000
,
3200
0000
0302
0000
,
0013
0100
0010
0000
1001
0000
0110
0000
,
2002
0000
0000
3003
0100
0000
0000
0000
0001
0000
1000
0000
0001
0000
0000
0000
,
1000
0001
1000
0000
0110
0000
0001
0000
,
1000
0010
0100
0001
,
1000
0100
0110
0000
,
1001
0000
0110
0000
,
1001
0000
0001
0010
,
0100
1000
0220
0000
,
0000
0000
0000
0000
,
0000
0000
0000
0000
,
0330
1000
0100
0001
,
0000
1000
0100
0001
,
0000
0001
0100
1000
,
0000
0001
0010
1000
,
0100
1000
0100
0010
,
0200
0300
1000
1000
,
0100
0000
0001
0001
,
0010
0100
1000
0100
,
0010
0100
0001
1000
,
0000
0100
0010
0001
,
0000
0100
1000
0010
,
0001
1000
0001
0010
,
0100
0010
0100
0000
1000
0000
0001
0000
,
0100
0010
0001
1000
,
0100
0010
0001
0100
,
0010
0000
0010
0000
,
1001
0000
0110
0000
,
1000
0100
0010
0001
,
0001
0100
0010
1000
,
1000
0100
0001
0100
,
1000
0001
1000
0000
0001
1000
0001
0000
,
0100
1000
0010
0001
,
1000
0001
1000
0000
0001
1000
0001
0000
,
1000
0100
0001
0010
,
1001
0000
1000
0000
,
0001
0010
1000
0000
,
0100
0010
1000
0000
,
0010
0001
0100
0010
,
0001
0000
1000
0000
,
0010
0000
0100
0000
,
1001
0110
1001
0110
,
2002
0000
3003
0000
;

//--------------- dance-single - Wari ----------------
#NOTES:
     dance-single:
     Wari:
     Medium:
     9:
     0,0,0,0,0:
0000
0000
0000
0000
,
0000
0000
0000
0000
,
0000
0000
0000
0000
,
0000
0000
0000
0000
,
0000
0000
0000
0000
,
2002
0000
0000
0000
,
0000
0000
0000
0000
,
0000
0000
0000
0000
,
0000
0000
0000
0000
0000
0000
0000
3003
,
2000
0000
3200
0000
,
0320
0000
0032
0000
,
0203
0320
0230
0302
,
2003
0000
3200
0000
0320
0000
0230
0300
,
0110
0100
0010
0100
,
0110
0001
1000
0001
,
1001
1000
0100
0001
,
1001
0001
0100
1000
,
1100
1001
0011
0110
,
0101
1010
1001
0011
,
0001
0000
0100
0000
0010
0000
1000
0000
0100
0000
0010
0000
0002
0000
0000
0003
,
0200
0000
0000
0000
,
0000
0000
0000
0000
,
0000
0000
0000
0000
0300
0000
0000
0000
0100
0000
0000
0000
1001
0000
0000
0001
,
0000
0000
1000
0000
0001
0000
0100
0000
0020
0000
0000
0000
1030
0000
0000
0010
,
0000
0000
0100
0000
0001
0000
0100
0000
2000
0000
0000
0000
3100
0000
0000
0100
,
0000
0000
0001
0000
0010
0000
0100
0000
1000
0000
0010
0000
1000
0000
0000
0100
,
0000
0000
0010
0000
0101
0000
0000
0000
0110
0000
0000
0000
1000
0000
0000
0100
,
0000
0000
0010
0000
0020
0000
0000
0000
0031
0000
0100
0000
0010
0000
0000
1000
,
0000
1000
0001
0000
0100
0010
0001
0010
,
1000
0100
0010
0000
0001
0100
0001
1000
,
0100
0000
1000
0000
0011
0000
0000
0000
1010
0000
0000
0000
0100
0000
0000
0010
,
0000
0000
0011
0000
1000
0000
0000
0000
0011
0000
0000
0000
0100
0000
0000
0010
,
0000
0000
1010
0000
0001
0000
0000
0000
1000
0000
0100
0000
0010
0000
0000
0001
,
0000
0000
0010
0000
0100
0000
0000
0000
1000
0000
0000
1000
0100
0000
0000
0000
,
0010
0100
0010
0100
0020
0000
0000
0000
0031
0000
0000
0000
0100
0000
0000
0000
,
0010
1000
0100
0001
,
0100
0000
1000
0000
0010
0100
0010
0100
,
0001
1000
0001
1000
0001
0100
0010
1000
,
0100
0010
0001
0100
1010
0000
0001
1000
,
0100
1000
0001
0100
0001
0100
0010
1000
,
0001
0010
0200
0000
0310
0000
2000
3002
,
2003
3002
2003
3002
0013
0000
0002
0023
,
0032
0203
0320
2030
3100
0000
0010
0010
,
0001
0001
0100
0010
0010
1000
0100
0100
,
1000
0000
0010
0000
0020
0000
0000
0000
0130
0000
0001
0100
0001
0000
0010
0000
,
0100
0000
1000
0010
0000
0100
0001
0000
,
0110
0000
1001
0000
0100
0000
0010
0010
,
0010
0010
0010
1000
0001
0100
0001
0100
,
0001
1000
0001
0100
0010
0000
0010
0100
,
1000
0100
0010
0100
0001
0000
0101
0000
,
1010
0000
1100
0000
1001
0000
0001
0100
,
0010
1000
0100
0000
1001
0000
1000
0100
,
0010
0001
0100
0000
0010
1000
0001
0100
,
0010
0100
0010
0100
0010
0100
0010
0100
0020
0000
0000
0000
0000
0000
0000
0000
,
0000
0000
0000
0000
,
0000
0000
0000
0030
,
0010
0000
0000
0000
0100
0000
0001
0010
0001
0000
0100
0000
0010
0000
0000
0000
,
0110
0000
0000
0000
1000
0000
0010
1000
0100
0000
0010
0000
0001
0000
0000
0000
,
1001
0000
0000
0000
0010
0000
0001
0100
0010
0000
1000
0000
0100
0000
1000
0000
,
0020
0000
0030
0000
0011
0000
0000
0011
0000
0000
1100
0000
1100
0000
0000
0000
,
1010
0000
0000
0000
0001
0000
0100
0010
0100
0000
0001
0000
0010
0000
0000
0000
,
1100
0000
0000
0000
1000
0000
0010
0100
0001
0000
0010
0000
0100
0000
1000
0000
,
0100
0001
0100
0000
1000
0010
0001
0000
,
0010
0100
0001
0010
0100
1000
0001
0000
,
0110
0000
0000
0000
1000
0001
1000
0000
0100
0000
0010
0000
0100
0000
0000
0000
,
0011
0000
0000
0000
0001
0100
0001
0000
1000
0000
0010
0000
1000
0000
0000
0000
,
1001
0000
0000
0000
0001
0100
0010
0000
1000
0000
0100
0000
0010
0000
0000
0000
,
2002
3003
0001
0010
0100
0010
0100
0000
,
1000
0010
0100
1000
0100
0001
0000
0001
,
1000
0001
1000
0100
0010
0001
0100
0010
,
1000
0010
0001
0100
,
2000
0000
0000
0000
3002
0000
0000
0000
2003
0000
0000
0000
3002
0000
0000
0003
,
0110
0010
0100
0000
0001
1000
0001
0000
,
0001
0100
0010
1000
0010
0100
0001
0000
,
1000
0100
0010
0000
0001
0010
0100
0000
,
1000
0010
0001
0010
1000
0001
0010
0000
,
1100
0000
0010
0000
0001
0100
0010
0000
,
1000
0100
1000
0100
0000
0000
0010
0001
0010
0001
0000
0000
,
0001
0010
0001
0100
0000
0000
0010
1000
0100
0010
0000
0000
,
0100
0010
0100
0000
0010
0000
0001
0000
0100
0000
0010
0000
1000
0000
0000
0000
,
0100
0001
0100
1000
,
0010
0001
0010
1000
,
2200
3300
0022
0033
,
0110
0100
0010
0001
,
1100
0110
0101
0011
,
0110
1001
0100
1010
,
0001
0100
1000
0100
0001
0010
1000
0010
,
0002
0000
0000
0000
0000
0000
0000
0003
0110
0000
0000
0000
0000
0000
0000
0000
;

//--------------- dance-single - Wari ----------------
#NOTES:
     dance-single:
     Wari:
     Hard:
     11:
     0,0,0,0,0:
0000
0000
0000
0000
,
0000
0000
0000
0000
,
0000
0000
0000
0000
,
0000
0000
0000
0000
,
0000
0000
0000
0000
,
2002
0000
0000
0000
,
0000
0000
0000
0000
0000
0000
0000
3000
,
2000
0003
3002
0000
2003
0000
3002
0000
,
0203
0320
0230
0302
,
0023
0230
2300
3020
,
0230
0302
0023
0230
,
2300
0000
3020
0000
0230
0000
0302
0000
0000
0000
0003
0000
0002
0000
0023
0000
0230
0000
2300
0000
0000
3000
0000
0000
,
1000
0010
1000
0000
0001
0100
0001
0000
0010
0000
1100
0000
0110
0000
0000
0000
,
2000
0000
3002
0000
2003
0000
3000
0000
0001
0010
0100
1000
0100
0000
0000
0000
,
1000
0100
0010
0001
0100
0000
0000
0000
0100
0010
1000
0100
1000
0000
0000
0000
,
0100
0010
0001
0100
0001
0000
0000
0000
0001
0100
1000
0100
0001
0000
0000
0000
,
1000
0100
0001
0100
1000
0000
0000
0000
0010
0100
1000
0001
0010
0000
0000
0000
,
0010
1000
0100
0001
0100
1000
0100
0001
,
0100
1000
0010
0001
0010
1000
0100
0010
,
0010
0001
0010
0100
0010
0001
0100
0010
1000
0100
0010
0001
2000
0000
0000
3000
,
0020
0000
0000
0000
,
0000
0000
0000
0000
,
0000
0000
0000
0000
0000
0000
0030
0000
1001
0000
0000
0000
0001
0000
0010
0001
,
0000
0100
0010
0000
1000
0000
0001
0000
0200
0000
0000
0000
0301
0000
0010
1000
,
0000
0010
0001
0000
0100
0000
0010
0000
1100
0000
0000
0000
1020
0000
0030
0210
,
0000
0300
0102
0003
0011
0000
0000
0000
1002
0000
0000
0003
0100
0000
0000
0011
,
0000
0000
1100
0000
1000
0020
0000
0030
0101
0000
0000
0000
2000
0000
3100
0002
,
0000
0000
0203
0000
2300
0000
3020
0030
0101
0000
0000
0000
1000
0000
0010
0100
,
0000
0001
0010
0000
0100
0000
1000
0000
0010
0100
0010
0100
0002
0000
0000
0003
,
0010
0100
0010
0100
2000
0000
0000
3000
0100
0000
0001
0000
0100
0000
1000
0000
,
0010
0000
0001
0000
0010
0000
1000
0000
0011
0000
0000
0000
2200
0000
3300
0202
,
0000
0303
2200
3300
0102
0000
0000
0003
1000
0000
0000
0000
0022
0000
0033
2020
,
0000
3030
0022
0033
1020
0000
0030
0000
0400
0000
0300
0000
1000
0000
1000
0001
,
0000
0000
0010
0000
0100
1000
0100
0000
2010
0000
0000
3000
0100
0000
1000
0010
,
0100
0010
0100
0010
1000
0000
0000
0000
1010
0000
0000
0000
1100
0000
0100
0000
,
0010
0001
0100
0010
1000
0100
0010
0001
,
0100
1000
0100
0001
0100
0100
0010
0010
,
2000
0000
3002
0000
2003
0000
3002
0000
0013
0100
1000
0100
0010
0000
0001
0000
,
0001
0100
0010
1000
0002
0000
0000
0003
0110
0000
0000
0000
1000
0000
0100
0000
,
0010
0100
0001
0100
0010
0100
1000
0010
,
0100
0000
0010
0000
0001
0000
0010
0000
2001
0000
0000
0000
3010
0100
0010
0100
,
0001
0000
0010
0100
0010
0000
1000
0000
0010
0000
0001
0000
0100
0010
0100
0010
,
1000
0100
1000
0100
1000
0001
0010
0001
0200
0000
0000
0000
0301
0000
1000
0000
,
0100
0010
0001
1000
0010
0100
0001
1000
,
0100
0000
0010
0000
0200
0000
0300
0000
1001
0000
0010
1000
0010
0000
0100
0000
,
0001
0000
0000
0000
1000
0000
0001
0000
0100
0000
0010
1000
0010
0000
1000
0000
,
0100
0000
0010
0001
0010
0001
0010
0001
0200
0000
0301
0000
0200
0000
0301
0000
,
0200
0310
2000
3200
0320
0230
2300
3020
,
0230
0000
2300
0000
3200
0000
0302
0003
0110
0000
0000
0000
1000
0001
1000
0001
,
1000
0000
0001
0010
0100
0000
1000
0000
0200
0000
0000
0000
0310
0000
0010
0000
,
0100
1000
0100
0010
0100
0000
0000
0000
1001
0000
0000
0000
0001
0000
0100
0000
,
1000
0100
0001
0000
1001
0000
1000
0100
,
0001
0000
0100
0000
1000
0000
0000
0000
0010
1000
0010
1000
0001
0010
0001
0010
,
0100
1000
0100
1000
0010
0100
0010
0100
0002
0000
0000
0000
0000
0000
0000
0000
,
0000
0000
0000
0000
,
0000
0000
0000
0000
0000
0000
0000
0003
,
2010
0000
0000
3000
0100
0000
0010
0100
1000
0100
0010
0000
0001
0000
0100
0000
,
0200
0000
0320
0000
1030
0000
0001
0010
0100
0010
0001
0000
0010
0000
0010
0000
,
0001
0000
0000
0000
1000
0000
1000
0100
0000
0010
0001
0010
0200
0000
0000
0300
,
1010
0000
0000
0000
0110
0000
0000
1100
0000
0000
0101
0000
0110
0000
0000
0000
,
1001
0000
0000
0000
0010
0000
0000
0011
0000
1000
0100
0000
0011
0000
0000
0000
,
1001
0000
0000
0000
0010
0000
0000
1010
0000
0001
0100
0000
1010
0000
0000
0000
,
0100
0000
0001
0000
0010
0000
0000
0000
0100
1000
0100
1000
0010
0000
0000
0000
,
0010
1000
0001
0010
1000
0001
0100
0000
,
1100
0000
0000
0000
0011
0000
0000
0110
0000
0000
0011
0000
1100
0000
0000
0000
,
1010
0000
0000
0000
0110
0000
0000
1001
0000
0000
0101
0000
2020
0000
0000
3030
,
0100
0000
0000
0000
0011
0000
0100
1000
0000
0010
0100
0000
0001
0000
1000
0000
,
0002
0000
0003
0000
1010
0000
0100
0001
0000
0010
0100
0000
1000
0000
0001
0000
,
0001
0000
0100
0000
1000
0000
0001
0000
0010
0000
1000
0000
0100
1000
0100
0000
,
0010
0000
0000
0000
0001
0000
0100
0000
0000
0000
0010
0000
1000
0001
0010
0000
,
1000
0010
0001
0100
0010
1000
0100
0100
,
4004
0000
0000
0000
0000
0000
0000
3003
,
0001
0100
0010
0000
0100
0010
1000
0000
,
0001
1000
0010
0100
0001
1000
0100
0010
0001
1000
0000
0000
,
1000
0100
0010
0100
1000
0001
0100
0010
0100
0001
0000
0000
,
0001
0010
0100
1000
0100
0010
1001
0000
,
0001
0100
1000
0000
0110
0000
0000
0000
1000
0100
0001
0000
0110
0000
0000
0000
,
1000
0010
0100
0001
0010
1000
0010
0001
0100
1000
0000
0000
,
0100
0001
0010
1000
0000
1000
0010
0001
0100
1000
0000
0000
,
0100
0001
0100
0000
0010
1000
0010
0000
0100
0010
0100
0000
0001
0010
0001
0000
,
0110
0000
0000
0000
1100
0000
0000
0000
0001
0010
0001
0000
0100
0000
0000
0000
,
0110
0000
0101
0000
1000
0010
1000
0000
,
0002
2003
3100
0010
,
0001
0001
0100
0000
0010
1000
0100
0000
,
0011
1000
0010
0100
0001
0010
1000
0010
,
0001
1000
0100
0001
0100
1000
0010
0100
,
0001
1000
0010
0100
0001
0010
0100
1000
0100
1000
0010
0100
0001
0010
0001
0100
,
0020
0000
0000
0000
0000
0000
0000
0030
1001
0000
0000
0000
0000
0000
0000
0000
;
