#TITLE:Here Comes Tom!!;
#SUBTITLE:;
#ARTIST:InklingBear;
#TITLETRANSLIT:;
#SUBTITLETRANSLIT:;
#ARTISTTRANSLIT:InklingBear;
#GENRE:Rotterdam;
#CREDIT:;
#BANNER:hct-bn.png;
#BACKGROUND:hct-bg.png;
#LYRICSPATH:;
#CDTITLE:;
#MUSIC:hct.ogg;
#OFFSET:0.000000;
#SAMPLESTART:29.091000;
#SAMPLELENGTH:13.000000;
#SELECTABLE:YES;
#DISPLAYBPM:198.000000;
#BPMS:0.000000=198.000000
;
#STOPS:
;
#BGCHANGES:;
#KEYSOUNDS:;
#ATTACKS:;

//---------------dance-single - ----------------
#NOTES:
     dance-single:
     :
     Easy:
     6:
     0.426506,0.437880,0.094280,0.000000,0.000000,285.000000,276.000000,9.000000,0.000000,0.000000,0.000000,0.426506,0.437880,0.094280,0.000000,0.000000,285.000000,276.000000,9.000000,0.000000,0.000000,0.000000:
0000
0000
0000
0000
,
0000
0000
0000
0000
,
0000
0000
0000
0000
,
0000
0000
0000
0000
,
0001
0001
1000
1000
,
0001
0001
1000
1000
,
0010
0010
0100
0100
,
0010
0010
0100
0110
,
0010
1000
0010
1000
,
0001
0010
0001
0010
,
0100
1000
0100
1000
,
0001
0100
0001
0100
,
0010
0100
0010
0100
,
0001
1000
0001
1000
,
0100
0010
0100
0010
,
0001
1000
0001
1000
,
0010
1000
0100
1000
,
0001
0100
0010
0000
,
0100
0001
0010
0100
,
1000
0000
0010
0000
0100
0000
0001
1000
,
0001
0010
0100
1000
,
0010
0100
0010
0000
,
1000
0001
0010
0100
,
1000
0000
0001
0000
0100
0010
0100
0000
,
0001
0010
0100
1000
,
0001
0100
0010
0000
,
0100
0001
0010
0100
,
1000
0000
0010
0000
0100
0000
0010
1000
,
0010
1000
0001
0010
,
0100
0010
0001
0000
,
1000
0010
0100
0001
,
0011
1100
1001
0000
,
0010
0000
0100
0000
,
0001
0001
1000
0000
,
0001
0010
0100
0000
,
1000
0001
0100
0000
,
0010
0010
0100
0100
,
0001
0001
1000
1000
,
0100
0010
0001
1000
,
1001
0000
0000
0000
,
0010
1000
0100
1000
,
0010
0100
0001
0100
,
0010
0000
1000
0000
0001
1000
0001
0000
,
0010
0100
1000
0010
,
0100
0001
0010
0001
,
1000
0010
0100
0010
,
1000
0000
0001
0000
0010
0100
0010
0000
,
0001
1000
0010
0100
,
0001
1000
0100
1000
,
0001
0010
0001
1000
,
0010
0000
0100
0000
0010
1000
0010
0000
,
0100
0001
0010
0100
,
1000
0010
1000
0001
,
0100
0010
0100
0001
,
1000
0000
0100
0000
0010
0001
0010
0000
,
0100
1000
0010
0100
,
1001
0000
0010
0000
,
0100
0000
0001
0000
,
1000
0000
0100
0000
,
0010
0000
0010
0000
0001
0000
0001
1000
,
0010
0100
0001
1000
,
0100
0010
0001
0000
,
0010
0100
1000
0010
,
0100
0000
0001
0000
1000
0000
0100
0010
,
0100
1000
0010
0100
,
0001
0010
0100
0000
,
0010
0001
1000
0010
,
0100
0000
0001
0000
1000
0001
1000
0000
,
0010
0100
0001
0100
,
0010
1000
0001
0000
,
0010
0001
0100
1000
,
0100
0000
0001
0000
1000
0010
1000
0000
,
0001
0010
0100
1000
,
0010
0001
0010
0000
,
1000
0100
0001
0100
,
0011
1100
1001
0000
,
0010
0000
0000
0000
;

//---------------dance-single - ----------------
#NOTES:
     dance-single:
     :
     Medium:
     8:
     0.577654,0.636916,0.178085,0.000000,0.010476,386.000000,369.000000,17.000000,0.000000,0.000000,0.000000,0.577654,0.636916,0.178085,0.000000,0.010476,386.000000,369.000000,17.000000,0.000000,0.000000,0.000000:
0000
0000
0000
0000
,
0000
0000
0000
0000
,
0000
0000
0000
0000
,
0000
0000
0000
0000
,
0010
0100
0010
1000
,
0001
0000
1000
0000
0100
0000
0010
0100
,
0010
0001
1000
0001
,
1000
0010
0100
0110
,
0010
1000
0001
0010
,
0100
0000
1000
0000
0010
0000
0100
0001
,
1000
0100
0010
0001
,
1000
0000
0010
0000
0100
0000
0001
1000
,
0100
0010
0001
0100
,
0010
0000
1000
0000
0001
0000
0010
0001
,
0100
0010
1000
0001
,
0010
0000
0100
1000
0001
0100
0010
0000
,
1000
0000
0010
0000
0100
0001
1000
0000
,
0100
0000
0010
0000
0100
1000
0010
0000
,
0100
0000
0001
0000
0010
0001
1000
0000
,
0010
0000
0100
0000
0001
1000
0100
0010
,
0001
0000
0100
0000
0010
0100
0001
0000
,
1000
0000
0100
0000
0010
0001
1000
0000
,
0010
0000
0100
0000
0001
1000
0100
0000
,
0010
0001
1000
0010
0100
0001
1000
0000
,
0100
0000
0010
0000
0100
1000
0010
0000
,
0100
0000
0001
0000
0010
0001
1000
0000
,
0010
0000
0100
0000
0001
1000
0100
0000
,
0010
0000
0100
0000
1000
0001
0100
0001
,
1000
0000
0010
0000
0100
0001
0010
0000
,
0100
0000
1000
0000
0010
0100
0001
0000
,
0010
0000
0001
0000
1000
0010
0100
0000
,
0101
1100
1001
0000
,
0010
0100
0001
1000
,
0001
0001
1000
0000
0010
0000
0100
0000
,
0001
0010
0000
0001
0000
0000
1000
0000
,
0100
0000
0010
0000
0001
0001
0000
0000
,
1000
0010
1000
0000
0001
0010
0001
0000
,
1000
0100
1000
0000
0001
0100
0001
0000
,
0100
0010
0100
0010
1000
0001
1000
0001
,
1001
0000
0000
0000
,
0010
0000
0100
0000
0001
1000
0100
0000
,
0010
0000
0100
0000
1000
0001
0100
0000
,
0010
0000
1000
0000
0001
0010
0100
1000
,
0010
0000
0100
0000
0001
1000
0100
0000
,
0010
0000
0100
0000
1000
0010
0100
0000
,
0001
0000
0100
0000
0010
1000
0001
0000
,
0010
0000
0100
0000
1000
0010
0100
0001
,
0010
0000
0100
0000
1000
0001
0100
0000
,
1010
0000
0100
0000
0001
1000
0100
0000
,
0010
0000
0100
0000
1000
0001
0100
0000
,
0010
0000
1000
0000
0001
0010
0100
0010
,
0001
0000
1000
0000
0010
0100
0001
0000
,
0101
0000
0010
0000
1000
0001
0010
0000
,
0100
0000
1000
0000
0010
0100
0001
0000
,
1000
0000
0100
0000
0010
0001
1000
0010
,
0100
0001
1001
0110
,
1001
0001
1000
1000
,
0010
0010
0100
0100
,
0001
0001
0010
0010
,
0110
0000
0110
0000
0100
1000
0001
0100
,
0010
0000
0100
0000
0001
1000
0000
0100
,
0000
0010
0000
0100
1000
0010
0100
0000
,
0001
0100
0000
0010
1000
0000
1001
0000
,
0100
0000
0010
0001
0000
1000
0010
0100
,
0001
0100
0010
0000
1000
0001
0000
0010
,
0100
1000
0010
0100
0001
0100
0010
1000
,
0001
0000
0010
0000
0100
0000
1000
0000
0010
0000
0000
0010
0000
0000
0010
0000
,
0100
0000
0001
0100
0000
0010
1000
0000
,
0001
0000
0010
0000
0100
1000
0000
0010
,
0000
0100
0000
0001
1000
0100
0010
0000
,
0100
1000
0000
0010
0100
0000
1001
0000
,
0001
0000
0010
0001
0000
1000
0010
0100
,
0001
0100
0010
0000
1000
0001
0000
0010
,
0100
1000
0010
1000
0001
0010
0100
1000
,
0010
0000
0100
0000
0001
0000
0100
0000
0010
0000
0000
0010
0000
0000
0010
0000
,
0100
0001
1100
0101
,
0110
0000
0000
0000
;

//---------------dance-single - ----------------
#NOTES:
     dance-single:
     :
     Hard:
     9:
     0.781180,0.756338,0.314268,0.000000,0.041902,522.000000,492.000000,30.000000,0.000000,0.000000,0.000000,0.781180,0.756338,0.314268,0.000000,0.041902,522.000000,492.000000,30.000000,0.000000,0.000000,0.000000:
0000
0000
0000
0000
,
0000
0000
0000
0000
,
0000
0000
0000
0000
,
0000
0000
0000
0000
,
0010
0100
0001
1000
,
0100
0000
0010
0000
0100
0000
1000
1000
,
0001
0100
0010
0100
,
0001
0000
0010
0001
1000
0010
0110
0000
,
0001
0101
1000
1100
,
0001
0000
0101
0000
0001
0000
1001
0100
,
0010
0011
0100
1100
,
0010
0000
1010
0000
0100
0000
0101
0001
,
1000
1100
0001
0101
,
1000
0000
1010
0000
0001
0000
0011
0001
,
1000
1010
0100
0101
,
0010
1000
0001
0010
0100
1000
0001
0000
,
0010
0001
0100
0010
1000
0001
1000
0000
,
0010
0100
0001
0100
0010
1000
0100
0100
,
1000
0010
0100
0001
1000
0000
1001
0001
,
0010
0000
0100
0000
1000
0000
0010
0000
1000
0000
0000
0001
0100
0000
0010
0000
,
0100
0001
0010
0001
1000
0100
0010
0001
,
0000
1000
0010
1000
0001
0100
0000
0110
,
0010
1000
0001
1000
0100
0010
0001
1000
,
0100
0000
0000
0100
1000
0000
0001
0000
0100
0000
0010
0000
0100
0000
0001
0000
,
1000
0100
0010
0100
1000
0010
0100
0000
,
0001
0100
0010
0100
0001
0010
0100
0100
,
0010
0001
1000
0010
0100
0000
0101
0010
,
1000
0000
0001
0000
1000
0000
0100
0000
0010
0000
0000
0001
1000
0000
0010
0000
,
1000
0100
0010
0001
1000
0010
0100
0100
,
0001
1000
0100
0010
0100
1000
0000
1001
,
0001
0010
0001
0100
0010
0100
0001
1000
,
0100
0000
0000
0010
0001
0000
1000
0000
0010
0000
0100
0000
1001
0000
0000
0000
,
1000
0000
0010
0000
0100
0000
0001
0001
,
1000
0100
1000
0000
0001
0000
0100
0000
,
0010
0100
0000
0101
0000
0000
0010
1000
,
0100
0001
0100
1000
0010
0010
0000
0000
,
0100
0001
0010
0010
0001
1000
0010
0010
,
1000
0100
0010
0100
1000
1000
0001
0001
,
0100
0010
0100
0100
0001
0010
0001
0001
,
1001
0010
0100
0000
0110
0000
0000
0000
,
0010
1000
0100
0001
0100
1000
0010
0100
,
0001
0010
1000
0010
0001
0100
0010
0000
,
0100
0001
1000
0100
0010
0010
0100
0100
,
1000
0010
0100
0001
0100
0010
1000
0000
,
0001
0010
1000
0010
0100
1000
0001
0100
,
1000
0100
0001
0010
1000
0010
0100
0000
,
1000
0001
0100
0010
0100
0100
0001
0001
,
1000
0010
1000
0001
0010
0100
1000
0000
,
0010
1000
0001
0010
0100
1000
0010
0100
,
0001
1000
0010
0100
1000
0100
0001
0000
,
1000
0100
0010
0001
1000
1000
0010
0010
,
1000
0001
0010
0100
1000
0010
0100
0000
,
0001
0100
1000
0100
0010
1000
0001
0010
,
0100
1000
0010
1000
0001
0100
0010
0000
,
0100
0001
0010
0001
0100
0100
0001
0001
,
1000
0100
0010
0001
1000
0010
0100
0000
,
1001
0000
0010
0000
0100
0000
1000
0100
,
0000
1000
0000
0010
0100
0000
0001
0000
,
0010
0001
0100
0010
0100
0000
0001
1000
,
0100
0000
0000
0000
1000
0000
0001
0000
0100
0000
0000
0010
0100
0000
0001
0000
,
1000
0010
0100
0001
1000
0100
0010
0000
,
0100
1000
0010
0100
0001
1000
0010
0010
,
1000
0001
0010
0100
1000
0000
1100
0100
,
0010
0001
1000
0010
0100
0001
0100
0010
,
1000
0001
0010
0100
0010
0001
1000
0001
,
0100
0010
0100
0001
1000
0100
0000
0011
,
0100
1000
0001
0100
0010
0100
0001
1000
,
0100
0000
0000
0010
0001
0000
0100
0000
0010
0000
1000
0100
1000
0000
0001
0000
,
0100
0010
0100
0001
1000
0100
0010
0000
,
0100
1000
0010
0100
0001
0100
0010
0010
,
0100
0001
1000
0100
0010
0000
1100
0100
,
0010
0001
1000
0010
0100
0001
0100
0010
,
1000
0001
0010
0001
1000
0010
0100
0001
,
0100
0010
1000
0001
0010
0100
0000
1100
,
0001
0100
0010
0100
0001
0100
1000
0100
,
0001
0000
0000
0100
0010
0000
1000
0000
0001
0000
1000
0000
0110
0000
0000
0000
,
1001
0000
0000
0000
;

//---------------dance-single - ----------------
#NOTES:
     dance-single:
     :
     Challenge:
     10:
     0.857502,0.835952,0.261890,0.000000,0.146658,573.000000,548.000000,25.000000,0.000000,0.000000,0.000000,0.857502,0.835952,0.261890,0.000000,0.146658,573.000000,548.000000,25.000000,0.000000,0.000000,0.000000:
// measure 0
0000
0000
0000
0000
,  // measure 1
0000
0000
0000
0000
,  // measure 2
0000
0000
0000
0000
,  // measure 3
0000
0000
0000
0000
,  // measure 4
1000
0100
0001
0100
,  // measure 5
1000
0000
0010
0000
0001
0000
0010
0010
,  // measure 6
0100
0001
0010
0001
,  // measure 7
1001
0000
0000
1000
0001
0000
0100
0000
0010
0000
0100
0000
1001
0000
0000
0000
,  // measure 8
0001
0010
0001
0100
0001
1000
0001
0010
,  // measure 9
0100
0010
0001
0010
1000
0010
0100
1000
,  // measure 10
0100
0010
0100
0001
0100
0010
0100
1000
,  // measure 11
0010
1000
0001
1000
0100
1000
0010
1000
,  // measure 12
0010
0100
0010
0001
0010
0100
0010
1000
,  // measure 13
0001
1000
0100
1000
0010
1000
0001
1000
,  // measure 14
0100
0010
0100
0001
0100
0010
0100
1000
,  // measure 15
0001
0100
0010
0100
0001
1000
0110
0000
,  // measure 16
0010
1000
0010
0001
0010
1000
0010
0001
,  // measure 17
0010
0100
0001
0100
1000
0100
0001
0100
,  // measure 18
0010
1000
0010
0001
0010
1000
0010
0001
,  // measure 19
0010
0000
0100
0000
0001
0000
1000
0000
1100
0000
0000
0010
0001
0000
1000
0000
,  // measure 20
0100
0001
0100
0010
0100
1000
0100
0010
,  // measure 21
0001
0010
1000
0010
0001
0010
1000
0010
,  // measure 22
0100
0010
0001
0010
0100
0010
0001
0010
,  // measure 23
0011
0000
0000
1000
0001
0000
0100
0000
0010
0000
1000
0001
1000
0000
0010
0000
,  // measure 24
0100
0001
0100
0010
0100
1000
0100
0010
,  // measure 25
1000
0010
0001
0010
1000
0010
0001
0010
,  // measure 26
0100
0001
0100
1000
0100
0001
0100
1000
,  // measure 27
0100
0000
0001
0000
0010
0000
0100
0000
1100
0000
0000
0010
1000
0000
0001
0000
,  // measure 28
0010
1000
0010
0100
0010
0001
0010
1000
,  // measure 29
0010
0100
1000
0100
0001
0100
0010
0100
,  // measure 30
1000
0001
0100
0010
1000
0001
0010
0100
,  // measure 31
1001
0000
0000
0001
0100
0000
0010
0000
1000
0000
0001
0000
0110
0000
0000
0000
,  // measure 32
0100
1001
0010
1001
,  // measure 33
0001
0001
1000
0000
1010
0000
0010
0100
,  // measure 34
0001
0010
0000
0110
0000
0010
0001
0100
,  // measure 35
1000
0100
0001
1000
0100
0110
0000
0000
,  // measure 36
0010
0001
0100
0010
0100
0001
1000
0100
,  // measure 37
0010
0001
1000
0010
0100
0100
0010
1000
,  // measure 38
0001
0010
0100
0010
0010
0001
1000
0010
,  // measure 39
0110
0001
1000
0000
0110
0000
0000
0000
,  // measure 40
0010
0001
0100
0010
0100
0001
0010
0100
,  // measure 41
0010
0000
0001
0000
0100
0000
0010
0000
1000
0000
0100
0010
0000
0000
0001
0000
,  // measure 42
1000
0000
0100
0010
0000
0000
0011
0000
1000
0000
0010
0000
0100
0000
0010
0000
,  // measure 43
1000
0000
0100
0000
0010
0000
0001
0000
1000
0000
0000
0010
0100
0000
0001
0000
,  // measure 44
0100
0010
1000
0100
0010
0100
1000
0010
,  // measure 45
0100
0000
0001
0000
0010
0000
0100
0000
0010
0000
0001
1000
0000
0000
0100
0000
,  // measure 46
0010
0000
0001
0100
0000
0000
0110
0000
0100
0000
0001
0000
0010
0000
0100
0000
,  // measure 47
1100
0000
0001
0100
0001
0000
0010
0000
0100
0000
1000
0001
1000
0000
0010
0000
,  // measure 48
0100
0001
0100
0010
0100
1000
0100
0001
,  // measure 49
0010
0000
1000
0000
0010
0000
0100
0000
0010
0000
0001
1000
0000
0000
0010
0000
,  // measure 50
0100
0000
0001
0100
0000
0000
0110
0000
0100
0000
0001
0000
1000
0000
0100
0000
,  // measure 51
1000
0000
0010
0000
1000
0000
0001
0000
0010
0000
0100
1000
0100
0000
1000
0000
,  // measure 52
0001
0100
0010
0100
0001
0100
0010
1000
,  // measure 53
0001
0000
0010
0000
0001
0000
0100
0000
0010
0000
0100
0001
0000
0000
1000
0000
,  // measure 54
0100
0000
0010
0001
0000
0000
1001
0000
0010
0000
0100
0000
0001
0000
0010
0000
,  // measure 55
0100
0000
1000
0010
1000
0000
0001
0000
0100
0000
0010
0000
0110
0000
0000
0000
,  // measure 56
1001
0000
0001
0000
0110
0000
0010
1000
,  // measure 57
0000
0001
0000
0010
0100
0000
1000
0000
,  // measure 58
0001
0100
0010
0100
0001
0000
1000
0100
,  // measure 59
0010
0000
0001
0000
0010
0000
0100
0000
0010
0000
0000
1000
0010
0000
0001
0000
,  // measure 60
1000
0010
0100
0001
1000
1000
0001
0010
,  // measure 61
0001
0100
0010
0100
0001
0001
1000
1000
,  // measure 62
0100
0010
0001
1000
0010
0100
0010
1000
,  // measure 63
0100
0000
0010
0000
0100
0000
0100
0000
1000
0000
0000
1000
0010
0000
0100
0000
,  // measure 64
0001
0010
0001
1000
0001
0001
1000
0100
,  // measure 65
1000
0010
0100
0001
0010
0100
1000
0010
,  // measure 66
0100
0000
0001
0000
0010
0000
0001
0000
1000
0000
0001
1000
0000
0001
1000
0000
,  // measure 67
0001
0000
0100
0010
0100
0000
0001
0000
0010
0000
0100
1000
0100
0000
1000
0000
,  // measure 68
0010
0100
0001
1000
0100
0100
1000
0010
,  // measure 69
1000
0001
0010
0001
0001
1000
0010
0100
,  // measure 70
0001
0010
0100
1000
1000
0010
0100
0001
,  // measure 71
0100
0010
1000
0001
0010
0001
0100
0100
,  // measure 72
0010
0100
0001
1000
0100
0010
0100
1000
,  // measure 73
0010
0100
0001
0010
1000
0001
0100
1000
,  // measure 74
0001
0000
0100
0000
0010
0000
0100
0000
0001
0000
1000
0001
0000
1000
0001
0000
,  // measure 75
1000
0000
0000
0010
0100
0000
0001
0000
0010
0000
0100
0000
1001
0000
0000
0000
,  // measure 76
0110
0000
0000
0000
;
