#VERSION:0.83;
#TITLE:Giga Zone 999;
#SUBTITLE:;
#ARTIST:GENKI SOUND TEAM;
#TITLETRANSLIT:;
#SUBTITLETRANSLIT:;
#ARTISTTRANSLIT:;
#GENRE:;
#ORIGIN:;
#CREDIT:;
#BANNER:;
#BACKGROUND:;
#PREVIEWVID:;
#JACKET:;
#CDIMAGE:;
#DISCIMAGE:;
#LYRICSPATH:;
#CDTITLE:;
#MUSIC:Giga Zone 999.ogg;
#OFFSET:-0.040000;
#SAMPLESTART:12.880948;
#SAMPLELENGTH:12.800002;
#SELECTABLE:YES;
#BPMS:0.000=150.000;
#STOPS:60.000=1.200,
121.000=1.200,
182.000=1.200;
#DELAYS:;
#WARPS:;
#TIMESIGNATURES:0.000=4=4;
#TICKCOUNTS:0.000=4;
#COMBOS:0.000=1;
#SPEEDS:0.000=1.000=0.000=0;
#SCROLLS:0.000=1.000;
#FAKES:;
#LABELS:0.000=Song Start;
#BGCHANGES:;
#KEYSOUNDS:;
#ATTACKS:
;

//---------------dance-single - ----------------
#NOTEDATA:;
#CHARTNAME:;
#STEPSTYPE:dance-single;
#DESCRIPTION:;
#CHARTSTYLE:;
#DIFFICULTY:Challenge;
#METER:10;
#RADARVALUES:0.734559,0.841781,0.058542,0.117083,1.204984,527.000000,521.000000,6.000000,12.000000,0.000000,0.000000,0.000000,0.000000,0.000000,0.734559,0.841781,0.058542,0.117083,1.204984,527.000000,521.000000,6.000000,12.000000,0.000000,0.000000,0.000000,0.000000,0.000000;
#CREDIT:;
#NOTES:
// measure 0
0000
0000
0000
0000
,  // measure 1
0000
0000
0000
0000
,  // measure 2
0000
0000
0000
0000
,  // measure 3
0000
0000
0000
0000
,  // measure 4
1000
0010
1000
0001
0000
0000
1000
0000
0000
0100
0000
0000
0010
0000
0100
0000
,  // measure 5
0010
0001
0010
0100
0000
0000
0010
0000
0000
0001
0000
0000
1000
0000
0000
0000
,  // measure 6
0001
0000
0000
0100
0000
0000
0010
0000
0000
0100
0000
0000
0010
0000
1000
0000
,  // measure 7
0100
0000
0010
0000
0100
0010
0000
0001
0000
0000
0010
0001
0010
0001
1000
0000
,  // measure 8
0001
0000
1000
0001
0000
0001
0100
0000
0000
0010
0000
0000
0110
0000
0010
0000
,  // measure 9
1000
0000
0001
1000
0000
1000
0100
0000
0000
0010
0000
0000
1001
0000
0000
0000
,  // measure 10
1000
0000
0001
1000
0000
1000
0010
0000
0000
0100
0000
0000
0110
0000
0100
0000
,  // measure 11
0010
0000
0010
0000
0100
0010
0000
1000
0000
0000
0001
1000
0001
0010
0100
0000
,  // measure 12
0010
0100
0000
0010
0100
0000
0010
0001
0000
0010
0001
0000
0100
0001
0000
0100
,  // measure 13
0001
0000
1000
0001
0000
1000
0001
0000
1000
0010
0000
1000
0010
0000
1000
0100
,  // measure 14
0000
1000
0100
0000
1000
0001
0000
1000
0001
0000
0100
0001
1000
0010
0100
0010
,  // measure 15
0000
0000
0000
0000
0010
0000
0100
0010
0000
1000
0000
0010
0000
1000
0010
1000
,  // measure 16
0001
0000
0001
0000
1000
0000
0001
1000
0000
0100
0000
1000
0000
0100
0010
0100
,  // measure 17
2000
0000
0000
0000
3001
0000
1000
0001
0000
0100
0000
0001
0000
0100
0001
0100
,  // measure 18
0010
0000
0010
0000
0100
0000
0010
0000
0100
0010
0000
1000
0000
0000
1000
0010
,  // measure 19
1000
0001
0010
0000
0100
0000
0010
0100
0000
1000
0000
0100
0000
1000
0100
1000
,  // measure 20
0001
0000
0001
0000
1000
0000
0001
1000
0000
0010
0000
1000
0000
0010
0100
0010
,  // measure 21
2000
0000
0000
0000
3001
0000
1000
0001
0000
0010
0000
0001
0000
0010
0001
0010
,  // measure 22
0100
0000
0100
0000
0010
0000
0100
0000
0010
0100
0000
1000
0000
0000
1000
0100
,  // measure 23
1000
0001
0100
0000
0001
0000
1000
0000
0010
0100
0000
0010
0000
0100
0000
0010
,  // measure 24
0000
0100
0010
1000
0001
0000
1000
0100
0010
0100
0000
0010
0000
0010
0000
0001
,  // measure 25
0010
0001
1000
0000
0010
0000
0100
0000
0001
1000
0000
0001
0000
1000
0000
0001
,  // measure 26
0000
1000
0001
0010
0100
0000
0010
0100
1000
0100
0000
1000
0000
1000
0000
0001
,  // measure 27
1000
0001
0100
0000
0001
0000
0100
0000
0010
0100
0000
0001
0000
0010
0000
0100
,  // measure 28
0000
0010
0100
0010
0001
0000
0100
0000
0010
0100
0000
0001
0000
0010
0000
0100
,  // measure 29
0000
0010
0100
0010
0001
0000
1000
0010
0100
0010
0000
0010
1000
0000
1000
0010
,  // measure 30
0100
0010
0000
0010
1000
0000
0000
0000
0001
0000
0000
0000
0000
0000
0001
0000
,  // measure 31
0000
0000
0000
0000
1000
0000
0000
1000
,  // measure 32
0000
0000
0100
0000
0010
0000
0000
0010
,  // measure 33
0000
0000
0000
0000
0100
0000
0000
0100
,  // measure 34
0000
0000
0000
0000
0010
0000
0000
0000
0002
0000
0000
0103
0000
0000
0020
0000
,  // measure 35
0000
0130
0000
0000
0001
0000
1000
0000
0002
0000
0000
0013
0000
0000
0200
0000
,  // measure 36
0000
0010
0000
0000
1300
0000
0000
0000
2000
0000
0000
3100
0000
0000
0020
0000
,  // measure 37
0000
0130
0000
0000
1000
0000
0001
0000
2000
0000
0000
3010
0000
0000
0200
0000
,  // measure 38
0000
0010
0000
0000
0301
0100
0001
1000
0001
0000
1000
0001
0000
0001
0010
0000
,  // measure 39
0000
0100
0000
0000
0110
0000
0100
0000
1000
0000
0001
1000
0000
1000
0010
0000
,  // measure 40
0000
0100
0000
0000
1001
0000
0000
0000
1000
0000
0001
1000
0000
1000
0100
0000
,  // measure 41
0000
0010
0000
0000
0110
0000
0010
0000
0100
0000
0100
0000
0010
0100
0000
1000
,  // measure 42
0000
0000
0001
1000
0001
0100
0010
0000
0100
0010
0000
0100
0010
0000
0100
0001
,  // measure 43
0000
0100
0001
0000
0010
0001
0000
0010
0001
0000
1000
0001
0000
1000
0001
0000
,  // measure 44
1000
0100
0000
1000
0100
0000
1000
0010
0000
1000
0010
0000
1000
0001
0000
1000
,  // measure 45
0001
0000
0010
0001
1000
0100
0010
0100
0000
0000
0000
0000
0100
0000
0010
0100
,  // measure 46
0000
1000
0000
0100
0000
1000
0100
1000
0001
0000
0001
0000
1000
0000
0001
1000
,  // measure 47
0000
0010
0000
1000
0000
0010
0100
0010
2000
0000
0000
0000
3001
0000
1000
0001
,  // measure 48
0000
0010
0000
0001
0000
0010
0001
0010
0100
0000
0100
0000
0010
0000
0100
0000
,  // measure 49
0010
0100
0000
1000
0000
0000
1000
0100
1000
0001
0100
0000
0010
0000
0100
0010
,  // measure 50
0000
1000
0000
0010
0000
1000
0010
1000
0001
0000
0001
0000
1000
0000
0001
1000
,  // measure 51
0000
0100
0000
1000
0000
0100
0010
0100
2000
0000
0000
0000
3001
0000
1000
0001
,  // measure 52
0000
0100
0000
0001
0000
0100
0001
0100
0010
0000
0010
0000
0100
0000
0010
0000
,  // measure 53
0100
0010
0000
1000
0000
0000
1000
0010
1000
0001
0010
0000
0001
0000
1000
0000
,  // measure 54
0100
0010
0000
0100
0000
0010
0000
0100
0000
0010
0100
1000
0001
0000
1000
0010
,  // measure 55
0100
0010
0000
0100
0000
0100
0000
0001
0100
0001
1000
0000
0100
0000
0010
0000
,  // measure 56
0001
1000
0000
0001
0000
1000
0000
0001
0000
1000
0001
0100
0010
0000
0100
0010
,  // measure 57
1000
0010
0000
1000
0000
1000
0000
0001
1000
0001
0010
0000
0100
0010
0000
0100
,  // measure 58
0010
0000
0100
1000
0000
0100
1000
0000
0010
1000
0000
0010
1000
0000
0001
1000
,  // measure 59
0000
0001
1000
0000
0001
0100
0000
0001
0100
0000
0001
0010
0001
1000
0010
0100
,  // measure 60
0010
1000
0100
0010
0001
1000
0010
0100
0010
1000
0001
0010
0100
0000
0010
0000
,  // measure 61
0001
0100
0000
0010
0000
0000
0100
0010
1000
0001
1000
0000
0000
0000
0000
0000
;
