#TITLE:Gale Rider;
#SUBTITLE:;
#ARTIST:P*Light;
#TITLETRANSLIT:;
#SUBTITLETRANSLIT:;
#ARTISTTRANSLIT:;
#GENRE:;
#CREDIT:;
#BANNER:Gale Rider.png;
#BACKGROUND:;
#LYRICSPATH:;
#CDTITLE:;
#MUSIC:Gale Rider.mp3;
#OFFSET:0.620000;
#SAMPLESTART:13.000080;
#SAMPLELENGTH:15.000000;
#SELECTABLE:YES;
#DISPLAYBPM:193.000000;
#BPMS:0.000000=193.000000
;
#STOPS:188.000000=1.244000
;
#BGCHANGES:;
#KEYSOUNDS:;
#ATTACKS:;

//---------------dance-single - ----------------
#NOTES:
     dance-single:
     :
     Easy:
     5:
     0.332634,0.378266,0.025218,0.000000,0.000000,277.000000,274.000000,3.000000,0.000000,0.000000,0.000000,0.332634,0.378266,0.025218,0.000000,0.000000,277.000000,274.000000,3.000000,0.000000,0.000000,0.000000:
// measure 0
0000
0000
0000
0000
,  // measure 1
0000
0000
0000
0000
,  // measure 2
0000
0000
0000
0000
,  // measure 3
1001
0000
1000
0000
,  // measure 4
1000
0000
0000
0000
,  // measure 5
0001
0000
0001
0000
,  // measure 6
0100
0000
0100
0000
,  // measure 7
0010
0000
0000
0000
,  // measure 8
1000
0000
0000
0000
,  // measure 9
0010
0000
1000
0000
,  // measure 10
0010
0000
0100
0000
,  // measure 11
0001
0001
1000
1000
,  // measure 12
0010
0010
0100
0100
,  // measure 13
0010
0010
1000
1000
,  // measure 14
0001
0001
0100
0100
,  // measure 15
0010
0010
1000
1000
,  // measure 16
0001
0001
0100
0101
,  // measure 17
0010
0010
0100
0100
,  // measure 18
0010
1000
0010
1000
,  // measure 19
0001
0000
1000
0000
,  // measure 20
1000
0001
1000
0001
,  // measure 21
0010
0100
0010
0100
,  // measure 22
1000
0001
1000
0001
,  // measure 23
0100
0010
0100
0010
,  // measure 24
0100
0010
0100
0010
,  // measure 25
1000
0001
1000
0001
,  // measure 26
1000
0000
0000
0000
,  // measure 27
0001
0100
0001
0000
,  // measure 28
1000
0010
1000
0000
,  // measure 29
0010
0100
0010
0000
,  // measure 30
0100
0100
0100
0000
,  // measure 31
0001
1000
0001
0000
,  // measure 32
1000
0100
1000
0000
,  // measure 33
0001
0010
0001
0000
,  // measure 34
0100
0010
0100
0000
,  // measure 35
0010
1000
0010
1000
,  // measure 36
0001
0100
0001
0100
,  // measure 37
0010
0100
0010
0100
,  // measure 38
1000
0100
0001
0100
,  // measure 39
1000
0010
0001
0010
,  // measure 40
1000
0001
0010
0001
,  // measure 41
0100
0010
1000
0010
,  // measure 42
0100
0100
0100
0100
,  // measure 43
0000
0001
0001
0001
,  // measure 44
0010
0010
0010
0010
,  // measure 45
0100
0100
0100
1000
,  // measure 46
1000
0001
1000
0001
,  // measure 47
1000
0000
0000
0000
,  // measure 48
0001
0000
0000
0000
,  // measure 49
1000
0000
0000
0000
,  // measure 50
0001
0000
0000
0000
,  // measure 51
1000
0000
0000
0000
,  // measure 52
0001
0000
0000
0000
,  // measure 53
0100
0000
0000
0000
,  // measure 54
0010
0000
0000
0000
,  // measure 55
0100
0000
0000
0000
,  // measure 56
0001
0001
0001
0000
,  // measure 57
1000
1000
1000
0000
,  // measure 58
0010
0010
0010
0000
,  // measure 59
0100
0100
0100
0000
,  // measure 60
0001
1000
0001
1000
,  // measure 61
0001
0100
0001
0100
,  // measure 62
0010
0100
0010
0100
,  // measure 63
0010
0000
0000
0000
,  // measure 64
1000
0001
1000
0001
,  // measure 65
1000
0001
0001
0001
,  // measure 66
0100
0010
0100
0010
,  // measure 67
0100
0010
1000
0000
,  // measure 68
0001
0100
0001
1000
,  // measure 69
0001
1000
0010
0100
,  // measure 70
0010
1000
0001
1000
,  // measure 71
0100
0001
0100
1000
,  // measure 72
0010
0001
0010
1000
,  // measure 73
0100
0010
0001
0100
,  // measure 74
0010
1000
0001
1000
,  // measure 75
0001
0100
0010
0100
,  // measure 76
0001
0010
0001
1000
,  // measure 77
0100
1000
0010
0001
,  // measure 78
0010
1000
0100
0001
,  // measure 79
0010
0001
0100
1000
,  // measure 80
0001
0010
0001
0100
,  // measure 81
0010
0100
0001
0010
,  // measure 82
0001
0100
0010
0100
,  // measure 83
0001
0010
0001
1000
,  // measure 84
0010
0000
0100
0010
,  // measure 85
1000
0000
0001
0100
,  // measure 86
0001
0000
1000
0000
,  // measure 87
0001
0000
1000
0000
,  // measure 88
0010
0100
0010
1000
,  // measure 89
0000
0010
0000
0000
1000
0000
0001
0000
,  // measure 90
1001
0000
0000
0000
;

//---------------dance-single - ----------------
#NOTES:
     dance-single:
     :
     Beginner:
     3:
     0.174122,0.226959,0.000000,0.058841,0.000000,145.000000,145.000000,0.000000,7.000000,0.000000,0.000000,0.174122,0.226959,0.000000,0.058841,0.000000,145.000000,145.000000,0.000000,7.000000,0.000000,0.000000:
// measure 0
0000
0000
0000
0000
,  // measure 1
0000
0000
0000
0000
,  // measure 2
0000
0000
0000
0000
,  // measure 3
1000
0000
0000
0000
,  // measure 4
1000
0000
0000
0000
,  // measure 5
0001
0001
0001
0000
,  // measure 6
0100
0000
0000
0000
,  // measure 7
0100
0000
0100
0000
,  // measure 8
0010
0000
0010
0000
,  // measure 9
1000
0000
1000
0000
,  // measure 10
0001
0000
0000
0000
,  // measure 11
0001
0000
0100
0000
,  // measure 12
0010
0000
1000
0000
,  // measure 13
0010
0000
0100
0000
,  // measure 14
0001
0001
0001
0000
,  // measure 15
1000
0000
0100
0000
,  // measure 16
1000
0000
0010
0000
,  // measure 17
0001
0000
0010
0000
,  // measure 18
1000
1000
1000
0000
,  // measure 19
0001
0001
0000
0000
,  // measure 20
0100
0100
0000
0000
,  // measure 21
0010
0010
0000
0000
,  // measure 22
0100
0100
0000
0000
,  // measure 23
0001
0001
0000
0000
,  // measure 24
1000
1000
0000
0000
,  // measure 25
0100
0000
0100
0000
,  // measure 26
0010
0000
0010
0000
,  // measure 27
0001
1000
0001
0000
,  // measure 28
1000
0000
0000
0000
,  // measure 29
0010
0000
0100
0000
,  // measure 30
0010
0010
0000
0000
,  // measure 31
0100
0000
0100
0000
,  // measure 32
0001
0000
0001
0000
,  // measure 33
1000
0000
1000
0000
,  // measure 34
0100
0000
0100
0000
,  // measure 35
0010
0000
0000
0000
,  // measure 36
0010
0000
0000
0000
,  // measure 37
0001
0000
0000
0000
,  // measure 38
0001
0000
0000
0000
,  // measure 39
1000
0000
1000
0000
,  // measure 40
1000
0000
0000
0000
,  // measure 41
0001
0000
0001
0000
,  // measure 42
0001
0000
0000
0000
,  // measure 43
0100
0000
0100
0000
,  // measure 44
0100
0000
0000
0000
,  // measure 45
0010
0000
0010
0000
,  // measure 46
0010
0000
0100
0000
,  // measure 47
0200
0000
0000
0000
,  // measure 48
0310
0000
0000
0000
,  // measure 49
0010
0000
0000
0000
,  // measure 50
1000
0000
0000
0000
,  // measure 51
0002
0000
0000
0000
,  // measure 52
1003
0000
0000
0000
,  // measure 53
1000
0000
0000
0000
,  // measure 54
0010
0000
0000
0000
,  // measure 55
0020
0000
0000
0000
,  // measure 56
0130
0000
0000
0000
,  // measure 57
0100
0000
0000
0001
,  // measure 58
0000
0000
0000
0000
,  // measure 59
1000
0000
0000
0010
,  // measure 60
0000
0000
0000
0000
,  // measure 61
1000
0000
0000
0000
,  // measure 62
0100
0000
0000
0000
,  // measure 63
0020
0000
0000
0000
,  // measure 64
0031
0000
0001
0000
,  // measure 65
1000
0000
1000
0000
,  // measure 66
0010
0000
0010
0000
,  // measure 67
0100
0000
0100
0000
,  // measure 68
0001
0000
0001
0000
,  // measure 69
1000
0000
1000
0000
,  // measure 70
0010
0000
0010
0000
,  // measure 71
0100
0000
0100
0000
,  // measure 72
0001
0000
0001
0000
,  // measure 73
1000
0000
1000
0000
,  // measure 74
0100
0000
0100
0000
,  // measure 75
0010
0000
0010
0000
,  // measure 76
0001
0000
0000
0000
,  // measure 77
1000
0000
2000
0000
,  // measure 78
3001
0000
0001
0000
,  // measure 79
0100
0000
0200
0000
,  // measure 80
0310
0000
0010
0000
,  // measure 81
1000
0000
1000
0000
,  // measure 82
0001
0000
0001
0000
,  // measure 83
0010
0000
0000
0000
,  // measure 84
0010
0000
0100
0000
,  // measure 85
0100
0000
0000
0000
,  // measure 86
1000
0000
0001
0000
,  // measure 87
1000
0000
0000
0000
,  // measure 88
0002
0000
0000
0000
,  // measure 89
1003
0000
1000
0000
,  // measure 90
0001
0000
0000
0000
;

//---------------dance-single - ----------------
#NOTES:
     dance-single:
     :
     Medium:
     8:
     0.494748,0.529572,0.109277,0.000000,0.000000,412.000000,399.000000,13.000000,0.000000,0.000000,0.000000,0.494748,0.529572,0.109277,0.000000,0.000000,412.000000,399.000000,13.000000,0.000000,0.000000,0.000000:
// measure 0
0000
0000
0000
0000
,  // measure 1
0000
0000
0000
0000
,  // measure 2
0000
0000
0000
0000
,  // measure 3
1000
0001
1000
0001
,  // measure 4
0010
0001
0010
0001
,  // measure 5
0100
0010
0100
0010
,  // measure 6
1010
1000
0001
0100
,  // measure 7
0001
0100
0010
0100
,  // measure 8
0110
0010
1000
0100
,  // measure 9
0010
0001
0100
0010
,  // measure 10
0100
0010
0100
0010
0100
0010
0100
0000
,  // measure 11
0010
1000
0010
1000
,  // measure 12
0001
0100
0001
0000
1000
0000
0100
0000
,  // measure 13
1000
0100
1000
0000
0010
0000
0100
0000
,  // measure 14
0010
1000
0100
0010
,  // measure 15
0001
0100
0010
0110
,  // measure 16
0010
1000
0100
0011
,  // measure 17
0100
0010
1000
1010
,  // measure 18
0001
0000
0100
0000
0010
0100
0010
0000
,  // measure 19
1000
0100
0010
0001
,  // measure 20
0010
0001
0110
0010
,  // measure 21
1000
0100
1100
0001
,  // measure 22
0100
0000
0010
0000
0100
0010
0100
0000
,  // measure 23
0010
1000
0100
0001
,  // measure 24
0100
1000
0100
0001
,  // measure 25
0100
0010
0100
0010
,  // measure 26
1000
0100
1000
0001
,  // measure 27
1000
0001
0010
0100
,  // measure 28
0010
0000
0001
0000
1000
0000
0010
1000
,  // measure 29
0010
1000
0001
0100
,  // measure 30
0010
0100
0001
0010
,  // measure 31
0001
1000
0100
1000
,  // measure 32
0010
0000
0100
0000
0010
0000
0100
0010
,  // measure 33
0100
0010
1000
0100
,  // measure 34
0010
0001
0010
0000
0001
0100
0001
0000
,  // measure 35
0001
1000
0001
0000
1000
0000
0010
0000
,  // measure 36
0100
0010
1100
1000
,  // measure 37
0001
0100
0110
0010
,  // measure 38
1000
0000
0100
0000
0010
0100
0010
0000
,  // measure 39
1000
0100
0010
0001
,  // measure 40
1000
0001
1000
0100
,  // measure 41
1000
0100
0001
0100
,  // measure 42
1000
0000
0010
0000
0001
0010
0001
0000
,  // measure 43
1000
0000
0001
0000
1000
0001
1000
0000
,  // measure 44
0001
0000
0100
0000
0010
0100
0010
0000
,  // measure 45
0100
0010
0100
0000
0010
1000
0010
0000
,  // measure 46
1000
0001
1000
0000
0001
0100
0001
0000
,  // measure 47
0101
0000
0000
0000
,  // measure 48
0100
0010
1000
0010
,  // measure 49
0100
0001
0010
0001
,  // measure 50
1000
0001
0100
0010
,  // measure 51
0100
0001
0010
1000
,  // measure 52
0010
0001
0100
1000
,  // measure 53
0100
0001
0010
1000
,  // measure 54
0010
0001
0100
1000
,  // measure 55
0100
0001
0010
0100
,  // measure 56
1000
0001
1000
0000
0010
0100
0010
0000
,  // measure 57
0100
0010
0100
0000
0010
1000
0010
0000
,  // measure 58
1000
0001
1000
0000
0001
0100
0001
0000
,  // measure 59
0100
0010
0100
0000
0010
1000
0010
0000
,  // measure 60
1000
0100
1000
0000
0001
0000
0100
0000
,  // measure 61
0010
0100
0010
0000
1000
0100
1000
0000
,  // measure 62
0001
0100
0001
0000
0100
0010
0100
0000
,  // measure 63
0000
0110
0000
0101
0000
0000
0000
0000
,  // measure 64
1000
0100
1000
0000
0001
0100
0001
0000
,  // measure 65
0100
0010
0100
0010
0100
0010
0100
0000
,  // measure 66
0010
1000
0010
0000
1000
0000
0001
0000
,  // measure 67
0100
0010
0100
0000
0010
0000
1000
0000
,  // measure 68
0100
0000
0010
0000
0001
0100
0001
0000
,  // measure 69
1000
0000
0001
0000
1000
0001
1000
0000
,  // measure 70
0010
0000
0100
0000
0010
1000
0010
0000
,  // measure 71
1000
0000
0100
0000
0010
0001
0010
0000
,  // measure 72
0001
0000
0100
0000
0010
0100
0010
0000
,  // measure 73
1000
0100
1000
0100
1000
0000
0000
0000
,  // measure 74
0001
0000
0100
0000
0010
0100
0010
0000
,  // measure 75
1000
0000
0100
0000
0001
0100
1000
0000
,  // measure 76
0001
0000
0100
0000
0010
0100
0010
0000
,  // measure 77
1000
0000
0100
0001
0100
1000
0000
0000
,  // measure 78
0001
0000
0100
0000
0010
0100
0010
0000
,  // measure 79
1000
0000
0010
0000
0100
0010
0100
0000
,  // measure 80
0001
1000
0001
0000
1000
0001
1000
0000
,  // measure 81
0010
0100
0010
0100
0010
0000
0000
0000
,  // measure 82
1000
0100
0001
0100
,  // measure 83
1000
0010
0001
0010
,  // measure 84
1000
0001
0100
0001
,  // measure 85
0100
0010
1000
0100
,  // measure 86
0010
0000
0001
0100
,  // measure 87
0010
0100
0000
0010
,  // measure 88
1000
0010
0100
0001
,  // measure 89
0010
0000
0001
1000
0001
1000
0001
0000
,  // measure 90
1001
0000
0000
0000
;

//---------------dance-single - ----------------
#NOTES:
     dance-single:
     :
     Hard:
     10:
     0.880218,0.956172,0.798561,0.058841,0.290004,733.000000,638.000000,95.000000,7.000000,0.000000,0.000000,0.880218,0.956172,0.798561,0.058841,0.290004,733.000000,638.000000,95.000000,7.000000,0.000000,0.000000:
// measure 0
0000
0000
0000
0000
,  // measure 1
0000
0000
0000
0000
,  // measure 2
0000
0000
0000
0000
,  // measure 3
0110
0000
0000
1010
0000
0000
1001
0000
0000
0000
0001
0000
0100
0000
0010
0000
,  // measure 4
1100
0000
0000
1001
0000
0000
0011
0000
0000
0000
0110
0000
0000
0000
0100
0000
,  // measure 5
0001
0000
1000
0001
1000
0000
0010
0000
0100
0000
0001
0010
0001
0000
1000
0000
,  // measure 6
0110
0110
0000
1010
0000
1001
1001
0000
,  // measure 7
0001
0100
1000
0100
0001
1000
0100
0010
,  // measure 8
0101
0000
0000
0011
0000
0000
0110
0000
0000
0000
1100
0000
0000
0000
1001
0000
,  // measure 9
0001
0000
0100
0000
0010
0000
0000
0000
1000
0100
1000
0100
0010
0001
0010
0001
,  // measure 10
0100
0100
0010
0010
1000
0001
0110
0000
,  // measure 11
1010
0000
0000
1001
0000
0000
0011
0000
0000
0110
0000
0000
1100
0000
0000
0000
,  // measure 12
1001
0000
0000
0010
0000
0000
0001
0000
0000
1000
0000
0000
1010
0000
0000
0000
,  // measure 13
0110
0000
0000
0100
0000
0000
0001
0000
0000
1000
0000
0000
1001
0000
0000
0000
,  // measure 14
0101
0000
0110
0000
0010
0010
0010
1000
,  // measure 15
0100
0001
0100
1000
0010
0001
0010
0000
,  // measure 16
1000
0001
0000
0100
0001
0000
0010
0001
0000
1000
0001
0000
0100
0010
0000
0000
,  // measure 17
0010
1000
0100
0001
0100
1000
0010
0000
,  // measure 18
0101
0000
0011
0000
0100
0100
0100
0001
,  // measure 19
1000
0010
1001
0010
1000
0001
1000
0000
,  // measure 20
0001
0010
1001
0010
0001
1000
0001
0000
,  // measure 21
0100
0010
1100
0010
1000
0010
0100
0000
,  // measure 22
0011
0000
0110
0000
1000
1000
1000
0000
,  // measure 23
0101
0000
0000
0110
0000
0000
1010
0000
1001
0000
0000
0011
0000
0000
0110
0000
,  // measure 24
1100
0000
0000
1001
0000
0000
0101
0000
0101
0000
0000
0110
0000
0000
1010
0000
,  // measure 25
1000
0001
1000
0000
0101
0000
0000
0110
0000
0000
0011
0000
1000
0000
0100
0000
,  // measure 26
0001
0000
1000
0000
0010
0000
0000
0000
0100
0010
0100
0010
0100
0010
0100
0000
,  // measure 27
0001
0000
0000
0100
0000
0000
1000
0000
0000
0000
0100
0000
0001
0000
0010
0000
,  // measure 28
0001
0000
0000
0100
0000
0000
1010
0000
0000
0000
1001
0000
0000
0000
0100
0000
,  // measure 29
0010
0000
1000
0001
1000
0000
0001
0000
0100
0000
0010
0100
0010
0000
1000
0000
,  // measure 30
1001
1001
0000
0101
0000
0110
0110
0000
,  // measure 31
1000
0010
0001
0100
0001
0010
1000
0001
,  // measure 32
0100
0000
0000
0110
0000
0000
1010
0000
0000
0000
1001
0000
0101
0000
0000
0000
,  // measure 33
0100
0010
1000
0010
0100
0001
0010
0100
,  // measure 34
1000
1000
0100
0001
1000
0000
1001
0000
,  // measure 35
0001
0100
0000
1000
0100
0000
0001
0010
0000
1000
0010
0000
0001
1000
0000
0000
,  // measure 36
1000
0100
0000
0001
0100
0000
1000
0010
0000
0001
0010
0000
1000
0010
0000
0000
,  // measure 37
0001
0010
1000
0001
0100
1000
0001
0000
,  // measure 38
1001
0000
0101
0000
0010
0010
1010
1000
,  // measure 39
1000
0100
0001
0010
0001
0100
1000
0000
,  // measure 40
0001
0010
1000
0001
0100
1000
0001
0000
,  // measure 41
1000
0100
0001
1000
0010
0001
1000
0000
,  // measure 42
0011
0000
0110
0000
1100
1000
1001
0000
,  // measure 43
0101
0000
0110
0000
1010
1000
1100
0000
,  // measure 44
0110
0000
0011
0000
0101
0100
0110
0000
,  // measure 45
1000
0100
1000
0100
0010
0001
0010
0001
,  // measure 46
1000
0000
0100
0010
0100
0000
0010
0001
0010
0000
0001
1000
0001
0000
1000
0010
,  // measure 47
1000
0000
0000
0000
,  // measure 48
0001
0010
1000
0010
0001
0100
1000
0100
,  // measure 49
0001
0010
0100
1000
0001
0010
0001
1000
,  // measure 50
0010
0100
0010
1000
0001
0100
0010
0100
,  // measure 51
0001
1000
0100
1000
0010
0100
0010
0000
,  // measure 52
1000
0100
0001
0010
0001
0100
1000
0001
,  // measure 53
0010
0001
0100
0010
0100
0001
0010
0100
,  // measure 54
0010
0001
1000
0010
1000
0001
0100
0010
,  // measure 55
0100
0001
1000
0010
1000
0100
0010
0000
,  // measure 56
0001
0001
0100
0010
0100
0001
0010
1000
,  // measure 57
0010
0000
0010
0000
0001
0000
0100
0000
0010
1000
0010
0000
1000
0000
0000
0000
,  // measure 58
0001
0001
0100
1000
0010
1000
0100
0001
,  // measure 59
1000
0000
1000
0000
0010
0000
0100
0000
0010
1000
0010
0000
1000
0000
0000
0000
,  // measure 60
0110
0100
0001
0010
0001
1000
0010
0100
,  // measure 61
0010
1000
0100
0010
0001
0100
0010
0100
,  // measure 62
0001
0000
0010
0000
0001
0000
1000
0000
0010
1000
0010
1000
0010
1000
0010
0000
,  // measure 63
0000
0101
0000
0100
0010
1000
1001
0000
,  // measure 64
0100
0100
0001
0010
0001
1000
0010
0100
,  // measure 65
0010
0000
1000
0000
0100
0000
0010
0000
0001
1000
0001
1000
0001
0000
0000
0000
,  // measure 66
0100
0010
1000
0010
0100
0001
0010
0001
,  // measure 67
1000
0000
0100
0000
0001
0000
0100
0000
1000
0001
1000
0000
0001
0000
0000
0000
,  // measure 68
0010
0100
0001
0100
0010
1000
0100
1000
,  // measure 69
0001
0000
0100
0000
0010
0000
0100
0000
0001
0010
0001
0010
0001
0000
0000
0000
,  // measure 70
1000
0010
0100
0010
1000
0001
0010
0001
,  // measure 71
0100
0000
0010
0000
1000
0000
0010
0000
0100
0001
0100
0001
0100
0000
0000
0000
,  // measure 72
0001
1000
0010
1000
0100
1000
0010
0100
,  // measure 73
0010
0010
1000
1000
0001
0000
0101
0000
,  // measure 74
0100
0010
1000
0010
0100
0001
0010
1000
,  // measure 75
0010
0000
0001
0000
0100
0000
0010
0000
0100
0001
0010
0000
0100
0000
0000
0000
,  // measure 76
1000
0010
0100
0010
1000
0100
1000
0001
,  // measure 77
0010
0001
0100
0010
1010
0000
0110
0000
,  // measure 78
1000
0100
0001
0010
0001
0100
1000
0001
,  // measure 79
0010
0000
0001
0000
0100
0000
0010
0000
0100
0001
1000
0000
0100
0000
0000
0000
,  // measure 80
0010
0001
0100
0001
1000
0100
0010
0001
,  // measure 81
1000
1000
0100
0100
0011
0000
1001
0000
,  // measure 82
0101
0010
1000
0100
0011
0100
0010
1000
,  // measure 83
0110
0001
1000
0010
0101
0010
1000
0001
,  // measure 84
0202
0000
0000
0000
0303
0000
1000
0001
2000
0000
0000
0000
3001
0000
0100
0001
,  // measure 85
0100
0010
1000
0001
1000
0010
0100
0010
,  // measure 86
2000
0000
0000
0000
3001
0000
0100
0010
0200
0000
0000
0000
0310
0000
1000
0001
,  // measure 87
1000
0010
0100
0010
1100
0010
0001
0100
,  // measure 88
0010
0000
1000
0000
0001
0000
0010
0000
0001
1000
0001
1000
0001
1000
0001
0000
,  // measure 89
0000
0101
0000
0100
0010
0100
1010
0000
,  // measure 90
2002
0000
0000
0000
,  // measure 91
3003
0000
0000
0000
;
