#TITLE:Electric Angel;
#SUBTITLE:;
#ARTIST:Giga-P feat. Kagamine Rin & Kagamine Len;
#TITLETRANSLIT:;
#SUBTITLETRANSLIT:;
#ARTISTTRANSLIT:;
#GENRE:;
#CREDIT:;
#BANNER:;
#BACKGROUND:;
#LYRICSPATH:;
#CDTITLE:;
#MUSIC:Electric Angel.ogg;
#OFFSET:0.538;
#SAMPLESTART:39.063;
#SAMPLELENGTH:12.800;
#SELECTABLE:YES;
#DISPLAYBPM:150.000;
#BPMS:0.000=149.998,98.000=300.000,98.750=75.000,98.938=37.500,99.000=149.998;
#STOPS:;
#TIMESIGNATURES:0.000=4=4
;
#BGCHANGES:;
#KEYSOUNDS:;

//---------------dance-single - ----------------
#NOTES:
     dance-single:
     :
     Challenge:
     9:
     0.707,0.762,0.211,0.634,0.223,524.000,27.000,81.000,0.000,0.000,0.000,0.707,0.762,0.211,0.634,0.223,524.000,27.000,81.000,0.000,0.000,0.000: // measure 1
0000
0000
0000
0000
,  // measure 2
0000
0000
0000
0000
,  // measure 3
0000
0000
0000
0000
,  // measure 4
0000
0000
0000
0000
,  // measure 5
0000
0000
0000
0000
0000
0000
0000
0000
0000
0000
0000
0000
0001
0000
1000
0100
,  // measure 6
2000
0000
3001
0100
0002
0000
0103
0010
,  // measure 7
1000
1000
0001
0010
0200
0000
1300
0001
,  // measure 8
2000
3100
2000
3001
2000
3000
2000
3100
,  // measure 9
0220
0330
0022
0033
2002
0000
0000
3003
,  // measure 10
0002
0000
1003
0100
2000
0000
3001
0010
,  // measure 11
0100
0000
0010
0000
0001
0000
1000
0000
0020
0000
0000
0000
0230
0300
0200
0300
,  // measure 12
0020
0000
1030
0010
2000
0000
3001
0010
,  // measure 13
0200
0300
0200
0300
1000
0000
0010
0000
0200
0300
0200
0300
0010
0000
1000
0000
,  // measure 14
0200
0000
1300
0001
0200
0000
0301
1000
,  // measure 15
0100
0000
0010
0000
0100
0000
1000
0000
0002
0000
0000
0000
2003
3000
2000
3000
,  // measure 16
0020
0000
0000
0000
0000
0000
0130
0000
0000
0010
0000
0000
1000
0000
0000
0100
1000
0100
1000
0000
0000
0001
0000
0000
,  // measure 17
0010
0001
1000
0001
0200
0000
0010
0310
,  // measure 18
0100
0000
0010
0000
1000
0000
0001
0000
0010
0100
0010
0000
0001
0000
1000
0000
,  // measure 19
0010
0000
0100
0000
0001
0000
1000
0000
0100
0010
0100
0000
1000
0000
0001
0000
,  // measure 20
1000
0000
0100
0000
0010
0000
0100
0000
1000
0001
1000
0000
0010
0000
0100
0000
,  // measure 21
0001
0000
0010
0000
0100
0000
0010
0000
0001
0100
0001
0000
1000
0000
0010
0000
,  // measure 22
2000
3200
0320
0032
,  // measure 23
2003
0000
3001
0100
0010
0010
0100
0001
,  // measure 24
1000
0000
0001
0000
0100
0010
1000
0010
,  // measure 25
0100
0000
0000
0000
0000
0000
0000
0000
0100
0000
0000
0000
0000
0000
0000
0000
0001
0000
0000
0000
0000
0000
0000
0000
0001
0000
0000
0000
0000
0000
0000
0000
2002
0000
0000
0000
0000
0000
0000
0000
0000
0000
0000
0000
0000
0000
0000
3003
1000
0000
0000
0000
0000
0000
0000
0000
0100
0000
0000
0000
0000
0000
0000
0000
,  // measure 26
0011
0000
0001
0100
1010
0000
1000
0100
,  // measure 27
0010
0010
0100
1000
1010
0000
1000
0010
,  // measure 28
0101
0000
0001
0010
1100
0000
1000
0000
,  // measure 29
0100
0100
0010
0010
0011
0000
0001
0100
,  // measure 30
0110
0000
1000
0100
0110
0000
0010
0001
,  // measure 31
1000
0010
1000
0100
0110
0000
0010
0001
,  // measure 32
1000
0001
0010
0001
0101
0000
0100
0010
,  // measure 33
1010
0000
1000
0000
0000
0000
0100
1000
0100
0000
0000
0000
0010
0001
0010
0001
,  // measure 34
1000
0000
0010
0000
0000
0100
0000
0000
0002
0003
0000
0002
0003
0000
0002
0003
,  // measure 35
1000
0100
0010
0100
2000
3010
2000
3010
,  // measure 36
2000
0000
3100
2000
0000
3100
0020
0000
,  // measure 37
0031
0000
0000
1000
0010
0000
0000
1000
0100
0000
0010
0000
0100
1000
0100
0000
,  // measure 38
0020
0000
0030
0000
0020
0000
0030
0000
0010
0000
0001
0000
1000
0010
1000
0000
,  // measure 39
0010
0000
0100
0000
0001
0000
1000
0100
1000
0100
1000
0000
0002
0203
0320
0230
,  // measure 40
0301
0000
1000
0000
0100
0000
0000
1000
0010
0100
0010
0000
1000
0000
0001
0000
,  // measure 41
0011
0000
0010
0000
0000
0000
0001
0100
0001
0000
1000
0000
0010
0000
1000
0000
,  // measure 42
0100
0000
0000
0000
1000
0000
0000
0000
0001
0010
0001
0000
1000
0000
0010
0000
,  // measure 43
0100
0010
1000
0002
0000
0013
0100
0010
,  // measure 44
0100
0000
1000
0000
0000
0001
0000
0100
0000
0010
0000
0100
0000
0001
0000
1000
,  // measure 45
0100
0010
0100
0000
1000
0000
0001
0000
0100
0010
0100
0000
0001
0000
1000
0000
,  // measure 46
0020
0130
0001
1000
0100
1000
0001
0100
,  // measure 47
0001
0010
0100
2000
0000
3001
0100
0001
,  // measure 48
2000
3000
0000
2000
3000
0000
2000
3000
0020
0000
0130
0000
0010
0000
1000
0000
,  // measure 49
1001
0001
0010
0100
0010
0001
1000
0010
,  // measure 50
1010
1000
0100
0010
0001
0100
0010
1000
,  // measure 51
0100
0000
0000
1000
0100
1000
0000
0001
0000
0010
0000
0001
1000
0000
0010
0000
,  // measure 52
0100
0000
0001
0100
0001
0000
1000
0100
1000
0000
0001
0100
0001
0000
1000
0000
,  // measure 53
0010
0000
0100
0000
0010
0000
1000
0000
0100
0000
0010
0000
0001
0010
0100
0010
,  // measure 54
0001
1000
0010
0100
0001
0010
0100
1000
,  // measure 55
0010
0000
0000
1000
0010
1000
0000
0001
0000
0100
0000
0001
1000
0000
0100
0000
,  // measure 56
0010
0000
0100
0000
1000
0001
1000
0000
0010
0000
1000
0001
1000
0000
0010
0000
,  // measure 57
1000
0001
1000
0000
0100
0000
0010
0000
0001
0100
0000
0001
0100
0000
0010
0000
,  // measure 58
2000
0000
0000
0000
0000
0000
3001
1000
,  // measure 59
2010
0000
3001
0010
0002
0000
1003
0100
,  // measure 60
0010
0010
0100
1000
0002
0000
0103
0010
,  // measure 61
2000
0000
3010
0100
0002
0000
1003
0100
,  // measure 62
1100
1100
1000
0001
0020
0000
0031
0010
,  // measure 63
0110
0000
1000
0010
0110
0000
0100
0001
,  // measure 64
1000
0100
0010
0100
1100
0000
1000
0001
,  // measure 65
0100
0010
0100
0001
0101
0000
0100
0001
,  // measure 66
2001
3200
0320
0000
,  // measure 67
0031
1000
0010
0100
0010
1000
0100
0020
,  // measure 68
0000
0031
0010
0001
1000
0100
1000
0010
,  // measure 69
0100
0010
1000
0001
0010
0100
0010
0002
,  // measure 70
0000
0103
0010
1000
0001
0010
0100
2000
,  // measure 71
0000
0000
3100
0000
0010
0000
0002
0000
0000
0000
1003
0010
1000
0000
0001
0000
,  // measure 72
0200
0300
0200
0300
0100
0010
1000
0001
,  // measure 73
0010
0100
1000
0001
1000
0010
0100
0010
,  // measure 74
1010
0000
1000
0000
0001
0000
0001
0000
1000
0100
1000
0000
0001
0000
0010
0000
,  // measure 75
0100
0000
2000
0000
0000
0000
0000
0000
0000
0000
0000
0000
0000
0000
3001
0100
,  // measure 76
0001
2000
0000
0000
0000
0000
0000
0000
,  // measure 77
3001
0000
0020
0000
0000
0000
0000
0000
0000
0000
0000
0000
0000
0000
0130
0010
,  // measure 78
0100
2000
0000
3002
0000
0203
0000
0310
;

//---------------dance-double - J. Berkowitz----------------
#NOTES:
     dance-double:
     J. Berkowitz:
     Challenge:
     12:
     0.836,1.000,0.102,0.345,0.803,690.000,13.000,44.000,8.000,0.000,0.000,0.836,1.000,0.102,0.345,0.803,690.000,13.000,44.000,8.000,0.000,0.000:
00000000
00000000
00000000
00000000
,
00000000
00000000
00000000
00000000
,
00000000
00000000
00000000
00000000
,
00000000
00000000
00000000
00000000
,
00000000
00000000
00000000
00000000
,
00010000
00000000
00001000
00000000
00100000
00010000
10000000
00000000
,
00100000
00000000
00000000
00000000
01000000
00000000
00000000
00010000
10000000
00000000
01000000
00000000
10000000
00000000
00000000
00000000
,
10010000
00000000
00000000
00000000
01001000
00000000
00000000
00001000
00010000
00000000
00000100
00000000
00001000
00000000
00000010
00000000
,
00000110
00000000
00000000
00000000
00001001
00000000
00000000
00000000
00012000
00000000
00000000
00000000
00103000
00010000
00100000
01000000
,
20000000
00000000
30100000
01000000
00020000
00000000
10030000
01000000
,
00100000
10000000
00100000
01000000
20000000
00000000
30100000
0M1M0000
,
00020000
00000000
01030000
00001000
00020000
00000000
00030100
00001000
,
00000001
00000100
00000001
00000000
00000010
00000000
00000100
00001000
00000001
00000000
00000100
00000010
00000100
00000001
00000010
00000100
,
00002000
00000000
00003010
00010000
00002000
00000000
00103000
00010000
,
01000000
10000000
01000000
00010000
20000000
00000000
31000000
M1M00000
,
00020000
00000000
00000000
00000000
00000000
00000000
00130000
00000000
00000000
00001000
00000000
00000000
00000010
00000000
00000000
00000100
00001000
00000100
00001000
00000000
00000000
00000001
00000000
00000000
,
00000100
00000000
00000000
00000010
00000000
00000000
00000100
00000000
00000000
00000001
00000000
00000000
00001000
00000000
00000100
00000000
00010000
00000000
00001000
00000000
00100000
00000000
00010000
00000000
,
10000000
00000000
00000000
00100000
00000000
00000000
01000000
00000000
00000000
00010000
00000000
00000000
10000000
00000000
00000000
01000000
00000000
00000000
00100000
00000000
00000000
00010000
00000000
00000000
01000000
00000000
00001000
00000000
01000000
00000000
00001000
00000000
00000000
00010000
00000000
00000000
00000100
00000000
00000000
00001000
00000000
00000000
00000001
00000000
00000000
00000100
00000000
00000000
,
00000010
00000000
00000000
00000100
00000000
00000000
00000001
00000000
00000000
00001000
00000000
00000000
00000100
00000000
00000000
00000010
00000000
00000000
00000001
00000000
00000000
00001000
00000000
00000000
00000010
00000000
00010000
00000000
00000010
00000000
00010000
00000000
00000000
00001000
00000000
00000000
00100000
00000000
00000000
00010000
00000000
00000000
10000000
00000000
00000000
00010000
00000000
00000000
,
01000000
00000000
00000000
00100000
00000000
00000000
10000000
00000000
00000000
00100000
00000000
00000000
01000000
00000000
00000000
00010000
00000000
00000000
10000000
00000000
00000000
00010000
00000000
00000000
00100000
00000000
00001000
00000000
00100000
00000000
00001000
00000000
00000000
00010000
00000000
00000000
00000100
00000000
00000000
00001000
00000000
00000000
00000001
00000000
00000000
00000100
00000000
00000000
,
00000010
00000000
00000000
00000100
00000000
00000000
00000001
00000000
00000000
00001000
00000000
00000000
00000100
00000000
00000000
00010000
00000000
00000000
00001000
00000000
00000000
00100000
00000000
00000000
00010000
00000000
00000000
10000000
00000000
00000000
00010000
00000000
01000000
00000000
00010000
00000000
01000000
00000000
00000000
00100000
00000000
00000000
10000000
00000000
00000000
00010000
00000000
00000000
,
10000000
01000000
00100000
00010000
10000000
00100000
00010000
00001000
00010000
00000100
00001000
00000001
00000100
00000010
00000100
00000001
,
00001000
00000100
00000010
00000100
00001000
00000001
00000100
00001000
00010000
00001000
00100000
00010000
10000000
00100000
01000000
00010000
,
00100000
00000000
00001000
00010000
00000100
00000000
00000100
00001000
00000010
00000000
00000010
00000100
00000001
00000000
00000001
00000010
,
00000100
00001000
00000100
00010000
00201000
00000000
01300000
10000000
,
00200000
00000000
10300000
01000000
00020000
00000000
00031000
01000000
,
00100000
00001000
00000010
00010000
00000200
00000000
00000310
00000001
,
00000200
00000000
00001300
00010000
00020000
00000000
02030000
00000000
,
13000000
00100000
01000000
00000000
01002000
00000000
00103000
00010000
,
02000000
00000000
03000100
00001000
00000020
00000000
00000130
00000001
,
00000010
00001000
00010000
01000000
00200000
00000000
00310000
01000000
,
10000000
01000000
00010000
00100000
00002000
00000000
00013000
00000010
,
00000100
00000000
00000100
00000000
00000101
00000000
00000001
00000010
00000100
00000000
00010000
00000000
00001000
00010000
00001000
00010000
,
00001000
00000000
00100000
00010000
00100000
00001000
00010000
00001000
01000000
00000000
00010000
01000000
00100000
00000000
10000000
00000000
,
01000000
00000000
00010000
00000000
00001000
00000000
01000000
00010000
10000000
00000000
01000000
00000000
00100000
00000000
00010000
00000000
,
02000000
00000000
00000000
00000000
00000000
00000000
03001000
00000000
00000000
00020000
00000000
00000000
00000000
00000000
00000000
00030100
00000000
00000000
00001000
00000100
00001000
00000100
00001000
00000100
,
00001000
00000000
00000001
00000000
00000100
00000000
00000010
00000000
00000000
00000000
00000100
00000000
00000001
00000000
00001000
00000000
00000100
00000000
00010000
00000000
00001000
00000000
00000000
00000000
01000000
00000000
00010000
01000000
00010000
00000000
10000000
00000000
,
02000000
00000000
00000000
00000000
00000000
00000000
00000000
00000000
00000000
03000000
00000000
00000000
02000000
00000000
00000000
00000000
00000000
00000000
00000000
00000000
00000000
03100000
00000000
00000000
01000000
00000000
00000000
00000000
00000000
00000000
10000000
00000000
00000000
00000000
00000000
00000000
00010000
00000000
01000000
00000000
00010000
00000000
01000000
00000000
00000000
00000000
00000000
00000000
,
00020000
00000000
00230000
00000000
20300000
00000000
30100000
01000000
00010000
00001000
00010000
00000000
00001000
00000100
00000010
00000001
,
00000010
00000000
00000000
00000000
00000000
00000000
00001000
00000000
00000000
00000000
00000000
00000000
00000001
00000000
00000100
00000000
00000001
00000000
00000100
00000000
00000001
00000000
00000100
00000000
00000001
00000000
00000000
00001000
00000000
00000000
00000100
00000000
00000000
00000010
00000000
00000000
00000001
00000000
00000000
00000000
00000000
00000000
00001000
00000000
00000010
00000000
00001000
00000000
,
00000010
00000000
00000000
00000000
00000000
00000000
00010000
00000000
00000000
00001000
00000000
00000000
00100000
00000000
00000000
00000000
00000000
00000000
00100000
00000000
00000000
00010000
00000000
00000000
10000000
00000000
00000000
00000000
00000000
00000000
00100000
00000000
00000000
00000000
00000000
00000000
01000000
00000000
00010000
00000000
10000000
00000000
00100000
00000000
10000000
00000000
00010000
00000000
,
00200000
00000000
00000000
00000000
02300000
00000000
00000000
00000000
03010000
00001000
01000000
00000000
00010000
00000000
00100000
00000000
,
00001000
00010000
00001000
00000200
00000000
00000310
00001000
00000001
,
00000010
00000000
00000100
00001000
00000001
00000100
00000000
00000010
00000000
00001000
00000000
00000100
00000000
00010000
00000000
00001000
,
00000100
00001000
00010000
00001000
00100000
00010000
10000000
00100000
00010000
00100000
10000000
00010000
00100000
01000000
10000000
00100000
,
00010000
00001000
00000100
00000010
00001000
00000001
00000010
00000100
,
00001000
00000000
00000010
00000000
00000100
00000000
00002000
00000000
00000000
00003000
00001000
00000000
00010000
00000000
00001000
00000000
,
00100000
00000000
00000000
00000000
00000000
00000000
00100000
00000000
00000000
00000000
00000000
01000000
10000000
00000000
00000000
00000000
00100000
00000000
00000000
00000000
01000000
00000000
00000000
00000000
00010000
00000000
00000000
00000000
00100000
00000000
00000000
00000000
,
01100000
00000000
01000000
10000000
00010000
00000000
00010000
01000000
00001000
00000000
00001000
00010000
00000100
00000000
00001000
00000001
,
00000100
00000010
00001000
00000100
00000010
00000001
00001000
00000010
00010000
00001000
00100000
00010000
10000000
00000000
00100000
01000000
,
00010000
00000000
00000000
00000000
10000000
00000000
01000000
00000000
00010000
00000000
01000000
00000000
00000000
00000000
01000000
00000000
00000000
00000000
01000000
00000000
00000000
00000000
01000000
10000000
01000000
00000000
10000000
00000000
01000000
00000000
10000000
00000000
,
00010000
00000000
01000000
00010000
00100000
00000000
00100000
00001000
00010000
00000000
00010000
00000010
00001000
00000000
00001001
00000000
,
00000001
00000000
00000000
00000010
00000000
00000000
00000100
00000000
00000000
00001000
00000000
00000000
00000010
00000000
00000000
00000100
00000000
00000000
00000001
00000000
00000000
00001000
00000000
00000000
00000100
00000000
00000000
00001000
00000000
00000000
00000100
00000000
00000000
00010000
00000000
00000000
00001000
00000000
00010000
00000000
00001000
00000000
00100000
00000000
00010000
00000000
00100000
00000000
,
00001000
01000000
00010000
01000000
00100000
10000000
00100000
01000000
00010000
10000000
00010000
00100000
01000000
00000000
10000000
00010000
,
01000000
00000000
00000000
00000000
00010000
00000000
00100000
00000000
10000000
00000000
00100000
00000000
00000000
00000000
00100000
00000000
00000000
00000000
00100000
00000000
00000000
00000000
00100000
00010000
00100000
00000000
00010000
00000000
00100000
00000000
00010000
00000000
,
01000000
00000000
00100000
10000000
00000000
01000000
00100000
00000000
00010000
00000000
01000000
01000000
00010000
00000000
00100000
00000000
,
00001000
00000000
00010000
00000000
00000010
00000000
00000100
00000000
00001000
00000100
00000000
00000010
00001000
00000100
00000000
00000010
,
00002000
00000000
00000000
00000000
00000000
00000000
00013000
00001000
,
00100010
00000000
00100000
00001000
02000000
00000000
03010000
01000000
,
00100000
10000000
00100000
01000000
00020000
00000000
00130000
00001000
,
00020000
00000000
00000000
00000000
00030010
00000000
00001000
00000000
00000200
00000000
00000000
00000000
00000310
00000000
00000010
00000001
,
00001000
00000000
00001000
00000000
00000010
00000000
00010000
00001000
00100000
00001000
00010000
00000000
00001000
00000000
01000000
00000000
,
01020000
00000000
00130000
01000000
20000000
00000000
30010000
01000000
,
00100000
00010000
00001000
00000100
00000020
00000000
00001030
00000100
,
00000001
00000100
00000010
00000001
00000200
00000000
00000310
00001000
,
00001100
00000000
00000100
00010000
00001000
00000000
00001000
00100000
00010000
00000000
00010000
10000000
00100000
00000000
01000000
00010000
,
00100000
00000000
01000000
M0M00000
01000000
00000000
00010000
00000000
00100000
00000000
00001000
00000000
00010000
00000010
00010000
00000000
,
00000000
00000100
00001000
00000010
00000100
00000001
00001000
00000010
,
00001000
00000000
00000100
0000M0M0
00000100
00000000
00000001
00000000
00000010
00000000
00000100
00000000
00001000
00000001
00000100
00000000
,
00000000
00000010
00000100
00000001
00000010
00001000
00010000
02000000
,
00000000
00000000
03100000
00000000
00010000
00000000
02000000
00000000
00000000
00000000
03100000
10000000
00010000
01000000
00010000
00000000
,
10000000
01000000
10000000
01000000
10000000
00100000
01000000
00010000
,
00100000
10000000
00100000
01000000
00010000
00001000
00010000
00000100
,
00001000
00000000
00000010
00000100
00000001
00000000
00000001
00000010
00000100
00001000
00000001
00000100
00000010
00001000
00000001
00000010
,
00000100
00000000
00001000
00000000
00000000
00000000
00000000
00000000
00000000
00000000
00000000
00000000
00000000
00000000
00000100
00010000
,
00001000
01000000
00000000
00000000
00000000
00000000
00000000
00000000
,
01000000
00000000
00010000
00000000
00000000
00000000
00000000
00000000
00000000
00000000
00000000
00000000
00000000
00000000
01000000
00001000
,
00010000
00000100
00000000
00000100
00000000
00000100
00000000
00000100
;

//---------------dance-single - ----------------
#NOTES:
     dance-single:
     :
     Hard:
     8:
     0.591,0.579,0.008,0.352,0.149,482.000,1.000,45.000,0.000,0.000,0.000,0.591,0.579,0.008,0.352,0.149,482.000,1.000,45.000,0.000,0.000,0.000: // measure 1
0000
0000
0000
0000
,  // measure 2
0000
0000
0000
0000
,  // measure 3
0000
0000
0000
0000
,  // measure 4
0000
0000
0000
0000
,  // measure 5
0000
0000
0000
0000
0000
0000
1000
0010
,  // measure 6
2000
0000
3001
0100
0002
0000
1003
0010
,  // measure 7
1000
1000
0001
0010
0002
0000
1003
0001
,  // measure 8
2000
3100
2000
3001
2000
3000
2000
3100
,  // measure 9
0020
0032
2003
0000
,  // measure 10
3001
0000
1000
0100
1000
0000
0001
0100
,  // measure 11
0010
0100
0010
0100
0001
0000
1000
1000
,  // measure 12
0010
0000
1000
0010
1000
0000
0001
0010
,  // measure 13
0001
0001
1000
0010
1000
1000
0010
1000
,  // measure 14
0010
0000
0100
0001
0100
0000
0001
1000
,  // measure 15
0100
0010
0100
1000
0001
0000
1000
1000
,  // measure 16
0010
0000
0000
0000
0100
0000
0010
0000
1000
0000
0100
1000
0100
0000
0010
0000
,  // measure 17
0100
1000
0001
1000
0020
0000
0100
0130
,  // measure 18
0010
0000
1000
0000
0001
0000
0010
0100
,  // measure 19
1000
0100
0010
0001
1000
0000
0010
1000
,  // measure 20
0001
0000
0010
0100
1000
0100
0010
0001
,  // measure 21
1000
0000
0010
0000
0100
0000
0010
0000
1000
0100
1000
0000
0001
0000
0010
0000
,  // measure 22
0001
0000
1000
0010
1000
0000
0001
0000
,  // measure 23
1000
0000
0100
0010
0100
1000
0010
0100
,  // measure 24
0010
1000
0001
1000
0001
0010
0100
0010
,  // measure 25
0001
0000
0000
0000
0000
0000
0000
0000
0001
0000
0000
0000
0000
0000
0000
0000
1000
0000
0000
0000
0000
0000
0000
0000
1000
0000
0000
0000
0000
0000
0000
0000
2002
0000
0000
0000
0000
0000
0000
0000
0000
0000
0000
0000
0000
0000
0000
3003
1000
0000
0000
0000
0000
0000
0000
0000
0100
0000
0000
0000
0000
0000
0000
0000
,  // measure 26
0020
0000
0031
0100
0020
0000
1030
0100
,  // measure 27
0010
0010
0100
1000
0002
0000
0103
0001
,  // measure 28
2000
0000
3001
0010
0200
0000
1300
0000
,  // measure 29
0100
1000
0001
1000
0020
0000
0130
0010
,  // measure 30
2000
0000
3100
0010
0002
0000
0013
0100
,  // measure 31
1000
0010
0100
0010
2000
0000
3001
0010
,  // measure 32
0100
0100
1000
0010
0200
0000
0301
1000
,  // measure 33
0200
2300
3200
0000
,  // measure 34
1300
0000
0010
0000
0000
0100
0000
0000
0001
0000
0000
0010
0000
0000
0001
0000
,  // measure 35
1000
0100
0010
0100
1000
0010
1000
0010
,  // measure 36
2000
0000
0100
3200
0000
1000
2300
0000
,  // measure 37
3001
0000
0000
0100
0010
0000
0000
0100
0010
0000
1000
0000
0010
0000
0100
0000
,  // measure 38
0001
0000
0001
0000
0001
1000
0100
0000
,  // measure 39
1000
0000
0000
0000
0100
0000
0000
0000
0010
0000
0001
0000
0000
1000
0100
1000
,  // measure 40
0100
0000
0010
0000
0001
0000
0000
0100
0001
0100
0001
0000
0100
0000
0010
0000
,  // measure 41
1000
0001
0100
0001
1000
0001
0100
0001
,  // measure 42
1000
0000
0000
0000
0100
0000
0000
0000
0010
0001
0010
0000
0100
0000
1000
0000
,  // measure 43
0001
0100
0010
0200
0000
0301
1000
0001
,  // measure 44
0100
0000
0001
0000
0000
1000
0000
0010
0000
1000
0000
0001
0000
1000
0000
0010
,  // measure 45
0100
0001
0100
0000
0010
1000
0010
0000
,  // measure 46
1000
0100
0010
0001
1000
0100
0010
0100
,  // measure 47
1000
0001
0100
0002
0000
1003
0001
1000
,  // measure 48
0010
0000
0000
0100
0000
0000
0010
0000
1000
0000
0100
0000
0010
0000
0100
0000
,  // measure 49
1000
0001
1000
0001
0100
0010
0100
0010
,  // measure 50
1000
0001
0010
0100
,  // measure 51
1000
0000
0000
0000
0001
0100
0000
0010
0000
0100
0000
0001
0100
0000
0001
0000
,  // measure 52
1000
0000
0000
1000
0100
0000
0000
0100
0010
0000
0000
0010
0001
0000
1000
0000
,  // measure 53
0010
0100
0010
1000
0100
0010
0100
1000
,  // measure 54
0001
1000
0100
0010
,  // measure 55
0001
0000
0000
0000
1000
0010
0000
0100
0000
0010
0000
1000
0010
0000
1000
0000
,  // measure 56
0100
0010
0100
0000
1000
0001
1000
0001
,  // measure 57
0100
0010
0100
0000
0001
0000
1000
0000
0100
0010
0000
0100
0000
0010
0100
0000
,  // measure 58
2000
0000
0000
0000
0000
0000
3001
0100
,  // measure 59
0001
0000
1000
0100
1000
0000
0001
0100
,  // measure 60
0010
0100
0001
1000
0100
0000
0010
0100
,  // measure 61
0010
0000
0100
1000
0100
0000
1000
0001
,  // measure 62
0100
0100
0010
0100
0001
0000
1000
0100
,  // measure 63
0020
0000
0031
0100
0020
0000
1030
0100
,  // measure 64
0010
0100
1000
0001
0200
0000
0310
0100
,  // measure 65
0001
0001
1000
0100
0020
0000
0130
1000
,  // measure 66
0002
0203
0320
0000
,  // measure 67
1030
0100
1000
0001
1000
0100
1000
0001
,  // measure 68
0000
0100
0010
0100
0001
1000
0100
0010
,  // measure 69
0100
0000
1000
0000
0001
0000
1000
0000
0100
0000
1000
0000
0001
0010
0001
0000
,  // measure 70
0000
1000
0010
1000
0001
0010
0100
0010
,  // measure 71
0000
0000
0001
0000
0100
0000
0001
0000
0000
0000
1000
0010
1000
0000
0001
0000
,  // measure 72
1000
0000
0001
0000
1000
0010
0100
0001
,  // measure 73
1000
0100
1000
0001
0100
0001
1000
0010
,  // measure 74
0100
0000
0010
0000
1000
0000
0100
0000
0010
0001
0010
0000
0100
0000
1000
0000
,  // measure 75
0001
0000
2000
0000
0000
0000
0000
0000
0000
0000
0000
0000
0000
0000
3001
0100
,  // measure 76
0001
2000
0000
0000
0000
0000
0000
0000
,  // measure 77
3001
0000
0020
0000
0000
0000
0000
0000
0000
0000
0000
0000
0000
0000
0130
0010
,  // measure 78
0100
2000
0000
3002
0000
2003
0000
3001
;

//---------------dance-single - ----------------
#NOTES:
     dance-single:
     :
     Medium:
     5:
     0.370,0.427,0.070,0.078,0.008,312.000,9.000,10.000,0.000,0.000,0.000,0.370,0.427,0.070,0.078,0.008,312.000,9.000,10.000,0.000,0.000,0.000: // measure 1
0000
0000
0000
0000
,  // measure 2
0000
0000
0000
0000
,  // measure 3
0000
0000
0000
0000
,  // measure 4
0000
0000
0000
0000
,  // measure 5
0000
0000
0000
0000
0000
0000
1000
0010
,  // measure 6
1000
0000
0001
0100
0001
0000
1000
0010
,  // measure 7
1000
0000
0001
0000
1000
0000
0001
0010
,  // measure 8
0001
1000
0100
0010
,  // measure 9
0001
0001
0002
0000
,  // measure 10
1003
0001
1000
0010
,  // measure 11
1000
0000
0001
0000
0010
0000
0100
0100
,  // measure 12
0100
1000
0001
0100
,  // measure 13
0001
0100
0001
0000
0100
0001
0100
0000
,  // measure 14
0001
1000
0001
0010
,  // measure 15
0001
0000
1000
0000
0010
0000
0100
0100
,  // measure 16
0100
0000
0010
0000
1000
0100
1000
0000
,  // measure 17
0001
0010
0100
0000
,  // measure 18
1000
0000
0001
0000
1000
0000
0001
0100
,  // measure 19
0001
0100
0001
0100
0001
0000
1000
0100
,  // measure 20
1000
0000
0001
0010
0001
0000
1000
0000
,  // measure 21
0001
0100
0001
0100
0001
0000
1000
0010
,  // measure 22
1000
0100
0010
0001
,  // measure 23
1000
0000
0001
0000
0100
0010
0100
0010
,  // measure 24
0100
0001
1000
0100
,  // measure 25
0010
0001
0010
0001
2000
0000
3001
0000
,  // measure 26
0001
1000
1000
0001
,  // measure 27
0010
0100
0010
0100
0010
0000
0001
0000
,  // measure 28
0001
1000
1000
0010
,  // measure 29
0100
0010
0100
0010
0100
0000
0001
0000
,  // measure 30
0001
1000
1000
0100
,  // measure 31
0010
0001
0010
0001
0010
0000
0001
0000
,  // measure 32
1000
0010
1000
0000
0001
0100
0001
0000
,  // measure 33
1000
0001
2000
0000
,  // measure 34
3001
0000
0000
0000
1000
0000
0000
0000
0010
0000
0000
1000
0000
0000
0010
0000
,  // measure 35
1000
0100
1000
0000
,  // measure 36
0001
0000
0000
0001
0000
0000
0001
0000
,  // measure 37
1000
1000
1000
1000
,  // measure 38
0001
0000
0001
0000
0001
0100
0001
0000
,  // measure 39
0100
0010
0100
0010
,  // measure 40
1000
0000
0100
0000
0010
0001
0010
0000
,  // measure 41
0100
1000
0000
0000
0200
0000
0000
0000
,  // measure 42
1300
0000
0001
0000
0100
0010
0100
0000
,  // measure 43
0001
1000
0000
0100
,  // measure 44
1000
0000
0000
0001
0000
0010
0000
0001
,  // measure 45
1001
0000
1001
0000
,  // measure 46
0101
0100
0001
1000
,  // measure 47
0010
0000
1000
1000
0000
0000
0001
0000
,  // measure 48
1000
0000
0000
0100
0000
0000
1000
0000
0100
0000
0000
0000
0010
0000
0000
0000
,  // measure 49
0100
1000
0001
1000
,  // measure 50
0001
0001
1000
1000
,  // measure 51
0010
0110
0000
0100
,  // measure 52
0001
1000
0001
1000
,  // measure 53
0100
0010
0100
1000
,  // measure 54
0001
0001
1000
1000
,  // measure 55
0100
0110
0000
0010
,  // measure 56
0001
1000
0001
0100
,  // measure 57
0010
1000
0100
1000
,  // measure 58
0002
0000
0000
1003
,  // measure 59
1001
0000
0001
0000
,  // measure 60
0100
0010
0100
0000
,  // measure 61
0001
0000
1000
0000
,  // measure 62
0100
0100
1000
0100
1000
0000
0001
0000
,  // measure 63
0001
1000
1000
0010
,  // measure 64
0100
0010
0100
0010
0100
0000
0001
0000
,  // measure 65
1000
0100
1000
0000
0001
0100
0001
0000
,  // measure 66
1001
0000
1001
0000
2002
0000
0000
3003
,  // measure 67
0001
0000
0100
0000
0010
0000
0000
0010
,  // measure 68
0000
1000
0100
1000
,  // measure 69
0001
0000
0010
0000
0100
0000
0000
0100
,  // measure 70
0000
0000
1000
0000
0001
0010
0001
0010
,  // measure 71
0000
0000
0001
0001
0000
0000
1000
0000
,  // measure 72
0100
0000
0100
0000
0100
0010
0100
0010
,  // measure 73
0100
1000
0001
0100
,  // measure 74
0010
1000
0010
1000
,  // measure 75
0001
0002
0000
0000
0000
0000
0000
1003
,  // measure 76
0010
2000
0000
0000
0000
0000
0000
0000
,  // measure 77
3100
0200
0000
0000
0000
0000
0000
0310
,  // measure 78
0100
0010
0000
0010
0000
0100
0000
0100
;

//---------------dance-single - ----------------
#NOTES:
     dance-single:
     :
     Easy:
     4:
     0.255,0.275,0.047,0.070,0.000,213.000,6.000,9.000,0.000,0.000,0.000,0.255,0.275,0.047,0.070,0.000,213.000,6.000,9.000,0.000,0.000,0.000: // measure 1
0000
0000
0000
0000
,  // measure 2
0000
0000
0000
0000
,  // measure 3
0000
0000
0000
0000
,  // measure 4
0000
0000
0000
0000
,  // measure 5
0000
0000
0000
0000
,  // measure 6
1000
0000
0001
0000
,  // measure 7
1000
0100
1000
0000
,  // measure 8
0001
0000
0100
0000
,  // measure 9
0010
0010
0010
0000
,  // measure 10
1000
0000
0001
0000
,  // measure 11
1000
0100
1000
0000
,  // measure 12
0001
0000
1000
0000
,  // measure 13
0001
0010
0001
0000
,  // measure 14
0100
0000
0010
0000
,  // measure 15
1000
0100
1000
0000
,  // measure 16
0001
0000
0010
0000
,  // measure 17
0001
0100
0001
0000
,  // measure 18
1000
0000
0100
0000
,  // measure 19
1100
0000
1000
0000
,  // measure 20
0001
0000
0100
0000
,  // measure 21
0101
0000
0001
0000
,  // measure 22
1000
0000
0001
0000
,  // measure 23
1000
0000
0001
0000
,  // measure 24
0100
0000
0010
0000
,  // measure 25
1000
0001
1000
0001
2000
0000
0000
0000
,  // measure 26
3001
0000
0001
0000
,  // measure 27
1000
0100
1000
0100
1000
0000
0000
0000
,  // measure 28
0001
0000
1000
0000
,  // measure 29
0001
0100
0001
0100
0001
0000
0000
0000
,  // measure 30
1000
0000
0100
0000
,  // measure 31
0010
0001
0010
0001
0010
0000
0000
0000
,  // measure 32
0001
0001
1000
1000
,  // measure 33
0010
0100
0110
0000
,  // measure 34
0010
0000
1000
1000
,  // measure 35
0001
0010
0001
0000
,  // measure 36
1000
0000
0000
1000
0000
0000
1000
0000
,  // measure 37
0001
0001
0001
0001
,  // measure 38
1000
0000
0100
0000
1000
0100
1000
0000
,  // measure 39
0100
0000
1000
0000
,  // measure 40
0100
1000
0100
1000
,  // measure 41
0001
0001
0001
0000
,  // measure 42
1000
0100
1000
0000
,  // measure 43
0001
0000
0000
0100
0000
0000
0001
0000
,  // measure 44
1000
0000
0010
0100
,  // measure 45
0020
0000
0230
0000
,  // measure 46
0301
1000
0100
0010
,  // measure 47
0100
1000
0000
0001
,  // measure 48
0100
0100
0100
0010
,  // measure 49
1000
0001
1000
0001
,  // measure 50
1000
0000
0100
0000
,  // measure 51
0010
0011
0000
0001
,  // measure 52
1000
0001
1000
0001
,  // measure 53
0200
0000
0000
0000
,  // measure 54
0310
0000
1000
0000
,  // measure 55
0001
0101
0000
0100
,  // measure 56
0010
1000
0010
1000
,  // measure 57
0001
0000
1000
1000
,  // measure 58
0200
0000
0000
0000
,  // measure 59
1300
0000
0001
0000
,  // measure 60
0100
0100
0100
0000
,  // measure 61
0010
0000
1000
0000
,  // measure 62
0100
0100
1000
0100
1000
0000
0000
0000
,  // measure 63
0001
0000
1000
0000
,  // measure 64
0001
0100
0001
0100
0001
0000
0000
0000
,  // measure 65
1000
0010
1000
0100
,  // measure 66
0010
0100
0110
0000
,  // measure 67
0010
0001
1000
0100
,  // measure 68
0000
1000
0001
0100
,  // measure 69
0010
0100
0001
1000
,  // measure 70
0000
0000
0100
0000
0010
0000
0001
0001
,  // measure 71
0000
0000
1000
1000
0000
0000
0001
0000
,  // measure 72
0100
0000
0100
0000
0100
0001
0100
0001
,  // measure 73
0100
0001
1000
0001
,  // measure 74
0010
0000
0100
0000
,  // measure 75
2000
0000
0000
0000
,  // measure 76
3002
0000
0000
0000
,  // measure 77
0203
0000
0000
0000
,  // measure 78
0320
0000
0000
0000
,  // measure 79
0030
0000
0000
0000
;

//---------------dance-single - ----------------
#NOTES:
     dance-single:
     :
     Beginner:
     2:
     0.132,0.183,0.016,0.016,0.000,114.000,2.000,2.000,0.000,0.000,0.000,0.132,0.183,0.016,0.016,0.000,114.000,2.000,2.000,0.000,0.000,0.000: // measure 1
0000
0000
0000
0000
,  // measure 2
0000
0000
0000
0000
,  // measure 3
0000
0000
0000
0000
,  // measure 4
0000
0000
0000
0000
,  // measure 5
0000
0000
0000
0000
,  // measure 6
1000
0000
1000
0000
,  // measure 7
1000
0000
0000
0000
,  // measure 8
0001
0000
0001
0000
,  // measure 9
0001
0001
0001
0000
,  // measure 10
0100
0000
0000
0000
,  // measure 11
0100
0000
0000
0000
,  // measure 12
0010
0000
0000
0000
,  // measure 13
0010
0000
0000
0000
,  // measure 14
1000
0000
0000
0000
,  // measure 15
1000
0000
0000
0000
,  // measure 16
0001
0000
0000
0000
,  // measure 17
0001
0000
0000
0000
,  // measure 18
1000
0000
1000
0000
,  // measure 19
1000
0000
0000
0000
,  // measure 20
0001
0000
0001
0000
,  // measure 21
0001
0000
0000
0000
,  // measure 22
0010
0000
0010
0000
,  // measure 23
0010
0000
0000
0000
,  // measure 24
0100
0000
0000
0000
,  // measure 25
1000
1000
2000
3000
,  // measure 26
1000
0000
0001
0000
,  // measure 27
1000
0000
0000
0000
,  // measure 28
0001
0000
0100
0000
,  // measure 29
0001
0000
0000
0000
,  // measure 30
1000
0000
0010
0000
,  // measure 31
1000
0000
0000
0000
,  // measure 32
0001
0000
0010
0000
,  // measure 33
0001
0001
0001
0000
,  // measure 34
1000
0000
1000
0000
,  // measure 35
1000
0000
0000
0000
,  // measure 36
0001
0000
0001
0000
,  // measure 37
0001
0000
0000
0000
,  // measure 38
0100
0000
0100
0100
,  // measure 39
0100
0000
0000
0000
,  // measure 40
0010
0000
0010
0000
,  // measure 41
0010
0010
0010
0000
,  // measure 42
1000
0000
0000
0000
,  // measure 43
0001
0000
0000
0000
,  // measure 44
1000
0000
0000
0000
,  // measure 45
0001
0000
0000
0000
,  // measure 46
0010
0000
0000
0000
,  // measure 47
0100
0000
0000
0000
,  // measure 48
0010
0000
0000
0000
,  // measure 49
0100
0000
0000
0000
,  // measure 50
1000
0000
0000
0000
,  // measure 51
0001
1001
0000
0000
,  // measure 52
1000
0000
0001
0000
,  // measure 53
0100
0000
0000
0000
,  // measure 54
0010
0000
0000
0000
,  // measure 55
1000
1001
0000
0000
,  // measure 56
0001
0000
0000
0000
,  // measure 57
1000
0000
0000
0000
,  // measure 58
0002
0000
0000
0000
,  // measure 59
1003
0000
0000
0000
,  // measure 60
0001
0000
0000
0000
,  // measure 61
1000
0000
0000
0000
,  // measure 62
0010
0010
0010
0000
,  // measure 63
1000
0000
0010
0000
,  // measure 64
1000
0000
0000
0000
,  // measure 65
0001
0000
0010
0000
,  // measure 66
0001
0001
0001
0000
,  // measure 67
1000
0000
1000
0000
,  // measure 68
0001
0000
0001
0000
,  // measure 69
0100
0000
0100
0000
,  // measure 70
0010
0000
0010
0000
,  // measure 71
1000
0000
1000
0000
,  // measure 72
0001
0000
0001
0000
,  // measure 73
0010
0000
0010
0000
,  // measure 74
0100
0000
0100
0000
,  // measure 75
1000
0000
0000
0000
,  // measure 76
0001
0000
0000
0000
,  // measure 77
1000
0000
0000
0000
,  // measure 78
0001
0000
0001
0001
;
