#TITLE:Do it! Now;
#SUBTITLE:;
#ARTIST:モーニング娘。;
#TITLETRANSLIT:;
#SUBTITLETRANSLIT:;
#ARTISTTRANSLIT:Morning Musume;
#GENRE:J-R&B;
#CREDIT:TiKAL;
#BANNER:[Mighty No. 9] - Do it! Now-bn.png;
#BACKGROUND:[Mighty No. 9] - Do it! Now-bg.png;
#LYRICSPATH:;
#CDTITLE:[Mighty No. 9] - Do it! Now-cdtitle.png;
#MUSIC:[Mighty No. 9] - Do it! Now.ogg;
#OFFSET:-1.265000;
#SAMPLESTART:97.264999;
#SAMPLELENGTH:25.263000;
#SELECTABLE:YES;
#BPMS:0.000000=95.000000
;
#STOPS:
;
#BGCHANGES:;
#KEYSOUNDS:;
#ATTACKS:;

//---------------dance-single - TiKAL----------------
#NOTES:
     dance-single:
     TiKAL:
     Beginner:
     1:
     0.052754,0.076809,0.022157,0.000000,0.000000,50.000000,47.000000,3.000000,0.000000,0.000000,0.000000,0.052754,0.076809,0.022157,0.000000,0.000000,50.000000,47.000000,3.000000,0.000000,0.000000,0.000000:
0000
0000
0000
0000
,
0000
0000
0000
0000
,
0000
0000
0000
0000
,
0000
0000
0000
0000
,
0001
0000
0000
0000
,
0001
0000
0000
0000
,
1000
0000
0000
0000
,
1000
0000
0000
0000
,
1001
0000
0000
0000
,
0001
0000
0000
0000
,
0010
0000
0000
0000
,
0100
0000
0000
0000
,
1000
0000
0000
0000
,
0010
0000
0000
0000
,
0010
0000
0000
0000
,
0100
0000
0000
0000
,
0100
0000
0000
0000
,
0001
0000
0000
0000
,
0010
0000
0000
0000
,
0100
0000
0000
0000
,
1000
0000
0000
0000
,
0100
0000
0000
0000
,
0100
0000
0000
0000
,
0010
0000
0000
0000
,
0010
0000
0000
0000
,
0001
0000
0000
0000
,
0100
0000
0000
0000
,
0010
0000
0000
0000
,
1000
0000
0000
0000
,
0000
0000
0000
0000
,
0001
0000
0000
0000
,
0001
0000
0000
0000
,
0010
0000
0000
0000
,
0010
0000
0000
0000
,
0100
0000
0000
0000
,
0100
0000
0000
0000
,
1000
0000
0000
0000
,
1001
0000
0000
0000
,
0001
0000
0000
0000
,
0001
0000
0000
0000
,
1000
0000
0000
0000
,
1000
0000
0000
0000
,
0010
0000
0000
0000
,
0010
0000
0000
0000
,
0100
0000
0000
0000
,
0100
0000
0000
0000
,
1001
0000
0000
0000
,
0000
0000
0000
0000
,
0001
0000
0000
0000
,
0010
0000
0000
0000
,
0100
0000
0000
0000
,
1000
0000
0000
0000
,
0001
0000
0000
0000
;

//---------------dance-single - TiKAL----------------
#NOTES:
     dance-single:
     TiKAL:
     Easy:
     2:
     0.136105,0.174898,0.044313,0.051699,0.000000,129.000000,123.000000,6.000000,7.000000,0.000000,0.000000,0.136105,0.174898,0.044313,0.051699,0.000000,129.000000,123.000000,6.000000,7.000000,0.000000,0.000000:
0000
0000
0000
0000
,
0000
0000
0000
0000
,
0000
0000
0000
0000
,
0000
0000
0000
0000
,
0100
0001
0000
0001
,
0000
1000
0000
1000
,
0000
0010
0000
0010
,
0000
0100
0010
0000
,
1001
0000
0000
0000
,
0001
0000
0000
1000
0000
1000
0000
0000
,
0010
0000
0000
0100
0000
0100
0000
0000
,
0001
0000
0000
0010
0000
0010
0000
0000
,
0100
0000
0000
1000
0000
1000
0000
0000
,
0001
1000
0001
1000
,
0010
0100
0100
0000
,
0001
0010
0100
1000
,
0001
0100
0100
0000
,
0010
0000
0010
0000
,
0100
0001
1000
0100
,
2000
3000
0002
0003
,
1001
0000
0000
0000
,
1000
0001
1000
0001
,
0100
0010
0010
0000
,
1000
0100
0010
0001
,
1000
0010
0010
0000
,
0100
0000
0100
0000
,
0010
1000
0001
0010
,
0002
0003
2000
3000
,
0020
0030
0200
0300
,
1001
0000
0000
0000
,
0001
0000
0010
0000
,
0100
0000
0100
0000
,
1000
0000
0001
0000
,
0010
0000
0000
0000
,
0001
1000
1000
0000
,
0010
0100
0010
0100
,
1001
0000
0001
1000
,
0002
0000
0003
1001
0000
0000
0000
0000
,
0100
0001
0000
0001
,
0000
1000
0000
1000
,
0000
0010
0000
0010
,
0000
0100
0010
0000
,
0010
1000
0000
1000
,
0000
0001
0000
0001
,
0000
0100
0000
0100
,
0000
0010
0100
0000
,
1001
0000
0000
0000
,
0000
0000
0000
0000
,
1000
0000
0000
0001
0000
0001
0000
0000
,
0100
0000
0000
0010
0000
0010
0000
0000
,
1000
0000
0000
0100
0000
0100
0000
0000
,
0010
0000
0000
0001
0000
0001
0000
0000
,
1000
0000
0000
0001
0000
0001
0000
0000
;

//---------------dance-single - TiKAL----------------
#NOTES:
     dance-single:
     TiKAL:
     Medium:
     4:
     0.238447,0.252631,0.066470,0.066470,0.011078,226.000000,217.000000,9.000000,9.000000,0.000000,0.000000,0.238447,0.252631,0.066470,0.066470,0.011078,226.000000,217.000000,9.000000,9.000000,0.000000,0.000000:
0000
0000
0000
0000
,
0000
0000
0000
0000
,
0000
0000
0000
0000
,
0000
0000
0000
0000
,
0001
0000
0010
0000
0001
1000
0010
0000
,
1000
0000
0010
0000
1000
0001
0100
0000
,
0001
0100
0010
1000
,
0001
0010
0100
1000
,
2002
0000
0000
3003
,
0001
0000
0001
1000
0000
1000
0000
0000
,
0010
0000
0010
0100
0000
0100
0010
0000
,
1000
0000
1000
0001
0000
0001
0000
0000
,
0100
0000
0100
0010
0000
0010
0100
0001
,
1000
0000
0100
0010
0100
0000
1000
0000
,
0001
0000
0010
0100
0010
0100
0010
0000
,
0001
0000
1000
0010
1000
0000
0001
0000
,
1000
0000
0100
0010
0100
0000
0010
0000
,
0001
0000
0001
1000
0000
1000
0010
0000
,
0100
0001
1000
0010
,
1000
1000
0010
0000
0100
0100
0001
0000
,
2002
0000
0000
3003
0000
0001
0010
0100
,
1000
0000
0010
0100
0010
0000
1000
0000
,
0001
0000
0100
0010
0100
0010
0100
0000
,
0001
0000
1000
0100
1000
0000
0001
0000
,
1000
0000
0010
0100
0010
0000
0100
0000
,
0001
0000
0001
1000
0000
1000
0100
0000
,
0010
0001
1000
0100
,
1000
1000
0100
0000
0010
0000
0001
0000
,
2000
0000
3000
2002
0000
0000
3003
0000
,
0001
0010
0100
1000
,
0001
0000
0100
0000
0010
1000
0010
1000
,
0010
0100
0001
1000
,
0100
0000
1000
0000
0010
0100
0010
0100
,
0010
0100
0001
1000
,
0001
0010
0000
0001
0010
0000
0100
0000
,
1000
0000
0010
0000
1000
0000
0000
0000
0010
0000
0000
0110
0000
0000
0000
1001
,
0000
0110
0100
0001
,
1000
0000
0000
0001
0000
0000
1001
0000
0000
0000
0000
0000
0110
0000
0000
0000
,
0001
0000
0010
0000
0001
1000
0010
0000
,
1000
0000
0010
0000
1000
0001
0100
0000
,
0001
0100
0010
1000
,
0001
0010
0100
1000
,
0001
0000
0100
0000
0001
1000
0100
0000
,
1000
0000
0100
0000
1000
0001
0010
0000
,
0001
0010
0100
1000
,
0001
0100
0010
1000
,
2002
0000
0000
3003
,
0000
0000
0000
0000
,
1000
0000
1000
0001
0000
0001
0000
0000
,
0100
0000
0100
0010
0000
0010
0100
0000
,
0001
0000
0001
1000
0000
1000
0000
0000
,
0010
0000
0010
0100
0000
0100
0010
1000
,
0001
0000
0001
1000
0000
1000
0000
0000
;

//---------------dance-single - TiKAL----------------
#NOTES:
     dance-single:
     TiKAL:
     Hard:
     7:
     0.343954,0.369230,0.110783,0.162482,0.169867,326.000000,311.000000,15.000000,22.000000,0.000000,0.000000,0.343954,0.369230,0.110783,0.162482,0.169867,326.000000,311.000000,15.000000,22.000000,0.000000,0.000000:
0000
0000
0000
0000
,
0000
0000
0000
0000
,
0000
0000
0000
0000
,
0000
0000
0000
0000
0000
0001
0010
0100
,
1000
0000
0000
1000
0010
0000
0000
0000
0100
0000
0000
0100
0001
0000
0000
0000
,
0010
0000
0000
0010
0001
0000
1000
0000
0100
0000
0000
0100
1000
0000
0001
0000
,
0100
0100
0010
0010
1000
0100
0010
0001
,
1000
0001
1000
0000
1001
0000
0100
0020
,
0000
0200
0000
0000
0000
0000
0330
0000
,
1000
0000
0001
0100
0010
0000
1000
0000
0010
0100
0001
0000
1000
0000
0000
0000
,
0100
0000
1000
0001
0100
0000
0010
0000
0100
0001
1000
0000
0100
0000
0000
0000
,
1000
0000
0100
0010
0001
0000
1000
0000
0001
0010
0100
0000
1000
0000
0000
0000
,
0001
0000
0100
0010
1000
0000
0010
0000
1000
0010
0100
0000
0001
0000
0000
0000
,
1000
0100
1000
0100
1000
0000
0001
0000
,
0100
0010
0100
0001
0010
0000
0001
0000
,
1000
0010
1000
0001
1000
0000
0100
0000
,
0010
0001
0100
0001
0010
0000
0001
0000
,
2000
0000
0000
0010
0000
3100
0010
0001
,
1000
0001
0100
0001
0010
0000
0001
0000
,
0011
0000
0000
1000
0000
0000
0010
0000
1010
0000
0000
1000
0000
0000
0001
0000
,
1000
0000
0000
0001
0000
0000
1001
0000
0000
1000
0100
0010
0001
0000
1000
0001
,
1000
0010
1000
0010
1000
0000
0001
0000
,
0010
0100
0010
0001
0100
0000
0001
0000
,
1000
0100
1000
0001
1000
0000
0010
0000
,
0100
0001
0010
0001
0100
0000
0001
0000
,
2000
0000
0000
0100
0000
3010
0100
0001
,
0000
1000
0010
0100
0001
0000
0100
0000
,
0101
0000
0000
1000
0000
0000
0100
0000
1100
0000
0000
0000
1001
0000
0000
0000
,
1000
0000
0000
0001
0000
0000
0200
0020
0000
0000
0000
0000
0330
0000
0000
0000
,
2000
3002
0203
0320
,
1030
0000
0000
0100
0000
0000
1000
0000
0001
0000
0010
0000
0100
0000
0000
2000
,
0000
0000
3002
0000
0023
0000
0031
0010
,
0100
0000
0000
1000
0000
0000
0100
0000
1000
0000
0001
0000
0100
0000
0010
0000
,
0200
0302
2003
3020
,
0130
0001
0010
0001
0100
0000
0010
0000
,
1000
0000
0010
0000
0100
0000
0001
0000
1000
0000
0000
0001
0000
1000
0000
2002
,
0000
3003
0110
0000
0100
0001
1000
0100
,
1000
0000
0000
0001
0000
0000
1001
0000
0110
0000
0000
0000
2010
0000
0000
0000
,
3001
0000
0000
0001
0100
0000
0000
0000
0010
0000
0000
0010
1000
0000
0000
0000
,
0100
0000
0000
0100
1000
0000
0001
0000
0010
0000
0000
0010
0001
0000
1000
0000
,
0010
0010
0100
0100
0001
0010
0100
1000
,
0001
1000
0001
0000
1001
0000
0110
0000
,
0100
0000
0000
0100
0001
0000
0000
0000
1000
0000
0000
1000
0010
0000
0000
0000
,
1000
0000
0000
1000
0100
0000
0000
0000
0010
0000
0000
0010
0001
0000
1000
0000
,
0001
0001
0100
0100
0010
1000
0100
0010
,
0001
1000
0010
0100
0110
0000
1000
0200
,
0000
0020
0000
0000
0000
0000
0330
0000
,
0000
0000
0000
0000
,
1000
0000
0010
0100
0001
0000
0100
0000
0001
0100
0010
0000
1000
0000
0000
0000
,
0001
0000
0010
0100
1000
0000
0001
0000
1000
0100
0010
0000
0001
0000
0000
0000
,
0010
0000
0001
1000
0010
0000
0100
0000
0010
1000
0001
0000
0010
0000
0000
0000
,
0001
0000
1000
0010
0100
0000
0001
0000
0100
0010
1000
0000
0001
0000
0000
0000
,
1000
0000
0100
1000
0001
0000
0100
0000
0001
1000
0100
0000
0000
0000
0000
0000
;

//---------------dance-single - TiKAL----------------
#NOTES:
     dance-single:
     TiKAL:
     Challenge:
     9:
     0.475839,0.582995,0.118168,0.376662,0.579764,451.000000,435.000000,16.000000,51.000000,0.000000,0.000000,0.475839,0.582995,0.118168,0.376662,0.579764,451.000000,435.000000,16.000000,51.000000,0.000000,0.000000:
// measure 0
0000
0000
0000
0000
,  // measure 1
0000
0000
0000
0000
,  // measure 2
0000
0000
0000
0000
,  // measure 3
0000
0000
0000
0000
0000
1000
0100
0010
,  // measure 4
0001
0000
0100
0001
0000
0002
0000
0000
1003
0000
0100
1000
0000
2000
0000
0000
,  // measure 5
3010
0000
0100
0020
0000
0000
1030
0000
0100
0000
0010
0100
0000
0000
0010
0001
,  // measure 6
1000
0000
0010
1000
0000
0001
0000
0020
0000
0000
0031
0000
0100
0000
0010
0000
,  // measure 7
1000
0000
0100
0000
0010
0100
0000
1000
1001
0000
0000
0000
0110
0000
0200
0000
,  // measure 8
0000
0020
0000
0000
0000
0000
0330
0000
,  // measure 9
1000
0100
0010
0001
0010
0000
0001
0010
0100
1000
0100
0000
1000
0000
0001
0100
,  // measure 10
0001
0000
0010
0000
0100
0000
1000
0000
0010
0000
0000
0000
0100
0000
0010
0000
1000
0000
0001
0000
1000
0000
0100
1000
0002
0000
0000
0000
0003
0000
0000
0000
,  // measure 11
0100
0010
1000
0001
1000
0000
0010
0100
0001
1000
0001
0000
1000
0000
0100
1000
,  // measure 12
0001
0000
0010
0000
0100
0000
1000
0000
0001
0000
0000
0000
1000
0000
0010
0000
0100
0000
0001
0000
0010
0000
0001
1000
0002
0000
0000
0000
2003
0000
0000
0000
,  // measure 13
3010
0000
0100
0000
0001
0100
0000
0020
0000
0030
1000
0000
0100
0000
1000
0000
,  // measure 14
0001
0000
0001
0000
0010
0100
0000
0200
0000
1300
0100
1000
0001
0000
0100
0001
,  // measure 15
1000
0000
1000
0000
0100
0010
0000
0020
0000
0030
0001
0000
0010
0000
0100
0000
,  // measure 16
1000
0000
0001
0000
0100
0010
0000
0200
0000
0300
0001
0100
0001
1000
0001
0000
,  // measure 17
2000
0000
0000
0100
3100
0000
0010
0001
0000
0001
0010
0000
0001
0000
1000
0000
,  // measure 18
0010
0000
0100
0000
0010
1000
0000
2000
0000
0000
3001
0000
0020
0000
0030
0000
,  // measure 19
0001
0000
1000
0020
0000
0030
0100
0000
0001
0000
1000
0200
0000
0300
1000
0000
,  // measure 20
0020
0000
0000
0130
0000
0000
0110
0000
0000
0100
0001
1000
0001
0010
0100
1000
,  // measure 21
0001
0000
1000
0000
0010
1000
0000
0200
0000
0300
1000
0000
0001
0000
0100
0000
,  // measure 22
0010
0000
0010
0000
0100
0001
0000
0002
0000
1003
0100
0010
0001
0000
1000
0001
,  // measure 23
1000
0000
1000
0000
0001
0100
0000
0010
0000
0000
1000
0000
0001
0000
1000
0000
,  // measure 24
0010
0000
0100
0000
0001
0010
0000
0200
0000
0300
1000
0001
0100
0001
1000
0000
,  // measure 25
0002
0000
0000
0100
0103
0000
0010
1000
0000
1000
0010
0000
1000
0000
0001
0000
,  // measure 26
1000
0000
0100
0010
0001
0100
0000
0001
0200
0000
0300
0000
0020
0000
0030
0000
,  // measure 27
1000
0000
0001
0020
0000
0030
0100
0000
2000
0000
3000
0000
0002
0000
0003
0000
,  // measure 28
0020
0000
0000
0130
0000
0000
0110
0000
0100
1000
0010
0100
0001
0010
0100
1000
,  // measure 29
0002
0000
0013
0100
1000
0001
0100
0010
,  // measure 30
1000
0000
0000
0100
1000
0000
0001
0000
0100
0000
0010
0000
0100
0000
0000
0002
,  // measure 31
1000
0000
2003
0000
3010
0100
0001
0100
,  // measure 32
0010
0000
0000
1000
0010
0000
1000
0000
0001
0000
0010
0000
0001
0000
1000
0020
,  // measure 33
0000
0000
0000
0000
0230
0000
0300
0000
0002
0000
0003
0000
2000
0000
3100
1000
,  // measure 34
0010
0000
0100
0000
0000
0001
0000
2000
0000
0000
3100
2000
0000
0000
3010
0100
,  // measure 35
0001
0000
0001
0010
0000
0100
0000
0010
0001
0000
1000
1010
0000
1001
0000
0022
,  // measure 36
0000
0033
1100
1000
0001
0100
0010
1000
,  // measure 37
1010
0000
0000
0101
0000
0000
1001
0000
0000
0000
0001
0000
0010
0000
0100
0000
,  // measure 38
1000
0000
0010
1000
0000
2000
0000
0000
3001
0000
0010
0001
0000
0002
0000
0000
,  // measure 39
0103
0000
0010
0200
0000
0000
0310
0000
1000
0000
0010
0100
0000
0010
0100
0001
,  // measure 40
1000
0000
0001
0010
0000
0001
0000
0002
0000
0000
1003
0000
0010
0000
1000
0000
,  // measure 41
0100
0000
1000
0000
0001
0100
0000
0010
0110
0000
0000
0000
1001
0000
1000
0000
,  // measure 42
1010
0000
0010
0100
0000
0200
0000
0000
0301
0000
0100
0010
0000
0020
0000
0000
,  // measure 43
1030
0000
0100
2000
0000
0000
3001
0000
0100
0000
0001
0010
0000
0000
0001
1000
,  // measure 44
0100
0000
1000
0100
0000
1000
0000
0002
0000
0000
0013
0000
0100
0000
1000
0000
,  // measure 45
0010
0000
0100
0000
0001
1000
0000
0001
1001
0000
0000
0000
0110
0000
0020
0000
,  // measure 46
0000
0200
0000
0000
0000
0000
0330
0000
,  // measure 47
0000
0000
0000
0000
0000
0000
0000
0000
0000
0000
0000
0000
0000
0000
0000
0000
0000
0000
0000
0000
0000
0000
0001
1000
0001
0000
1000
0000
0000
0000
0001
0000
,  // measure 48
1000
0010
0100
0001
1000
0000
0001
0010
0100
1000
0010
0000
0100
0000
0001
0100
,  // measure 49
0001
0000
0010
0000
0100
0000
1000
0000
0100
0000
0000
0000
1000
0000
0100
0000
0010
0000
0001
0000
0010
0000
0001
1000
0200
0000
0000
0000
0300
0000
0000
0000
,  // measure 50
1000
0100
0010
0001
0100
0000
0010
0100
0001
1000
0100
0000
1000
0000
0001
0100
,  // measure 51
0001
0000
0010
0000
0100
0000
0010
0000
0001
0000
0000
0000
1000
0000
0100
0000
0010
0000
0100
0000
1000
0000
0001
1000
0100
0000
0010
0000
0100
0000
0010
0000
,  // measure 52
0001
0010
0001
1000
0010
0000
1000
0010
0100
0001
0100
0000
0000
0000
0000
0000
;
