#VERSION:0.82;
#TITLE:電車で電車でGO!GO!GO!GC!;
#SUBTITLE:-GMT remix-;
#ARTIST:Remixed By COSIO feat. 沢城千春;
#TITLETRANSLIT:Densha de Densha de GO!GO!GO!GC!;
#SUBTITLETRANSLIT:;
#ARTISTTRANSLIT:Remixed By COSIO feat. Chiharu Sawashiro;
#GENRE:Densha Beat;
#ORIGIN:;
#CREDIT:;
#BANNER:Densha de Densha de GO!GO!GO!GC! -GMT remix-.png;
#BACKGROUND:Densha de Densha de GO!GO!GO!GC! -GMT remix--bg.png;
#PREVIEWVID:;
#JACKET:Densha de Densha de GO!GO!GO!GC! -GMT remix--jacket.png;
#CDIMAGE:;
#DISCIMAGE:;
#LYRICSPATH:;
#CDTITLE:;
#MUSIC:Densha de Densha de GO!GO!GO!GC! -GMT remix-.ogg;
#OFFSET:-0.637657;
#SAMPLESTART:7.733914;
#SAMPLELENGTH:15.000000;
#SELECTABLE:YES;
#BPMS:0.000=134.000;
#STOPS:;
#DELAYS:;
#WARPS:;
#TIMESIGNATURES:0.000=4=4;
#TICKCOUNTS:0.000=4;
#COMBOS:0.000=1;
#SPEEDS:0.000=1.000=0.000=0;
#SCROLLS:0.000=1.000;
#FAKES:;
#LABELS:0.000=Song Start;
#BGCHANGES:;
#KEYSOUNDS:;
#ATTACKS:
;

//---------------dance-single - ----------------
#NOTEDATA:;
#CHARTNAME:;
#STEPSTYPE:dance-single;
#DESCRIPTION:;
#CHARTSTYLE:;
#DIFFICULTY:Challenge;
#METER:9;
#RADARVALUES:0.662881,0.641815,0.365859,0.000000,0.285549,479.000000,41.000000,0.000000,108.000000,0.000000,0.000000,0.000000,0.000000,0.662881,0.641815,0.365859,0.000000,0.285549,479.000000,41.000000,0.000000,108.000000,0.000000,0.000000,0.000000,0.000000;
#CREDIT:;
#NOTES:
// measure 0
0000
0000
0000
0000
,  // measure 1
0000
0000
0000
0000
,  // measure 2
0000
0000
0000
0000
,  // measure 3
0000
0000
0000
0000
,  // measure 4
1000
0000
0001
0100
0001
0000
1000
0100
1000
0000
0001
0000
0010
0000
0100
0000
,  // measure 5
1000
0000
0001
0010
0001
0000
1000
0100
1000
0000
0001
0000
0100
0000
0010
0000
,  // measure 6
1000
0000
0001
0100
0001
0000
1000
0100
1000
0000
0001
0000
0010
0000
0100
0000
,  // measure 7
1001
MMMM
1100
MMMM
0011
MMMM
1001
MMMM
,  // measure 8
0001
0000
1000
0100
1000
0000
0001
0100
0001
0000
1000
0000
0010
0000
0100
0000
,  // measure 9
0001
0000
1000
0010
1000
0000
0001
0100
0001
0000
1000
0000
0100
0000
0010
0000
,  // measure 10
0001
0000
1000
0100
1000
0000
0001
0100
0001
0000
1000
0000
0010
0000
0100
0000
,  // measure 11
1001
MMMM
0101
MMMM
1010
MMMM
1001
MMMM
,  // measure 12
1000
0100
0001
0100
1000
0001
0010
1000
,  // measure 13
0010
0001
1000
0010
0100
0001
1000
0010
,  // measure 14
0100
0001
1001
1000
0001
0100
0010
1000
,  // measure 15
0001
0010
0110
0100
1000
0001
1001
1000
,  // measure 16
0001
0010
1000
1010
0010
0100
1000
1001
,  // measure 17
0001
0000
1000
0100
1000
0000
0100
0000
0010
0000
0001
0000
0011
0000
MMMM
0000
,  // measure 18
0010
0100
0110
0010
0001
1000
0100
0010
,  // measure 19
0001
1000
1010
0010
0100
0001
1001
1000
,  // measure 20
0001
0010
1000
1010
0010
0001
1000
1001
,  // measure 21
0001
0000
1000
0100
1000
0000
0100
0000
0010
0000
0001
0000
1000
0000
0010
0000
,  // measure 22
0100
0000
0001
0000
1001
0000
1000
0000
0100
0010
0100
0000
0010
0000
0001
0000
,  // measure 23
0010
0000
0100
0000
1100
0000
1000
0000
0001
0100
0001
0000
0100
0000
0010
0000
,  // measure 24
1000
0010
0000
1000
0010
0000
0100
0000
0001
0010
0000
0001
0010
0000
0100
0000
,  // measure 25
1000
0000
0001
0100
0001
0000
1000
0000
0100
0000
0010
0000
1001
0000
MMMM
0000
,  // measure 26
0100
0000
0001
0000
1001
0000
1000
0000
0100
0010
0100
0000
0010
0000
0001
0000
,  // measure 27
0100
0000
0001
0000
1001
0000
1000
0000
0010
0100
0010
0000
0100
0000
0001
0000
,  // measure 28
1000
0010
0000
1000
0010
0000
0100
0000
0001
0010
0000
0001
0010
0000
0100
0000
,  // measure 29
1000
0000
0001
0100
0001
0000
1000
0000
0100
0000
0010
0000
0001
0000
1000
0000
,  // measure 30
0010
1000
0100
0001
1000
0010
0001
0100
,  // measure 31
0010
1000
0100
0010
0001
1000
1001
MMMM
,  // measure 32
0001
0100
0100
1000
0100
0010
1000
0001
,  // measure 33
1000
0010
0010
0001
0010
0100
0001
1000
,  // measure 34
0100
0010
0001
0001
1000
0010
0100
0001
,  // measure 35
0010
0100
1000
1000
0001
0100
0010
1000
,  // measure 36
0001
0000
0010
0000
0100
0000
1000
0000
0001
0100
0000
0001
0100
0000
0010
0000
,  // measure 37
1000
0100
0000
1000
0100
0000
0010
0000
0001
0000
0100
0000
0010
0000
1000
0000
,  // measure 38
0001
0100
1000
0010
1000
0100
0001
1000
,  // measure 39
0100
0001
0010
0001
0100
1000
0001
0100
,  // measure 40
0010
1000
0100
0001
1000
0010
0100
1000
,  // measure 41
0001
0100
0010
0001
1000
0100
0010
1000
,  // measure 42
0001
0000
1000
0010
1000
0000
0001
0010
0001
0000
0100
0000
0010
0000
1000
0000
,  // measure 43
0001
0000
1000
0100
1000
0000
0001
0100
0001
0000
0010
0000
0100
0000
1000
0000
,  // measure 44
0001
0000
1000
0010
1000
0000
0001
0010
0001
0000
0100
0000
0010
0000
1000
0000
,  // measure 45
1010
MMMM
0101
MMMM
0011
MMMM
1100
MMMM
,  // measure 46
1000
0000
0001
0010
0001
0000
1000
0010
1000
0000
0100
0000
0010
0000
0001
0000
,  // measure 47
1000
0000
0001
0100
0001
0000
1000
0100
1000
0000
0010
0000
0100
0000
0001
0000
,  // measure 48
1000
0000
0001
0010
0001
0000
1000
0010
1000
0000
0100
0000
0010
0000
0001
0000
,  // measure 49
0011
MMMM
1100
MMMM
1010
MMMM
0101
MMMM
,  // measure 50
0001
0000
1000
0001
1000
0000
0100
0010
0100
0000
1000
0010
0100
0000
0001
0000
,  // measure 51
1000
0000
0001
1000
0001
0000
0100
0010
0100
0000
0001
0010
0100
0000
1000
0000
,  // measure 52
0001
0000
0100
0001
0100
0000
0010
1000
0010
0000
1000
0010
0100
0000
0001
0000
,  // measure 53
0101
MMMM
1100
MMMM
1010
MMMM
0011
MMMM
,  // measure 54
1000
0000
0001
1000
0001
0000
0100
0010
0100
0000
0001
0010
0100
0000
1000
0000
,  // measure 55
0001
0000
1000
0001
1000
0000
0100
0010
0100
0000
1000
0010
0100
0000
0001
0000
,  // measure 56
1000
0000
0100
1000
0100
0000
0010
0001
0010
0000
0001
0010
0100
0000
1000
0000
,  // measure 57
1100
MMMM
0101
MMMM
0011
MMMM
1010
MMMM
,  // measure 58
0001
0100
1000
0010
1000
0100
0001
0010
,  // measure 59
0100
0000
1000
0000
0001
0000
0100
0000
0010
0000
1000
0000
0001
0100
0001
0100
;

//---------------dance-single - ----------------
#NOTEDATA:;
#CHARTNAME:;
#STEPSTYPE:dance-single;
#DESCRIPTION:;
#CHARTSTYLE:;
#DIFFICULTY:Hard;
#METER:8;
#RADARVALUES:0.536678,0.534846,0.553250,0.053540,0.196315,353.000000,62.000000,6.000000,0.000000,0.000000,0.000000,0.000000,0.000000,0.536678,0.534846,0.553250,0.053540,0.196315,353.000000,62.000000,6.000000,0.000000,0.000000,0.000000,0.000000,0.000000;
#CREDIT:;
#NOTES:
// measure 0
0000
0000
0000
0000
,  // measure 1
0000
0000
0000
0000
,  // measure 2
0000
0000
0000
0000
,  // measure 3
0000
0000
0000
0000
,  // measure 4
1000
0000
0000
1000
0100
0000
0000
0100
0001
0000
0000
0001
0010
0000
0000
0000
,  // measure 5
1000
0000
0000
1000
0010
0000
0000
0010
0001
0000
0000
0001
0100
0000
0000
0000
,  // measure 6
1000
0000
0000
1000
0100
0000
0000
0100
0010
0000
0000
0010
0001
0000
0000
0000
,  // measure 7
0011
1100
0101
1010
,  // measure 8
0001
0000
0000
0001
0100
0000
0000
0100
1000
0000
0000
1000
0010
0000
0000
0000
,  // measure 9
0001
0000
0000
0001
0010
0000
0000
0010
1000
0000
0000
1000
0100
0000
0000
0000
,  // measure 10
0001
0000
0000
0001
0100
0000
0000
0100
0010
0000
0000
0010
1000
0000
0000
0000
,  // measure 11
1010
0101
1100
0011
,  // measure 12
2001
0010
0100
0010
,  // measure 13
3002
0000
0010
0000
0100
0100
0103
0000
,  // measure 14
0001
0100
0010
0000
1000
0100
0110
0000
,  // measure 15
0001
0010
0100
0000
1000
0010
0110
0000
,  // measure 16
0001
0100
0010
1000
0001
0010
0100
1000
,  // measure 17
0001
0000
0000
0100
0010
0000
1000
0000
0100
0000
0010
0000
0011
0000
0000
0000
,  // measure 18
0001
1000
0010
0000
1000
0001
0101
0000
,  // measure 19
0001
1000
0100
0000
1000
0001
0011
0000
,  // measure 20
0001
0010
0100
1000
0001
0100
0010
1000
,  // measure 21
0001
0000
0000
0010
0100
0000
1000
0000
0010
0000
0100
0000
0101
0000
0000
0000
,  // measure 22
0001
1000
0010
0100
0001
1000
1001
0000
,  // measure 23
1000
0001
0010
0100
1000
0001
1001
0000
,  // measure 24
0001
0100
1000
0010
1000
0100
0001
0010
,  // measure 25
0100
1000
0010
0100
0001
0010
0110
0000
,  // measure 26
1000
0010
0100
0001
1000
0001
1001
0000
,  // measure 27
0001
0010
0100
1000
0001
1000
1001
0000
,  // measure 28
1000
0100
0000
0000
0110
0000
0000
0000
0001
0100
0000
0000
0110
0000
0000
0000
,  // measure 29
1000
0100
0001
0010
0001
0100
0110
0000
,  // measure 30
0010
0001
0100
1000
0001
0010
1000
0100
,  // measure 31
0001
0010
0001
0100
1000
0010
0100
0001
,  // measure 32
1000
0100
0001
0000
1000
0100
0001
0000
,  // measure 33
1000
0100
0001
0010
0001
0100
1000
0000
,  // measure 34
0001
0010
1000
0000
0001
0010
1000
0000
,  // measure 35
0001
0010
1000
0100
1000
0010
0001
0000
,  // measure 36
1000
0010
0100
1000
0001
0010
0100
0000
,  // measure 37
0001
0010
0100
0001
1000
0010
0100
0000
,  // measure 38
1000
0010
0001
0100
1000
0010
0100
0000
,  // measure 39
0001
0010
1000
0100
0001
0010
0100
0000
,  // measure 40
2100
0010
3100
1010
,  // measure 41
0102
0010
0100
0013
,  // measure 42
0001
0000
0000
1000
0100
0000
0000
0000
0100
0000
1000
0000
0001
0000
0100
0000
,  // measure 43
0001
0000
0000
1000
0010
0000
0000
0000
0010
0000
1000
0000
0001
0000
0010
0000
,  // measure 44
0001
0000
0000
1000
0100
0000
0000
0000
0100
0000
1000
0000
0001
0000
0000
0000
,  // measure 45
1001
1100
0011
1001
,  // measure 46
1100
0000
0000
0010
0001
0000
0000
0000
0101
0000
0000
0010
1000
0000
0000
0000
,  // measure 47
1010
0000
0000
0100
0001
0000
0000
0000
0011
0000
0000
0100
1000
0000
0000
0000
,  // measure 48
1100
0000
0000
0010
0001
0000
0000
0000
0101
0000
0000
0010
1000
0000
0000
0000
,  // measure 49
0110
1010
0101
1010
,  // measure 50
1001
0000
0000
1000
0010
0000
0000
0010
0100
0000
0001
0000
0011
0000
0000
0000
,  // measure 51
1001
0000
0000
0001
0010
0000
0000
0010
0100
0000
1000
0000
1010
0000
0000
0000
,  // measure 52
1001
0000
0000
1000
0100
0000
0000
0100
0010
0000
0001
0000
0011
0000
0000
0000
,  // measure 53
1010
1100
0101
0011
,  // measure 54
1100
0000
0000
1000
0100
0000
0000
0010
0001
0000
0100
0000
0101
0000
0000
0000
,  // measure 55
0101
0000
0000
0001
0100
0000
0000
0010
1000
0000
0100
0000
1100
0000
0000
0000
,  // measure 56
1010
0000
0000
1000
0010
0000
0000
0100
0001
0000
0010
0000
0011
0000
0000
0000
,  // measure 57
0101
1100
1010
0011
,  // measure 58
1002
0100
0010
0103
,  // measure 59
2001
0000
0000
0000
0100
0000
0000
0000
0010
0000
0010
0000
0010
0000
0000
3001
;

//---------------dance-single - ----------------
#NOTEDATA:;
#CHARTNAME:;
#STEPSTYPE:dance-single;
#DESCRIPTION:;
#CHARTSTYLE:;
#DIFFICULTY:Medium;
#METER:6;
#RADARVALUES:0.416850,0.455093,0.606791,0.035694,0.000000,255.000000,68.000000,4.000000,0.000000,0.000000,0.000000,0.000000,0.000000,0.416850,0.455093,0.606791,0.035694,0.000000,255.000000,68.000000,4.000000,0.000000,0.000000,0.000000,0.000000,0.000000;
#CREDIT:;
#NOTES:
// measure 0
0000
0000
0000
0000
,  // measure 1
0000
0000
0000
0000
,  // measure 2
0000
0000
0000
0000
,  // measure 3
0000
0000
0000
0000
,  // measure 4
1000
1100
0001
0101
,  // measure 5
1000
1010
0001
0011
,  // measure 6
1000
1100
0001
0101
,  // measure 7
1001
1001
0110
0110
,  // measure 8
0001
0101
1000
1100
,  // measure 9
0001
0011
1000
1010
,  // measure 10
0001
0101
1000
1100
,  // measure 11
1001
1001
0110
0110
,  // measure 12
2001
0001
0010
0010
,  // measure 13
0100
0100
0001
3001
,  // measure 14
1000
0000
0010
0000
0001
0100
1000
0000
,  // measure 15
0001
0000
0010
0000
1000
0100
0001
0000
,  // measure 16
1000
0010
0100
0000
0001
0010
0100
0000
,  // measure 17
1000
0000
0010
0000
0100
0001
1000
0000
,  // measure 18
0001
0000
0100
0000
1000
0010
0001
0000
,  // measure 19
1000
0000
0100
0000
0001
0010
1000
0000
,  // measure 20
0001
0100
0010
0000
1000
0100
0010
0000
,  // measure 21
0001
0000
0100
0000
0010
1000
0001
0000
,  // measure 22
1000
0100
1000
0100
0010
0000
1001
0000
,  // measure 23
1000
0010
1000
0010
0100
0000
1001
0000
,  // measure 24
1000
0100
0001
0000
0001
0100
1000
0000
,  // measure 25
0001
0100
0010
0000
0100
0010
1000
0000
,  // measure 26
0001
0100
0001
0100
0010
0000
1001
0000
,  // measure 27
0001
0010
0001
0010
0100
0000
1001
0000
,  // measure 28
0001
0100
1000
0000
1000
0100
0001
0000
,  // measure 29
1000
0100
0010
0000
0100
0010
0001
0000
,  // measure 30
1002
1000
0100
0100
,  // measure 31
0010
0010
1000
1003
,  // measure 32
0001
0100
1000
0010
,  // measure 33
1000
0100
0001
0010
,  // measure 34
0001
0100
0010
1000
,  // measure 35
0001
0100
1000
0000
1000
0100
0001
0000
,  // measure 36
1000
0100
0001
0010
,  // measure 37
0001
0100
1000
0010
,  // measure 38
1000
0100
0010
0001
,  // measure 39
1000
0100
0001
0000
0001
0100
1000
0000
,  // measure 40
2001
0001
0100
0100
,  // measure 41
0010
0010
0001
3001
,  // measure 42
1000
1010
0001
0011
,  // measure 43
1000
1100
0001
0101
,  // measure 44
1000
1010
0001
0011
,  // measure 45
1001
1100
1001
0011
,  // measure 46
0001
0011
1000
1010
,  // measure 47
0001
0101
1000
1100
,  // measure 48
0001
0011
1000
1010
,  // measure 49
1001
0101
1001
1010
,  // measure 50
1000
0011
1000
0101
,  // measure 51
1000
0011
1000
0101
,  // measure 52
1000
0011
1000
0101
,  // measure 53
1100
1010
0101
0011
,  // measure 54
0001
1010
0001
1100
,  // measure 55
0001
1010
0001
1100
,  // measure 56
0001
1010
0001
1100
,  // measure 57
0101
0011
1100
1010
,  // measure 58
2001
0001
0010
0010
,  // measure 59
0100
0100
0001
0001
,  // measure 60
3001
0000
0000
0000
;

//---------------dance-single - ----------------
#NOTEDATA:;
#CHARTNAME:;
#STEPSTYPE:dance-single;
#DESCRIPTION:;
#CHARTSTYLE:;
#DIFFICULTY:Easy;
#METER:4;
#RADARVALUES:0.295747,0.428323,0.321242,0.071387,0.000000,188.000000,36.000000,8.000000,0.000000,0.000000,0.000000,0.000000,0.000000,0.295747,0.428323,0.321242,0.071387,0.000000,188.000000,36.000000,8.000000,0.000000,0.000000,0.000000,0.000000,0.000000;
#CREDIT:;
#NOTES:
// measure 0
0000
0000
0000
0000
,  // measure 1
0000
0000
0000
0000
,  // measure 2
0000
0000
0000
0000
,  // measure 3
0000
0000
0000
0000
,  // measure 4
1000
0100
0001
0100
,  // measure 5
1000
0010
0001
0010
,  // measure 6
1000
0100
0001
0100
,  // measure 7
0110
0110
1001
1001
,  // measure 8
0001
0100
1000
0100
,  // measure 9
0001
0010
1000
0010
,  // measure 10
0001
0100
1000
0100
,  // measure 11
0110
0110
1001
1001
,  // measure 12
2002
0000
0000
0000
,  // measure 13
0000
0000
0000
3003
,  // measure 14
1000
0010
0001
0100
,  // measure 15
1000
0100
0001
0010
,  // measure 16
1000
0100
0010
0001
,  // measure 17
1000
0010
0100
0101
,  // measure 18
0001
0010
1000
0100
,  // measure 19
0001
0100
1000
0010
,  // measure 20
0001
0100
0010
1000
,  // measure 21
0001
0010
0100
1100
,  // measure 22
1000
0010
0100
0011
,  // measure 23
0001
0010
0100
1010
,  // measure 24
1000
0100
0010
0001
,  // measure 25
1000
0010
0100
1001
,  // measure 26
0001
0010
0100
1010
,  // measure 27
1000
0010
0100
0011
,  // measure 28
0001
0100
0010
1000
,  // measure 29
0001
0010
0100
1001
,  // measure 30
2002
0000
0000
0000
,  // measure 31
0000
0000
0000
3003
,  // measure 32
1000
0000
0010
0000
,  // measure 33
0001
0001
0100
0000
,  // measure 34
0001
0001
0010
0000
,  // measure 35
1000
1000
0100
0100
,  // measure 36
1000
1000
0010
0000
,  // measure 37
0001
0001
0100
0000
,  // measure 38
1000
1000
0100
0000
,  // measure 39
0001
0001
0010
0000
,  // measure 40
2002
0000
0000
0000
,  // measure 41
0000
0000
0000
3003
,  // measure 42
0001
0100
1000
0100
,  // measure 43
0001
0010
1000
0010
,  // measure 44
0001
0100
1000
0100
,  // measure 45
0110
1001
0110
1001
,  // measure 46
1000
0100
0001
0100
,  // measure 47
1000
0010
0001
0010
,  // measure 48
1000
0100
0001
0100
,  // measure 49
0110
1001
0110
1001
,  // measure 50
1000
0010
0001
0100
,  // measure 51
1000
0100
0001
0010
,  // measure 52
1000
0010
0100
0001
,  // measure 53
0011
1001
0011
1001
,  // measure 54
0001
0010
1000
0100
,  // measure 55
0001
0100
1000
0010
,  // measure 56
0001
0010
0100
1000
,  // measure 57
1010
1001
1010
1001
,  // measure 58
2002
0000
0000
0000
,  // measure 59
0000
0000
0000
0000
,  // measure 60
3003
0000
0000
0000
;

//---------------dance-single - ----------------
#NOTEDATA:;
#CHARTNAME:;
#STEPSTYPE:dance-single;
#DESCRIPTION:;
#CHARTSTYLE:;
#DIFFICULTY:Beginner;
#METER:1;
#RADARVALUES:0.123653,0.214161,0.000000,0.008923,0.000000,96.000000,0.000000,1.000000,0.000000,0.000000,0.000000,0.000000,0.000000,0.123653,0.214161,0.000000,0.008923,0.000000,96.000000,0.000000,1.000000,0.000000,0.000000,0.000000,0.000000,0.000000;
#CREDIT:;
#NOTES:
// measure 0
0000
0000
0000
0000
,  // measure 1
0000
0000
0000
0000
,  // measure 2
0000
0000
0000
0000
,  // measure 3
0000
0000
0000
0000
,  // measure 4
1000
0000
1000
0000
,  // measure 5
0001
0000
0001
0000
,  // measure 6
1000
0000
1000
0000
,  // measure 7
0001
0001
0001
0001
,  // measure 8
0001
0000
0001
0000
,  // measure 9
1000
0000
1000
0000
,  // measure 10
0001
0000
0001
0000
,  // measure 11
1000
1000
1000
1000
,  // measure 12
1000
0000
0000
0000
,  // measure 13
0000
0000
0000
0000
,  // measure 14
0001
0000
0001
0000
,  // measure 15
0100
0000
0000
0000
,  // measure 16
1000
0000
1000
0000
,  // measure 17
0100
0000
0000
0000
,  // measure 18
0001
0000
0001
0000
,  // measure 19
0010
0000
0000
0000
,  // measure 20
0100
0000
0100
0000
,  // measure 21
1000
0000
0000
0000
,  // measure 22
1000
0000
1000
0000
,  // measure 23
0100
0000
0000
0000
,  // measure 24
0001
0000
0001
0000
,  // measure 25
0100
0000
0000
0000
,  // measure 26
1000
0000
1000
0000
,  // measure 27
0010
0000
0000
0000
,  // measure 28
0100
0000
0100
0000
,  // measure 29
0001
0000
0000
0000
,  // measure 30
0001
0000
0000
0000
,  // measure 31
0000
0000
0000
0000
,  // measure 32
0001
0000
0000
0000
,  // measure 33
0001
0000
0000
0000
,  // measure 34
0010
0000
0000
0000
,  // measure 35
0010
0000
0000
0000
,  // measure 36
1000
0000
0000
0000
,  // measure 37
1000
0000
0000
0000
,  // measure 38
0100
0000
0000
0000
,  // measure 39
0100
0000
0000
0000
,  // measure 40
0001
0000
0000
0000
,  // measure 41
0000
0000
0000
0000
,  // measure 42
0001
0000
0001
0000
,  // measure 43
1000
0000
1000
0000
,  // measure 44
0001
0000
0001
0000
,  // measure 45
1000
1000
1000
1000
,  // measure 46
1000
0000
1000
0000
,  // measure 47
0001
0000
0001
0000
,  // measure 48
1000
0000
1000
0000
,  // measure 49
0001
0001
0001
0001
,  // measure 50
0001
0000
0001
0000
,  // measure 51
0010
0000
0010
0000
,  // measure 52
0100
0000
0100
0000
,  // measure 53
1000
1000
1000
1000
,  // measure 54
1000
0000
1000
0000
,  // measure 55
0010
0000
0010
0000
,  // measure 56
0100
0000
0100
0000
,  // measure 57
0001
0001
0001
0001
,  // measure 58
0002
0000
0000
0000
,  // measure 59
0000
0000
0000
0000
,  // measure 60
0003
0000
0000
0000
;
