#TITLE:Crazy;
#SUBTITLE:;
#ARTIST:Marysia;
#TITLETRANSLIT:;
#SUBTITLETRANSLIT:;
#ARTISTTRANSLIT:;
#CREDIT:;
#BANNER:;
#BACKGROUND:;
#LYRICSPATH:;
#CDTITLE:;
#MUSIC:Crazy.ogg;
#OFFSET:-0.834;
#SAMPLESTART:51.438;
#SAMPLELENGTH:12.000;
#SELECTABLE:YES;
#BPMS:0.000=132.070;
#STOPS:;
#BGCHANGES:;

//---------------dance-single - ----------------
#NOTES:
     dance-single:
     :
     Easy:
     4:
     0.250,0.262,0.097,0.029,0.000: // measure 1
0000
0000
0000
0000
,  // measure 2
0000
0000
0000
0000
,  // measure 3
0000
0000
0000
0000
,  // measure 4
0000
0000
0000
0000
0000
0000
0000
1001
,  // measure 5
0000
1000
0001
0000
,  // measure 6
0100
0001
1000
0000
,  // measure 7
0100
1000
0001
1000
,  // measure 8
0100
0000
0000
0000
0001
0000
0000
0110
,  // measure 9
0000
0001
1000
0000
,  // measure 10
0010
1000
0001
0010
,  // measure 11
0100
0100
1001
0000
,  // measure 12
0100
0100
1001
0001
,  // measure 13
1000
0100
0010
0002
,  // measure 14
0000
0000
0000
0000
,  // measure 15
1003
0001
1000
0000
,  // measure 16
0010
0100
0010
0000
,  // measure 17
1000
0100
0001
0100
,  // measure 18
1000
0010
0001
0000
,  // measure 19
0001
0010
1000
0100
,  // measure 20
0001
0100
1000
0001
,  // measure 21
0101
0001
0100
0010
,  // measure 22
1000
0100
0010
0001
,  // measure 23
0100
1000
0100
0001
,  // measure 24
0200
0000
0000
0300
,  // measure 25
0010
1000
0100
0001
,  // measure 26
0100
0010
0001
0100
,  // measure 27
0010
0001
0010
1000
,  // measure 28
0100
0000
0010
0000
0001
0000
0000
1001
,  // measure 29
0000
0001
1000
0000
,  // measure 30
0100
1000
0001
0000
,  // measure 31
0100
0001
1000
0001
,  // measure 32
0100
0000
0000
0000
1000
0000
0000
0110
,  // measure 33
0000
0001
1000
0000
,  // measure 34
0010
1000
0001
0100
,  // measure 35
0010
0010
1001
0000
,  // measure 36
0010
0010
0001
1000
,  // measure 37
1001
0001
1000
0010
,  // measure 38
0010
1000
0100
0001
,  // measure 39
0100
0010
0001
0100
,  // measure 40
0010
0001
0010
1000
,  // measure 41
0100
0100
0001
0001
,  // measure 42
0100
0100
1000
1000
,  // measure 43
0000
0001
1000
0000
0001
1000
0000
0100
,  // measure 44
0010
0001
0100
1000
,  // measure 45
0100
0000
0000
0000
,  // measure 46
0020
0000
0000
0000
0000
0000
0000
1030
,  // measure 47
0000
1000
0001
0000
,  // measure 48
0001
1000
0100
0000
,  // measure 49
0100
1000
0001
1000
,  // measure 50
0100
0000
0000
0000
0010
0000
0000
0110
,  // measure 51
0000
0001
1000
0000
,  // measure 52
1000
0001
0010
0100
,  // measure 53
1000
0010
0100
0000
,  // measure 54
0001
0000
0010
0000
0100
0000
1000
0001
;

//---------------dance-single - ----------------
#NOTES:
     dance-single:
     :
     Hard:
     9:
     0.609,0.708,0.341,0.156,0.521:
0000
0000
0000
0000
,
0000
0000
0000
0000
,
0000
0000
0000
0000
,
0000
0000
0000
0000
0000
0000
0000
1002
,
0000
1003
0100
0001
0100
0010
0000
0010
,
0001
0100
1000
0100
0010
1000
0000
2010
,
0000
3010
1000
0100
0001
0100
0010
0001
,
0100
1000
0001
1000
0100
0001
1000
1002
,
0000
1003
0100
0001
0100
0010
0000
0010
,
0001
0100
1000
0100
0010
1000
0100
0010
,
0011
0000
1001
0000
1100
0000
1000
0010
,
1010
0000
0110
0000
0101
0000
0100
0010
,
1001
0000
0000
0000
0001
0000
0000
0001
0000
0010
0000
0000
0100
0000
1000
0000
,
0100
1000
0100
0010
0000
0010
0000
0001
0000
1000
0000
0000
0100
0000
1000
0000
,
1010
0000
0000
0000
1000
0000
0000
1000
0000
0010
0000
0000
0100
0000
0001
0000
,
0100
0001
0100
0010
0000
0010
0000
1000
0000
0001
0000
0000
1000
0001
1000
0001
,
1000
0000
0000
0010
0000
0000
0000
0000
0000
0001
0000
0000
0000
0000
0000
0010
0000
0000
0000
0000
0000
0100
0000
0000
0000
0000
0000
0000
0000
0000
0001
0000
0100
0000
0001
0000
1000
0000
0000
0000
0000
0000
0000
0000
0000
0000
0000
0000
,
1000
0010
0000
0001
0000
0010
0000
0100
0000
0000
0000
0000
0001
0000
1000
0000
,
0100
0000
0000
0010
0000
0000
0000
0000
0000
1000
0000
0000
0000
0000
0000
0010
0000
0000
0000
0000
0000
0001
0000
0000
0000
0000
0000
0000
0000
0000
1000
0000
0001
0000
0100
0000
0001
0000
0000
0000
0000
0000
0000
0000
0000
0000
0000
0000
,
0001
1000
0100
1000
0000
0001
0000
1000
0000
0010
0000
0000
0100
0000
0001
0000
,
1001
0000
0000
0001
0000
0000
0100
0010
0000
0100
1000
0000
0100
0000
0001
0000
,
1000
0000
0000
1000
0000
0000
0100
0010
0000
0100
1000
0000
0001
0000
0100
0000
,
1000
0100
0001
0010
0001
0100
1000
0100
,
0001
0000
0000
0001
0000
0000
0100
0001
0000
1000
0001
0000
0100
0000
0001
0000
,
1000
0000
0000
1000
0000
0000
0010
0001
0000
0010
0100
0000
0001
0000
1000
0000
,
0001
0000
0000
0001
0000
0000
0010
1000
0000
0010
0100
0000
1000
0000
0001
0000
,
1000
0010
0001
0010
1000
1000
0000
1000
,
0010
1000
0100
0001
0100
1000
0001
2001
,
0000
0000
3001
0000
0100
0000
0010
0000
1000
0010
1000
0000
0000
0000
1000
0000
,
0010
0000
1000
0000
0100
0000
0010
0000
0001
0010
0001
0000
0000
0000
0021
0000
,
0000
0031
0010
1000
0010
0100
1000
0010
,
1010
0000
0010
0100
0001
0010
0001
0201
,
0000
0000
0301
0000
0100
0000
0010
0000
1000
0010
1000
0000
0000
0000
1000
0000
,
0100
0000
0001
0000
0100
0000
0010
0000
0001
0010
0001
0000
0100
0000
0010
0000
,
1010
0000
1001
0000
0101
0000
0001
0010
,
0011
0000
0110
0000
1100
0000
1000
0001
,
1000
0000
0000
0010
0000
0000
0000
0000
0000
0001
0000
0000
0000
0000
0000
0010
0000
0000
0000
0000
0000
0100
0000
0000
0000
0000
0000
0000
0000
0000
0001
0000
0100
0000
0001
0000
1000
0000
0000
0000
0000
0000
0000
0000
0000
0000
0000
0000
,
1000
0010
0100
0001
0000
0001
0000
0010
0000
0000
0010
0100
1000
0000
0010
0100
,
0001
0000
1000
0100
0010
0000
0001
0100
0000
0010
0000
1000
0000
0000
0001
0000
,
0010
0100
0000
1000
0000
0010
0000
0001
0000
0001
0010
1000
0010
0000
0100
0001
,
0020
0000
0130
1000
0020
0000
0130
0001
2000
0000
3100
1000
0002
0000
0103
0001
,
1000
0001
0000
1000
0000
0001
0000
0010
0000
0010
0100
1000
0100
0000
1000
0000
,
0000
1000
0100
0010
0001
0000
0000
1000
0100
0010
0001
0000
0000
0100
0000
0020
,
0000
0130
0010
1000
0001
1000
0010
1000
0100
0010
0001
1000
0001
0100
0010
0100
,
0001
0100
1000
0100
,
0002
0000
0023
0000
2030
0000
3010
1002
,
0000
0000
1003
0000
0100
0000
0001
0000
0100
0010
0001
0000
0000
0000
1000
0000
,
0010
0000
0001
0000
0010
0000
0100
0000
0001
0010
0100
0000
0000
0000
0100
0000
,
0010
1000
0010
0100
1000
0010
0100
0001
,
1001
0000
1010
0000
1100
0000
1000
2001
,
0000
0000
3001
0000
0100
0000
1000
0000
0100
0010
1000
0000
0000
0000
1000
0000
,
0100
0000
0001
0000
0100
0000
0010
0000
0001
0100
0010
0000
1000
0000
0001
0000
,
0011
0000
1001
0000
1100
0000
0100
1000
,
1010
0000
1001
0000
0101
0000
0110
1001
;

//---------------dance-single - ----------------
#NOTES:
     dance-single:
     :
     Medium:
     7:
     0.506,0.551,0.341,0.234,0.078:
0000
0000
0000
0000
,
0000
0000
0000
0000
,
0000
0000
0000
0000
,
0000
0000
0000
0000
0000
0000
0000
1002
,
0000
1003
0100
0001
0100
1000
0000
2000
,
0000
3010
0100
0001
1000
0001
0000
0020
,
0000
0130
1000
0010
1000
0100
0010
0001
,
1000
0001
0000
0100
0001
1000
0001
0012
,
0000
1003
0001
0100
0010
0100
0000
0020
,
0000
1030
0100
0001
1000
0001
0100
0010
,
0011
0000
1001
0000
1100
0000
0000
1000
,
1010
0000
1001
0000
0101
0000
0100
0010
,
1001
1100
1001
0012
,
0100
0000
1000
0000
0010
0000
1003
0001
,
0010
0000
0000
0000
0010
0000
0000
0001
0000
1000
0000
0000
0100
0000
1000
0000
,
0010
0000
0000
0010
0000
0010
0000
1000
0000
0001
0000
0000
0100
0000
0001
0000
,
1001
0001
1000
0001
1000
0100
0010
0000
,
0010
0100
0010
0001
1000
0000
0000
0000
,
0001
1000
0001
1000
0010
0100
0001
0000
,
1100
0000
1001
0000
0101
0000
0220
0330
,
1001
0000
0000
0000
1000
0000
0000
0100
0000
0010
0000
0002
0000
0000
0000
0003
,
1001
0000
0000
0000
0001
0000
0000
0100
0000
0010
0000
2000
0000
0000
0000
3000
,
0010
1000
0100
0001
0100
1000
0010
1000
,
0001
0200
0000
0000
0000
0000
0301
1000
,
1100
0000
0000
0000
1000
0000
0000
0010
0000
0100
0000
0000
0001
0000
1000
0000
,
1010
0000
0000
0000
1000
0000
0000
0010
0000
0100
0000
0000
0001
0000
0010
0000
,
1000
0001
1000
0010
0001
1000
0000
1000
,
0010
0001
0010
0100
0001
1000
0001
1002
,
0000
1003
0100
0001
0100
1000
0000
2000
,
0000
3010
0100
0001
1000
0001
0000
0020
,
0000
1030
0010
0001
0100
1000
0100
0010
,
1000
0000
0100
0000
0010
0000
0001
2001
,
0000
3001
0100
1000
0100
0001
0000
0002
,
0000
0013
0100
1000
0010
0100
0001
1000
,
0010
0000
1000
0000
0100
0000
0001
0100
,
0010
0000
0001
0000
0100
0000
1000
0100
,
0010
1000
0010
1000
0010
0001
0010
0000
,
0010
1000
0001
0010
1000
0010
0001
0010
,
0100
0010
0001
0100
0010
1000
0001
0100
,
1000
0100
0001
1000
0010
0010
1000
0001
,
0011
1000
1010
0001
0101
1000
1100
1000
,
1001
0001
0100
0010
1000
0001
1000
0100
,
0000
1000
0101
0000
0001
1100
0000
1000
,
1001
0000
1000
0010
0100
0001
1000
0100
,
0011
0001
0100
1000
,
0200
0000
0302
0000
0023
0000
0130
1002
,
0000
1003
0010
0001
0010
1000
0000
2000
,
0000
3001
0010
1000
0010
0100
0000
0200
,
0000
1300
0010
0100
0001
0100
1000
0100
,
0010
0000
1000
0000
0100
0000
0010
2001
,
0000
3001
0100
1000
0100
0001
0000
0002
,
0000
1003
0001
1000
0100
0010
0100
1000
,
0010
0000
0100
0000
0001
0000
0010
0100
,
1000
0000
0100
0000
0010
0000
0001
1001
;

//---------------dance-single - ----------------
#NOTES:
     dance-single:
     :
     Beginner:
     2:
     0.165,0.235,0.097,0.000,0.000: // measure 1
0000
0000
0000
0000
,  // measure 2
0000
0000
0000
0000
,  // measure 3
0000
0000
0000
0000
,  // measure 4
0000
0000
0000
0000
,  // measure 5
0000
0000
1000
0000
,  // measure 6
0001
0000
1000
0000
,  // measure 7
0010
0000
0100
0000
,  // measure 8
0001
0000
1000
0000
,  // measure 9
1001
0000
1000
0000
,  // measure 10
0100
0000
0010
0000
,  // measure 11
0001
0001
0001
0000
,  // measure 12
1000
1000
1000
0000
,  // measure 13
0001
0000
0010
0010
,  // measure 14
0000
0000
0000
0000
,  // measure 15
0100
0000
1000
0000
,  // measure 16
0100
0000
0010
0000
,  // measure 17
1001
0000
0000
0001
,  // measure 18
0001
0000
0000
0000
,  // measure 19
1000
0000
0000
1000
,  // measure 20
1000
0000
1000
1000
,  // measure 21
1001
0000
0001
0001
,  // measure 22
0000
0000
0100
0100
,  // measure 23
0100
0000
1000
0000
,  // measure 24
0100
0000
0000
0000
,  // measure 25
0100
0000
0010
0010
,  // measure 26
0000
0000
1000
1000
,  // measure 27
1000
0000
0100
0000
,  // measure 28
0001
0000
0100
0000
,  // measure 29
1001
0000
0001
0000
,  // measure 30
0100
0000
1000
0000
,  // measure 31
0100
0000
0001
0000
,  // measure 32
1000
0000
0100
0000
,  // measure 33
0110
0000
0010
0000
,  // measure 34
0001
0000
0100
0000
,  // measure 35
1000
1000
1000
0000
,  // measure 36
0001
0001
0001
0000
,  // measure 37
1000
0000
0100
0000
,  // measure 38
0001
0000
1000
0000
,  // measure 39
0001
0001
0001
0000
,  // measure 40
1000
0000
0010
0000
,  // measure 41
1001
0001
1000
1000
,  // measure 42
0001
0001
1000
1000
,  // measure 43
0000
0100
0000
0100
,  // measure 44
0000
0010
0000
0010
,  // measure 45
0110
0000
0000
0000
,  // measure 46
0001
0000
0000
0000
,  // measure 47
1001
0000
0001
0000
,  // measure 48
0100
0000
1000
0000
,  // measure 49
0001
0000
0010
0000
,  // measure 50
1000
0000
0001
0000
,  // measure 51
1001
0000
1000
0000
,  // measure 52
0100
0000
0010
0000
,  // measure 53
0001
0001
0001
0000
,  // measure 54
1000
1000
1000
1001
;
