#TITLE:Crack Traxxxx;
#SUBTITLE:;
#ARTIST:Lite Show Magic (t+pazolite vs. C-Show);
#TITLETRANSLIT:;
#SUBTITLETRANSLIT:;
#ARTISTTRANSLIT:;
#GENRE:;
#CREDIT:;
#BANNER:Crack Traxxxx.png;
#BACKGROUND:Crack Traxxxx-bg.png;
#LYRICSPATH:;
#CDTITLE:cdtitle.png;
#MUSIC:Crack Traxxxx.ogg;
#OFFSET:-3.000000;
#SAMPLESTART:64.130722;
#SAMPLELENGTH:8.727272;
#SELECTABLE:YES;
#BPMS:0.000000=220.000000
,189.000000=110.000000
,197.000000=220.000000
,277.000000=110.000000
,287.500000=55.000000
,288.000000=220.000000
,304.000000=110.000000
,308.000000=220.000000
,317.000000=110.000000
,320.000000=220.000000
,329.000000=110.000000
,333.000000=220.000000
,338.000000=440.000000
,339.000000=220.000000
,340.000000=440.000000
,341.000000=220.000000
;
#STOPS:60.000000=0.818000,
287.500000=0.273000,
338.000000=0.136000,
340.000000=0.136000
;
#BGCHANGES:;
#KEYSOUNDS:;
#ATTACKS:;

//---------------dance-single - ----------------
#NOTES:
     dance-single:
     :
     Hard:
     9:
     0.689848,0.739918,0.426324,0.278750,0.077886,589.000000,537.000000,52.000000,34.000000,11.000000,0.000000,0.689848,0.739918,0.426324,0.278750,0.077886,589.000000,537.000000,52.000000,34.000000,11.000000,0.000000:
0000
0000
0000
0000
,
0000
0000
0000
0000
,
0000
0000
0000
0000
,
0000
0000
0000
0000
,
1010
0000
0000
2001
0000
0000
0000
0000
,
0000
0000
0000
0000
,
0000
0000
0000
0000
,
3002
0000
0000
1003
,
0011
0000
0000
1001
0000
0000
1010
0000
,
1000
0100
0010
0001
,
0101
0000
0000
1001
0000
0000
1100
0000
,
0001
0100
0010
1000
,
0001
0100
0010
0100
0001
2000
0000
0000
,
3100
0010
0001
1000
0010
1000
0001
0010
,
0100
1000
0100
1000
0001
0100
0010
0100
,
0001
0000
1000
0100
0010
0100
1000
0100
,
0010
0100
1000
0100
0001
0100
1000
0010
,
0200
0000
0301
0100
0010
0100
0001
0100
,
0010
0100
0001
0100
1000
0100
0101
0000
,
1001
0000
0001
0010
0100
0010
0001
0010
,
0100
0010
0001
0010
1000
0010
0001
0100
,
0020
0000
0000
0000
1030
0000
0000
1000
0010
0000
0000
0010
0100
0000
0000
0100
,
0001
0000
0000
0001
1000
0000
0000
0000
1000
0000
0000
0000
0001
0000
0000
0000
,
0001
0000
1000
0100
0001
0100
1000
0100
,
0001
0100
1000
0100
0001
0100
1000
0010
,
0200
0000
0301
0100
1000
0100
0001
0100
,
1000
0100
0001
0100
1000
0100
0001
0010
,
0200
0000
1300
0010
0001
0010
1000
0001
,
2000
0000
3001
0010
1000
0010
0001
1000
,
0002
2003
0000
0000
,
0000
0001
0001
0001
,
3001
0000
1001
0000
0000
0000
0010
1000
,
0001
0010
0000
0001
0100
010M
1000
0010
,
M010
0001
1000
0000
0010
0100
0010
0000
,
1000
0001
0010
0001
1000
0001
0100
010M
,
1000
0000
1001
0000
0000
0000
0100
1000
,
0001
0100
0000
0100
0001
0010
0001
0100
,
1000
0100
0010
0000
0000
0000
0000
0000
,
0000
1001
0000
0000
,
0011
0000
1001
0000
0000
0000
0100
1000
,
0001
0100
0000
0001
0010
001M
1000
0100
,
M100
0001
1000
0000
0100
0010
0100
0000
,
1000
0001
0100
0001
1000
0001
0010
001M
,
1000
0000
1010
0000
0010
0000
0100
0001
,
1000
0010
1000
0100
M100
0001
0010
001M
,
1000
0001
1000
0001
1000
0000
0000
0000
0000
0000
1010
0000
0000
0000
1001
0000
,
0000
0011
0001
1000
0010
0100
0001
1000
,
0100
0000
0010
0000
0001
0000
1000
0000
1000
0000
0010
0100
0001
0000
1000
0000
,
1000
0000
0100
0000
0010
0000
0000
0100
0000
1000
0000
0001
0200
0000
0000
0000
,
0000
0000
0301
0000
1000
0001
1000
0000
,
0010
0100
0001
0000
1000
0001
1000
0000
,
0100
0000
1001
0000
0000
0101
0000
0001
,
1000
0100
0020
0000
0000
0000
0000
0000
,
0030
0000
1000
0100
0001
0100
1000
0010
,
0100
0000
0002
0000
0000
0000
1003
0000
0001
0100
0001
0000
1000
0000
0100
0000
,
0010
0100
0000
1010
0000
0101
0000
0001
,
0010
0100
2000
0000
3001
0000
0110
0000
,
1001
0000
1000
0010
0001
0010
1000
0100
,
0010
0000
0002
0000
0000
0000
1003
0000
0001
0010
0001
0000
1000
0000
0010
0000
,
0100
0001
2000
0000
3001
0000
1000
0010
,
1000
0001
0010
0000
1100
0000
1010
0000
,
0101
0000
1000
0100
0001
0100
1000
0010
,
0100
0000
0002
0000
0000
0000
1003
0000
0010
0100
0010
0000
1000
0000
0100
0000
,
0010
0001
0000
0101
0000
1010
0000
1000
,
0100
0010
0001
0000
0101
0000
1010
0000
,
1001
0000
1000
0100
0001
0100
0010
0100
,
1000
0000
0020
0000
0000
0000
0130
0000
0001
1000
0001
0000
1000
0000
0100
0000
,
0010
0001
0000
1010
0000
0101
0000
0011
,
0000
1100
1002
0000
0000
0000
0000
0000
,
1003
0000
0000
0000
1001
0000
0001
0000
0100
0000
0010
1000
0010
0000
0100
0000
,
0001
0000
0010
0000
0100
0000
0000
1100
0000
1000
0000
0010
0200
0000
0000
0000
,
0300
0000
0000
0000
0000
0000
0000
0000
0001
0000
0000
0000
0001
0000
0000
0000
0010
0000
0000
0000
0100
0000
1000
0000
0100
0000
0000
0000
2002
0000
0000
3003
,
1000
0100
0010
0000
0010
0100
1000
0000
,
0001
0100
0010
0100
0010
1000
0100
0000
,
1000
0010
0001
0010
1000
0010
0001
0010
,
1000
0010
0001
0010
0100
01M0
1000
0000
,
2001
0001
0001
3001
0102
0100
0100
0103
,
0001
0010
1000
0010
0001
0010
1000
0010
,
0001
0010
1000
0010
0100
M100
0001
0000
,
0001
1000
2001
0000
3000
0102
0000
0000
,
1003
0000
1000
0100
0001
0100
1000
0100
,
0001
0100
1000
0100
0001
0100
0010
0M10
,
1000
0000
1002
1000
1000
1003
2100
0100
,
0100
3100
0001
0010
1000
0010
0001
0010
,
1000
0010
0001
0100
0202
0303
1000
0100
,
2200
3300
1001
0000
0001
0000
2001
0000
,
0000
3001
0100
0010
,
1000
0000
0001
0100
0010
1000
0001
0010
,
0100
1000
0001
0000
0100
0000
0010
0000
,
1000
0000
1000
0100
0010
0001
1000
0010
,
0100
0001
1000
0000
0100
0000
0010
0000
,
0001
0000
1000
0100
0001
0100
1000
0020
,
0000
0000
0130
0001
0010
0100
0010
0001
,
1000
0010
0100
0001
0010
0001
0010
0100
,
1000
0010
1000
0000
0000
0000
0000
0000
,
1001
0000
0000
0000
;
