#TITLE:Boss Rush;
#SUBTITLE:;
#ARTIST:USAO;
#TITLETRANSLIT:;
#SUBTITLETRANSLIT:;
#ARTISTTRANSLIT:;
#GENRE:;
#CREDIT:;
#BANNER:[Mighty No. 9] - Boss Rush (xRGTMx).png;
#BACKGROUND:[Mighty No. 9] - Boss Rush (xRGTMx)-bg.png;
#LYRICSPATH:;
#CDTITLE:cdtitle.png;
#MUSIC:[Mighty No. 9] - Boss Rush (xRGTMx).ogg;
#OFFSET:0.010000;
#SAMPLESTART:82.105003;
#SAMPLELENGTH:15.157890;
#SELECTABLE:YES;
#BPMS:0.000000=190.000000
,100.000000=95.000000
,148.000000=190.000000
;
#STOPS:
;
#BGCHANGES:;
#KEYSOUNDS:;
#ATTACKS:;

//---------------dance-single - xRGTMx----------------
#NOTES:
     dance-single:
     xRGTMx-SX:
     Challenge:
     11:
     0.799667,1.494278,0.983591,0.319867,0.367847,700.000000,577.000000,123.000000,40.000000,6.000000,0.000000,0.799667,1.494278,0.983591,0.319867,0.367847,700.000000,577.000000,123.000000,40.000000,6.000000,0.000000:
// measure 0
0000
0000
0000
0000
,  // measure 1
0000
0000
0000
0000
,  // measure 2
0000
0000
0000
0000
,  // measure 3
0000
0000
0000
0000
,  // measure 4
0000
0000
0000
0000
,  // measure 5
0000
0000
0000
0000
,  // measure 6
0000
0000
0000
0000
,  // measure 7
0000
0000
0000
0000
,  // measure 8
0000
0000
0000
0000
,  // measure 9
2001
0000
3100
0000
0001
0100
0010
0001
,  // measure 10
0000
0100
0000
2000
0000
3100
1000
0100
,  // measure 11
0010
1000
0010
0000
0100
0000
0001
0100
,  // measure 12
0001
0010
0100
0000
0010
0000
0002
0000
,  // measure 13
2003
0000
3100
0000
0001
0100
1000
0020
,  // measure 14
0000
0031
0010
0200
0000
0310
1000
0001
,  // measure 15
0010
1000
0010
0000
0100
0000
0001
0100
,  // measure 16
1000
0000
0010
0000
1000
0000
0000
0000
0001
0000
1000
0000
0020
0000
0000
0030
,  // measure 17
1010
1000
0100
1010
0100
1000
1001
0001
,  // measure 18
0011
0001
0100
0011
0100
0001
1001
1000
,  // measure 19
1100
1000
0010
1100
0010
1000
1001
0001
,  // measure 20
0010
0000
0001
0000
0101
0000
0001
0000
0010
0000
0101
0000
1000
0000
0001
1000
,  // measure 21
0010
0000
0110
0000
0101
0000
1001
1000
,  // measure 22
1100
0110
0011
1001
,  // measure 23
0001
0000
1000
0000
0001
0000
1000
0000
0010
0100
0001
1000
0001
0010
0100
1000
,  // measure 24
0001
0000
0000
0000
0100
0000
0010
0000
4000
0000
0000
0000
3400
0000
0000
0300
,  // measure 25
M11M
0000
0000
0000
1001
0000
0000
0000
1000
0000
0011
0000
1100
0000
0011
0000
0100
0000
0011
0000
1100
0000
0001
0000
0104
0000
0000
0000
0043
0000
0000
0030
,  // measure 26
0110
0000
1001
0000
0001
1010
0101
1010
0100
1010
0101
1000
4001
0000
3100
0010
,  // measure 27
0110
0000
0000
0000
1001
0000
0000
0000
1000
0000
0101
0000
1010
0000
0101
0000
0010
0000
0101
0000
1010
0000
0001
0000
1004
0000
0000
0000
0403
0000
0000
0300
,  // measure 28
0110
0000
0000
0000
0001
0000
0010
0000
0M00
0000
0010
0000
1000
0000
1000
0000
0010
0000
0100
0000
0100
0000
0000
0000
0001
0100
0010
0000
2000
0000
0000
3000
,  // measure 29
0110
0000
0000
0000
1001
0000
0001
0000
1000
0000
0011
0000
1100
0000
0011
0000
1000
0000
0101
0000
1010
0000
0001
0000
1004
0000
0000
0000
0043
0000
0000
0030
,  // measure 30
0110
0000
0000
0000
1001
0000
1000
0000
0001
0000
1010
0000
0101
0000
1010
0000
0001
0000
1200
0000
0310
0000
1000
0000
4001
0000
0000
0000
3400
0000
0000
0300
,  // measure 31
0110
0000
1000
0010
0M00
0010
0001
0001
1000
0001
0010
0000
0200
0000
1000
1300
,  // measure 32
0100
1000
0100
1000
0010
0100
0001
1000
0001
0010
0001
0010
0100
1000
0001
0100
0040
0000
0000
0000
0000
0000
0000
0000
0130
0000
0001
0000
2000
0000
0000
3000
,  // measure 33
1002
0000
0103
0000
1000
0100
0010
1000
0000
0100
0000
0002
0000
0103
0001
0100
,  // measure 34
0010
0001
0010
0000
0100
0000
1000
0100
1000
0010
0100
0000
0010
0000
2000
0000
,  // measure 35
3002
0000
0103
0000
1000
0100
0001
0020
0000
1030
0010
0200
0000
0310
0001
1000
,  // measure 36
0010
0000
0001
0000
0010
0000
0000
0000
0100
0000
0000
0000
1000
0000
0100
0000
0140
0000
0000
0000
4030
0000
3000
0000
0100
0010
0001
1000
0010
0000
0100
0000
,  // measure 37
M22M
0000
0000
0000
,  // measure 38
0330
0000
0000
0000
,  // measure 39
0000
0000
0000
0000
,  // measure 40
0000
0000
0000
0000
,  // measure 41
0000
1000
0000
1000
,  // measure 42
0000
0001
0000
0001
,  // measure 43
0000
0010
0000
0010
,  // measure 44
0000
0100
0000
0100
,  // measure 45
1100
1000
0010
1100
0010
1000
1001
0001
,  // measure 46
0101
0000
0001
0000
0010
0000
0101
0000
0010
0000
0001
0000
4000
0000
0000
3000
,  // measure 47
1010
1000
0100
1010
0100
1000
1001
0001
,  // measure 48
0011
0000
0000
0001
0100
0000
0011
0000
0000
0100
0001
0000
1001
0000
0001
1000
,  // measure 49
0100
0000
0110
0000
0011
0000
1001
1000
,  // measure 50
1010
0110
0101
1001
,  // measure 51
0001
0000
1000
0000
0001
0000
1000
0000
0100
0010
0001
1000
0001
0100
0010
1000
,  // measure 52
0001
0000
1000
0000
0020
0000
0130
0010
0100
0000
0001
0000
2000
0000
0100
3000
,  // measure 53
0110
0010
0001
1000
0101
1000
0010
1100
,  // measure 54
0001
0000
0000
1100
0000
0000
0010
0000
0000
1100
0000
0000
0011
0000
0000
1000
0000
0000
0040
0000
0000
0100
0030
0000
,  // measure 55
0110
0010
1000
0001
1100
0010
1000
0101
,  // measure 56
0010
0000
0101
0000
1000
0000
0101
0000
1010
0000
0001
0000
0040
0000
0100
0030
,  // measure 57
0110
0010
0001
2000
3100
1000
1000
1000
,  // measure 58
0010
0000
0000
0000
1000
0000
0000
0000
2000
0000
0000
0000
0010
0000
0000
0000
3001
0000
0000
0000
1000
0000
0000
0000
0020
0000
0000
0000
0230
0000
0000
0300
,  // measure 59
0110
1000
0002
0100
0103
0001
0002
0010
,  // measure 60
0023
0000
0100
0000
0230
0000
1000
0000
1300
0001
0100
0000
0040
0000
0100
0030
,  // measure 61
0110
0010
1000
0001
1010
0001
0100
0011
,  // measure 62
1000
0000
0000
0011
0000
0000
0100
0000
0000
0011
0000
0000
1100
0000
0000
0001
0000
0000
0400
0000
0000
0010
0300
0000
,  // measure 63
0110
0100
0001
1000
0011
0100
0001
1010
,  // measure 64
0100
0000
1010
0000
0001
0000
1010
0000
0101
0000
1000
0000
0400
0000
0010
0300
,  // measure 65
0110
0100
1000
0002
0103
0001
0001
0001
,  // measure 66
0010
0001
0002
0010
1003
0001
0020
0230
,  // measure 67
1300
0010
0001
0010
0100
0000
0001
1000
,  // measure 68
1001
0000
0000
0101
0000
0000
1100
0000
0000
1010
0000
0000
0011
0000
0010
0100
,  // measure 69
2000
0000
3100
1000
0001
0100
0010
0001
,  // measure 70
0010
0100
0010
2000
0000
3100
1000
0100
,  // measure 71
0010
1000
0010
0001
0100
0010
1000
0100
,  // measure 72
1000
0010
0100
1000
0001
0010
2000
0000
,  // measure 73
3002
0000
0103
0001
1000
0100
1000
0020
,  // measure 74
0000
0031
0010
0200
0000
0310
1000
0001
,  // measure 75
0010
1000
0010
0001
0100
0001
1000
0100
,  // measure 76
0001
1000
0010
0001
0100
0001
2000
0000
,  // measure 77
3001
0010
1000
0010
0001
0100
0100
0001
,  // measure 78
1000
0010
1000
0001
0100
0001
1000
0100
,  // measure 79
1000
0010
0001
0010
1000
0100
0100
1000
,  // measure 80
0001
0010
0001
1000
0100
1000
0001
0100
,  // measure 81
0010
0000
0110
0000
1010
0000
1001
0001
,  // measure 82
0011
0110
1100
1001
,  // measure 83
1000
0000
0001
0000
1000
0000
0001
0000
0100
0010
1000
0001
1000
0100
0010
0001
,  // measure 84
0100
0000
0000
0101
0000
0000
1100
0000
1000
0001
0000
0000
0110
0000
0001
1000
;
