#TITLE:Boss Rush;
#SUBTITLE:;
#ARTIST:USAO;
#TITLETRANSLIT:;
#SUBTITLETRANSLIT:;
#ARTISTTRANSLIT:;
#GENRE:;
#CREDIT:;
#BANNER:Boss Rush.png;
#BACKGROUND:Boss Rush-bg.png;
#LYRICSPATH:;
#CDTITLE:;
#MUSIC:Boss Rush.ogg;
#OFFSET:-0.711510;
#SAMPLESTART:51.239998;
#SAMPLELENGTH:15.000000;
#SELECTABLE:YES;
#BPMS:0.000000=190.000000
,96.000000=95.000000
,144.000000=190.000000
;
#STOPS:
;
#BGCHANGES:;
#KEYSOUNDS:;
#ATTACKS:;

//---------------dance-single - ----------------
#NOTES:
     dance-single:
     :
     Hard:
     9:
     0.724672,1.000000,0.638076,0.502485,0.271182,493.000000,80.000000,63.000000,0.000000,0.000000,0.000000,0.724672,1.000000,0.638076,0.502485,0.271182,493.000000,80.000000,63.000000,0.000000,0.000000,0.000000:
0000
0000
0000
0000
,
0000
0000
0000
0000
,
0000
0000
0000
0000
,
0000
0000
0000
0000
,
0001
0000
1000
0000
0100
1000
0010
1000
,
0000
0001
0100
0001
0000
1000
0100
1000
,
0010
1000
0001
0000
0010
0000
0100
1000
,
0000
1000
0100
0010
0001
0000
1000
0000
,
1001
0000
0110
0000
1000
0010
1000
0001
,
0000
0100
0001
0100
0000
0001
0010
0100
,
1000
0100
0010
0000
0001
0100
0001
1000
,
0000
0010
1000
0000
0020
0000
0130
0000
,
0110
0000
1001
0000
0001
0100
0001
0010
,
0000
0100
1000
0100
0000
0010
0001
1000
,
0010
1000
0001
0000
0100
0000
0010
0100
,
0000
0010
0100
0000
0110
0000
1001
0000
,
0002
0000
0000
1000
0000
0000
1003
0000
,
2000
0000
0000
0010
0000
0000
3010
0000
,
0020
0000
0000
0100
0000
0000
0130
0000
,
0100
0000
0001
0010
0000
0001
0100
0000
,
1010
1001
0011
0110
,
1100
1001
0101
0110
,
1000
0000
0100
0000
1000
0000
0010
0000
0100
0000
0001
0000
0100
0010
0100
0010
,
0200
0000
0000
0310
,
0101
0000
0101
0000
0001
0100
0001
0010
0001
1000
0001
0100
0001
0000
1000
0000
,
1100
0000
1100
0000
1000
0100
1000
0010
1000
0001
1000
0100
1000
0000
0010
0000
,
1010
0000
1010
0000
1000
0010
1000
0001
1000
0100
1000
0001
1000
0000
0001
0000
,
0011
0000
0011
0000
0001
0010
0001
1000
0001
0100
0001
1000
1001
0000
0110
0000
,
1010
0000
0101
0000
0001
0100
1000
0100
0001
0010
0100
0010
0002
0000
0000
0000
,
1003
0000
1100
0000
1000
0100
0001
0100
1000
0010
0100
0010
2000
0000
3002
0000
,
0103
0000
0110
0000
0010
1000
0100
1000
0001
0010
0001
0100
0020
0000
0000
0000
,
1030
0100
1000
0001
0100
0001
1000
0010
1000
0001
0010
0001
2000
0000
3002
0000
,
0103
0000
0101
0000
0001
0100
0010
1000
0000
1100
0000
0101
0000
0001
0100
0001
,
1000
0000
1010
0000
0010
0100
0001
0010
0000
0001
1000
0000
1001
0000
0110
0000
,
1000
0000
1010
0000
0100
0001
0010
0001
0000
1000
0100
0010
0000
0001
0100
0001
,
0010
0100
1000
0000
0010
1000
0001
0010
0000
0100
1000
0000
2002
0000
3003
0000
,
0002
0000
0000
0000
,
0203
0000
0000
0000
,
0320
0000
0000
0000
,
2030
0000
0000
0000
,
3200
0000
0320
0000
,
0032
0000
2003
0000
,
3020
0000
0000
0000
,
0200
0000
0330
0110
,
0102
0000
0000
0010
0000
0000
1003
0000
,
2100
0000
0000
0010
0000
0000
3001
0000
,
0012
0000
0000
0100
0000
0000
1003
0000
,
1010
0000
0000
1000
0000
0000
0010
0000
0000
0100
0000
0000
0101
0000
0000
0000
,
0002
0023
2030
3200
,
0302
0203
2300
3020
,
0031
0000
0010
0000
0001
0000
0100
0000
0010
0000
1000
0000
0100
0010
0100
0010
,
0200
0000
0000
0310
,
0011
0000
1100
1000
0100
1000
0010
0200
,
0001
0301
0010
0000
0110
0000
1001
0000
,
0011
0000
0101
0001
0100
0001
1000
0200
,
0010
0310
0110
0000
1000
0010
0001
0000
,
0021
0000
1030
0200
0010
0310
0001
0200
,
0010
0310
2000
0000
3001
0010
1000
0000
,
1010
0000
0021
0000
0100
0130
2100
0000
,
3020
0000
0000
0000
0230
0000
0000
0000
0301
1000
0001
1000
0020
0000
0000
0000
,
0130
0000
0110
0010
1000
0200
1000
1300
,
0010
0001
0010
0000
1010
0000
2001
0000
,
3100
0000
0110
0010
0001
0200
0001
0301
,
0010
1000
0010
0000
0001
1000
0020
0000
,
0130
0000
0001
0020
0001
0031
1000
0020
,
1000
1030
0001
0000
0100
0010
1000
0000
,
0001
0100
1000
0001
0010
1000
0100
0010
,
0011
0000
0000
0110
0000
0000
1100
0000
0000
1001
0000
0000
0110
0000
0000
0000
,
0102
0000
0013
1000
0010
0001
0100
0020
,
0000
2030
0000
3002
0000
1003
0100
0010
,
0001
0010
0100
1000
0010
0100
0010
1000
,
0000
0100
0001
0100
0110
0000
1001
0000
,
2100
0000
3010
0001
0010
1000
0100
0020
,
0000
0130
0001
2000
0000
3010
0001
0100
,
0010
1000
0010
0001
0010
0100
0001
0020
,
0000
0130
1000
0001
1001
0000
0110
0000
,
0101
0001
0010
0100
1000
0100
0001
1000
,
0010
0001
0010
0100
0002
0000
0203
0000
,
1300
0010
0001
0010
0100
0001
0010
1000
,
0010
0010
0001
0100
2000
0000
3100
0000
,
0101
0000
1010
0000
1100
0000
1000
0100
,
1100
0000
0011
0000
0101
0000
0001
0100
,
0010
0000
1000
0000
0010
0000
0001
0000
0010
1000
0010
0000
1000
0100
1000
0000
,
1100
0000
0000
0101
0000
0000
0110
0000
0000
1010
0000
0000
0011
0000
0001
1000
;

//---------------dance-single - ----------------
#NOTES:
     dance-single:
     :
     Challenge:
     10:
     0.947998,1.000000,0.973065,0.279158,0.598196,675.000000,122.000000,35.000000,0.000000,0.000000,0.000000,0.947998,1.000000,0.973065,0.279158,0.598196,675.000000,122.000000,35.000000,0.000000,0.000000,0.000000:
// measure 0
0000
0000
0000
0000
,  // measure 1
0000
0000
0000
0000
,  // measure 2
0000
0000
0000
0000
,  // measure 3
0000
0000
0000
0000
,  // measure 4
1010
0000
0101
0100
0010
1000
0100
0001
,  // measure 5
0000
0001
0100
1000
0000
1000
0010
0100
,  // measure 6
0001
0010
0100
0000
1100
0000
1010
0010
,  // measure 7
0000
0100
1000
0100
0001
0000
1001
0000
,  // measure 8
1100
0000
0101
0100
0010
1000
0010
0001
,  // measure 9
0000
1000
0100
0010
0000
1000
0100
0001
,  // measure 10
0100
0010
0001
0100
0010
0001
1000
0100
,  // measure 11
0001
0010
0100
0010
0001
0000
1001
0000
,  // measure 12
0101
0000
1100
1000
0010
0001
0010
0100
,  // measure 13
0000
1000
0100
0001
0000
0001
0100
0010
,  // measure 14
1000
0100
0001
0100
1000
0010
0001
1000
,  // measure 15
0001
0010
1000
0001
1001
0000
0110
0000
,  // measure 16
2010
0000
0010
0010
0000
0100
3200
0000
,  // measure 17
0001
0000
1000
1000
0000
0010
0310
0000
,  // measure 18
0012
0000
0010
0010
0000
0100
0203
0000
,  // measure 19
1000
0000
0000
0000
0010
0000
0010
0000
0000
0000
0001
0000
0301
0000
0010
0100
,  // measure 20
1000
0000
0100
0000
0001
0000
0100
0000
1000
0000
0100
0000
0001
0000
0100
1000
,  // measure 21
0010
0000
0001
0000
0010
0000
1000
0000
0010
0000
0001
0000
0010
0000
1000
0001
,  // measure 22
0010
0100
0010
0001
0100
0010
1000
0100
0010
0001
0010
0100
1000
0010
0100
0002
,  // measure 23
2000
0000
3003
1001
,  // measure 24
1010
0000
0110
0010
2000
0010
0010
3010
0002
0010
0010
0013
0011
0000
1000
0010
,  // measure 25
0101
0000
0011
0010
0002
0010
0010
0013
2000
0010
0010
3010
1010
0000
0001
0001
,  // measure 26
0101
0000
1100
0000
1001
0001
0001
0001
1001
1000
1000
1000
1001
0000
0010
0100
,  // measure 27
0110
0000
0100
0100
0010
1000
1000
1000
0001
0010
0010
0000
0110
0000
1001
0000
,  // measure 28
1100
0000
0000
0000
0101
0000
0001
0100
0002
0000
0010
0000
0010
0000
0013
0000
2000
0000
0010
0000
0010
0000
3010
0000
0011
0000
0000
0000
1001
0000
0000
0000
,  // measure 29
0101
0000
0000
0000
1100
0000
1000
0100
2000
0000
0010
0000
0010
0000
3010
0000
0002
0000
0010
0000
0010
0000
0013
0000
1010
0000
0000
0000
1001
0000
0000
0000
,  // measure 30
0101
0000
0000
0000
0001
0000
1000
0100
0001
0000
0001
0100
1000
0000
0010
0000
0100
0000
0001
0000
0001
0000
0000
0000
0011
0000
0000
0000
1001
0000
0000
0000
,  // measure 31
1000
0010
1000
0010
0100
0001
0100
0001
0010
0001
0010
0001
1000
0100
1000
0100
0010
0001
1000
0010
0100
0001
1000
0100
0020
0000
0000
0000
0130
0000
0000
0000
,  // measure 32
1200
0000
0000
1300
1100
0100
0010
0001
0000
0101
0000
1001
0100
0001
1000
0100
,  // measure 33
0001
0100
1000
0010
0001
0010
0100
0001
0010
0100
0010
0001
1000
0000
1001
0000
,  // measure 34
0201
0000
0000
0301
0101
0001
0010
0011
0000
0001
0100
1100
0000
1000
0100
0010
,  // measure 35
0001
0000
0010
0000
1000
0000
0100
0000
0001
0000
0100
0000
1000
0000
0001
0000
2000
0000
0001
0000
0001
0000
0001
0000
3010
0100
0010
0100
0010
0100
0010
0100
,  // measure 36
2000
0010
0001
3001
,  // measure 37
0002
0100
1000
1003
,  // measure 38
0200
1000
0010
0310
,  // measure 39
0020
0001
1000
1030
,  // measure 40
1000
0100
1000
0001
0100
0001
0000
1000
,  // measure 41
0010
1000
0001
0000
0010
0000
0100
1000
,  // measure 42
0002
0010
1000
0103
,  // measure 43
0010
1000
0100
0010
0001
1000
1001
0000
,  // measure 44
1100
0010
0010
0101
0010
0010
1001
0000
,  // measure 45
0001
0010
1000
0010
0001
1000
1001
0000
,  // measure 46
0011
0100
0100
1010
0100
0100
1001
0000
,  // measure 47
1100
0000
0000
0101
0000
0000
0011
0000
0000
1010
0000
0000
1001
0000
0010
1000
,  // measure 48
0001
0000
0100
0000
1000
0000
0100
0000
0001
0000
0100
0000
1000
0000
0100
0001
,  // measure 49
0010
0000
1000
0000
0010
0000
0001
0000
0010
0000
1000
0000
0010
0000
0001
1000
,  // measure 50
0010
0100
0001
0010
0001
1000
0100
0010
0001
0010
0100
1000
0001
0100
0010
0200
,  // measure 51
0002
0000
0303
1001
,  // measure 52
1100
0000
0100
0000
0110
0000
0010
0001
0010
0000
0100
0000
1000
0000
1000
0000
,  // measure 53
0010
0001
0010
0000
1010
0000
1001
0000
,  // measure 54
0101
0000
0100
0000
0110
0000
0010
1000
0010
0000
0100
0000
0001
0000
0001
0000
,  // measure 55
0010
1000
0010
0000
0011
0001
1001
0000
,  // measure 56
1100
0000
1000
0000
1010
0000
0010
0100
0001
0000
1000
0000
1100
0000
1000
0000
,  // measure 57
0010
0010
0110
0000
0101
0001
0011
0000
,  // measure 58
1100
0000
0000
0000
0011
0000
0000
0000
0001
0010
0001
0100
0020
0000
0000
0000
,  // measure 59
1030
0000
0100
0000
0002
0000
0000
0000
0103
1000
0010
0100
0001
0000
0001
0000
,  // measure 60
0101
0000
0100
0000
1100
0000
0100
0001
1000
0000
0100
0000
0110
0000
0010
0000
,  // measure 61
0001
0001
0101
0000
1001
0000
1010
0000
,  // measure 62
1100
0000
0100
0000
0101
0000
0100
1000
0001
0000
0100
0000
0110
0000
0010
0000
,  // measure 63
1000
1000
1100
0000
0110
0010
0110
0000
,  // measure 64
0011
0000
0010
0000
0110
0000
0100
1000
0001
0000
0001
0000
0101
0000
0100
0000
,  // measure 65
0010
0010
1020
0000
0130
0001
0021
0000
,  // measure 66
0130
1000
0100
0010
0001
0000
0100
0001
0100
0010
1000
0000
0100
0000
0010
0000
,  // measure 67
0011
0000
0000
0101
0000
0000
1100
0000
0000
1010
0000
0000
0110
0000
0010
1000
,  // measure 68
0100
0100
0110
0010
0001
0100
1000
0200
,  // measure 69
0301
0200
0310
0200
1300
0100
0001
0010
,  // measure 70
0100
0100
1100
0000
1000
0010
0001
0010
,  // measure 71
0100
1000
0100
0010
0001
0010
0110
0000
,  // measure 72
0101
0000
0100
0000
0110
0000
0010
1000
0001
0000
0001
0000
0010
0000
2000
0000
,  // measure 73
3001
1000
0010
0002
1003
0010
0110
0010
,  // measure 74
1010
1000
1100
0000
1000
0100
0001
0100
,  // measure 75
1000
0000
0001
0100
0001
0000
1000
0000
0100
0000
0010
0000
0012
0000
0000
0000
,  // measure 76
1003
0000
0010
1000
0010
0000
0100
0000
0001
0010
0001
0000
0100
0000
1000
0000
,  // measure 77
0100
0010
1000
0100
0011
0000
0101
0100
,  // measure 78
0001
0000
0010
0001
0010
0000
0100
0000
1000
0010
1000
0000
0100
0000
0001
0000
,  // measure 79
0100
0010
0001
0100
1010
0000
1100
1000
,  // measure 80
1010
0000
0110
0000
0101
0000
0011
0001
,  // measure 81
1001
1010
0110
0101
,  // measure 82
0001
0010
0001
0100
0010
0100
0001
0010
0100
0010
0001
1000
0010
0100
0010
1000
,  // measure 83
0001
0000
0100
1000
0000
0100
0001
0000
0010
1000
0000
0001
0100
1000
0010
0001
;

//---------------dance-single - ----------------
#NOTES:
     dance-single:
     :
     Beginner:
     2:
     0.191423,0.367392,0.087735,0.111663,0.000000,143.000000,11.000000,14.000000,0.000000,0.000000,0.000000,0.191423,0.367392,0.087735,0.111663,0.000000,143.000000,11.000000,14.000000,0.000000,0.000000,0.000000:
0000
0000
0000
0000
,
0000
0000
0000
0000
,
0000
0000
0000
0000
,
0000
0000
0000
0000
,
1000
0000
0000
0000
,
0001
0000
1000
0000
,
1000
0000
0000
0000
,
0010
0000
0000
0000
,
0100
0000
0100
0000
,
0010
0000
0010
0000
,
1000
0000
1000
0000
,
0001
0000
0001
0000
,
0010
0000
0010
0000
,
0100
0000
0100
0000
,
1000
0000
1000
0000
,
0001
0000
0000
0000
,
2000
0000
0000
3000
,
0020
0000
0000
0030
,
0200
0000
0000
0300
,
0002
0000
0000
0003
,
1000
0000
1000
0000
,
0001
0000
0001
0000
,
0010
0000
0010
0000
,
0200
0000
0000
0300
,
1000
1000
0001
0000
,
0001
0001
1000
0000
,
0100
0100
0010
0000
,
0010
0010
0100
0000
,
1000
0100
0001
0000
,
0001
0100
1000
0000
,
0001
0010
1000
0000
,
1000
0010
0001
1000
,
1001
0000
0001
0000
,
0100
0000
0010
0000
,
0110
0010
0100
0100
,
0001
1000
0020
0000
,
0230
0000
0000
0000
,
0000
0000
0000
0000
,
0302
0000
0000
0000
,
0000
0000
0000
0000
,
2003
0000
0000
0000
,
0000
0000
0000
0000
,
3200
0000
0000
0000
,
0000
0000
0000
0300
,
0110
0000
0000
0000
,
0010
0000
0000
0000
,
0110
0000
0000
0000
,
0100
0000
0000
0000
,
1001
0000
0001
0000
,
1001
0000
1000
0000
,
0001
0000
1000
0000
,
2002
0000
0000
3003
,
0001
0000
0001
0000
,
1000
0000
1000
0000
,
0001
0000
0001
0000
,
0010
0000
0010
0000
,
0100
0000
0100
0000
,
0010
0000
0010
0000
,
0100
0000
0100
0000
,
1000
0000
1001
0000
,
0001
0000
0100
0000
,
1000
0000
0100
0000
,
0001
0000
0010
0000
,
1000
0000
0010
0000
,
0001
0000
1000
0000
,
0010
0000
0100
0000
,
0001
0000
1000
0000
,
0020
0000
0000
0030
,
0100
0000
0001
0000
,
0100
0000
0100
0000
,
0010
0000
1000
0000
,
0100
0000
0100
0000
,
0010
0000
0000
0000
,
0010
0000
0000
0000
,
0001
0000
0001
0000
,
2000
0000
0000
3000
,
0001
0000
1000
0000
,
0010
0010
0010
0000
,
0100
0000
0001
0000
,
0010
0010
0010
0000
,
0110
0000
0000
0000
,
1001
0000
0000
0000
,
0010
0000
0100
0000
,
1000
0000
0001
1001
;

//---------------dance-single - ----------------
#NOTES:
     dance-single:
     :
     Easy:
     5:
     0.446653,0.602084,0.374869,0.231302,0.015952,316.000000,47.000000,29.000000,0.000000,0.000000,0.000000,0.446653,0.602084,0.374869,0.231302,0.015952,316.000000,47.000000,29.000000,0.000000,0.000000,0.000000:
0000
0000
0000
0000
,
0000
0000
0000
0000
,
0000
0000
0000
0000
,
0000
0000
0000
0000
,
1000
0000
1000
0000
0001
0000
0100
0100
,
0000
0010
0000
1000
0000
0001
0000
0010
,
0010
0000
0100
0000
1000
0000
0001
0001
,
0000
1000
1000
0000
0010
0000
0110
0000
,
0001
0101
1000
1100
,
1000
0010
0001
0010
,
1000
1010
0001
0011
,
0001
1000
1001
0110
,
0001
0000
1000
0000
0100
0000
1000
1000
,
0000
0001
0000
0100
0000
0010
0000
0100
,
0100
0001
1000
0100
,
0020
0000
0000
0031
,
1000
0000
0000
1000
0000
0000
1000
0000
,
0001
0000
0000
0001
0000
0000
0001
0000
,
0100
0000
0000
0100
0000
0000
0100
0000
,
0010
0000
0000
0010
0000
0010
0000
0000
,
0110
0010
1000
0001
,
1001
1000
0100
0010
,
0110
0010
0001
1000
,
0002
0000
0000
1003
,
0101
0001
1000
0100
1000
0001
0010
0000
,
1100
1000
0001
0100
0001
1000
0010
0000
,
0110
0100
0010
0010
1000
0001
1001
0000
,
1000
0100
1000
0100
0001
0100
0001
0100
,
1000
0000
1001
0000
0001
1000
1001
0000
,
0010
0000
0110
0000
0100
0010
0110
0000
,
0010
1000
0010
1000
0100
0010
0001
0000
,
1000
0000
0001
0000
1001
0000
0110
0110
,
0010
0000
1000
0000
0100
1000
0001
0000
,
0010
0000
0001
0000
0100
0001
0010
0010
,
0110
0000
0100
0000
1000
0100
1000
0000
,
0001
0100
0001
0000
2002
0000
3003
0000
,
0002
0000
0000
0000
,
2003
0000
0000
0000
,
3200
0000
0000
0000
,
0320
0000
0000
0000
,
0032
0000
0000
0000
,
2003
0000
0000
0000
,
3020
0000
0000
0000
,
0200
0000
0330
0110
,
0100
0000
0000
0100
0000
0000
0100
0000
,
0010
0000
0000
0010
0000
0000
0010
0000
,
1000
0000
0000
1000
0000
0000
1000
0000
,
0001
0000
0000
0001
0000
0000
0001
0000
,
0010
0010
0100
0100
,
1000
1000
0001
0001
,
1000
0100
0001
0010
,
2000
0000
0000
3001
,
0001
0101
1000
1100
,
1000
0010
0001
0010
,
1000
1010
0001
0011
,
0001
0100
0020
0130
,
0110
0101
0001
1000
,
0100
1000
0010
1000
,
0100
0020
0130
0020
,
0032
0000
2003
0000
3010
0000
0100
0100
,
0001
1000
0100
1000
,
0010
0110
0101
1001
,
0100
1000
0001
0010
,
0100
0110
1100
1001
,
0001
0011
1000
1010
,
0010
0100
0001
1000
,
0100
0100
0010
0010
,
0002
0000
0000
0023
0000
0000
0230
0000
0000
2300
0000
0000
3002
0000
0000
0000
,
1003
0000
1100
0000
0001
0000
0100
0100
,
0000
0010
0000
1000
0000
0001
0000
0010
,
0010
0000
0110
0000
0100
0000
1000
1000
,
0000
0001
0001
0000
0100
0000
0110
0000
,
0010
0000
1000
0000
0001
0000
0010
0010
,
0000
0100
0000
0010
0000
0001
0000
1000
,
1000
0000
0010
0000
0100
0000
0001
0001
,
0000
1000
1000
0000
0020
0000
0000
0000
,
0130
0001
0100
1000
,
0100
0001
0010
0010
,
0100
1000
0100
0001
,
0100
1000
0010
0010
,
0110
0101
1001
0100
,
0110
1100
1001
0100
,
0001
0010
1000
0100
,
0002
0000
0000
0203
0000
0000
0320
0000
0000
2030
0000
0000
3002
0000
1003
0000
;

//---------------dance-single - ----------------
#NOTES:
     dance-single:
     :
     Medium:
     8:
     0.577686,0.936575,0.295110,0.311062,0.167495,431.000000,37.000000,39.000000,0.000000,0.000000,0.000000,0.577686,0.936575,0.295110,0.311062,0.167495,431.000000,37.000000,39.000000,0.000000,0.000000,0.000000:
0000
0000
0000
0000
,
0000
0000
0000
0000
,
0000
0000
0000
0000
,
0000
0000
0000
0000
,
1000
0000
0001
0000
0100
0001
0100
0010
,
0000
1000
0100
1000
0000
0001
1000
0000
,
0010
0100
0010
0000
0100
0000
0001
0010
,
0000
0100
1000
0000
0001
0000
1001
0000
,
1000
0000
1020
0000
0130
0010
0100
0001
,
0000
1000
0000
0100
0000
0010
0001
0000
,
0100
0001
0100
0000
0010
0000
1000
0001
,
0000
1000
0001
0000
0010
0000
0200
0000
,
1300
0000
0100
0000
0010
0001
0010
0001
,
0000
0100
0001
0100
0000
0010
1000
0000
,
0001
0000
1000
0000
0010
0000
0100
0010
,
0000
1000
0001
0000
0100
0000
0110
0000
,
0001
0000
0000
0001
0000
0000
0001
0000
,
1000
0000
0000
1000
0000
0000
1000
0000
,
0100
0000
0000
0100
0000
0000
0100
0000
,
0010
0000
0001
0010
0000
0001
0010
0000
,
0100
0000
1000
0000
0001
0000
0100
0001
,
0100
0000
0010
0000
1000
0000
0100
1000
,
0100
0010
0001
0100
0010
1000
0001
1000
,
0002
0000
0000
1003
,
1001
0000
0101
0000
0001
0010
0001
0000
1000
0001
1000
0000
0200
0000
0000
0000
,
1300
0000
1100
0000
1000
0010
1000
0000
0001
1000
0001
0000
0200
0000
0000
0000
,
0310
0000
1000
0000
0100
0010
0100
0000
1000
0001
1000
0000
0020
0000
0000
0000
,
0130
0000
0001
0100
0000
0001
0010
0001
0010
0000
0100
0000
2000
0000
3002
0000
,
1003
0000
0100
0000
1000
0010
1000
0010
0100
0010
0100
0010
2000
0000
0000
0000
,
3001
0000
0100
0000
0001
0010
0001
0010
0100
0010
0100
0010
0002
0000
0000
0000
,
1003
0000
0001
0000
0100
0001
1000
0000
0100
1000
0001
0000
1001
0000
0110
0000
,
0010
1000
0010
0000
0100
0000
0001
0010
0000
0001
0010
0000
0100
0000
1100
0000
,
1000
0000
0001
0000
1000
0010
1000
0010
0000
0100
0000
0001
0000
0100
0000
0010
,
1000
0000
0100
0000
0010
0000
0001
0010
0000
0100
1000
0000
0001
0000
1001
0000
,
0001
0000
0100
0000
0001
0010
0001
0010
0000
0100
1000
0100
0000
1000
0010
0000
,
0100
0000
0001
0000
1000
0000
0100
0010
0200
0000
0000
0000
0000
0000
0310
0000
,
0200
0000
0000
0000
,
2300
0000
0000
0000
,
3002
0000
0000
0000
,
0203
0000
0000
0000
,
0320
0000
0000
0000
,
2030
0000
0000
0000
,
3002
0000
0000
0000
,
1000
1000
1000
1003
,
1100
0000
0000
1000
0000
0000
1000
0000
,
0101
0000
0000
0001
0000
0000
0001
0000
,
1010
0000
0000
1000
0000
0000
1000
0000
,
0002
0000
0000
0203
0000
0000
0320
0000
0000
2030
0000
0000
3001
0000
0000
0000
,
0011
0000
1001
0000
0101
0000
0001
1000
,
0010
0000
1001
0000
1100
0000
1000
0100
,
0010
0001
0010
0100
1000
0010
0100
0001
,
0200
0000
0000
0310
,
1000
0000
1010
0000
1000
0100
1000
0001
,
0100
0001
0100
0000
0010
0000
0100
0000
,
0001
0000
0011
0000
0001
0100
0001
1000
,
0100
1000
0100
0000
0020
0000
0230
0000
,
1300
0000
1100
0000
1000
0010
1000
0010
,
0100
0010
0100
0000
0001
0000
0101
0000
,
0010
0110
1000
1100
,
2000
0000
3002
0000
1003
0010
0100
0100
,
0001
0000
0101
0000
0001
0010
0001
1000
,
0010
1000
0010
0000
0100
0000
0110
0000
,
1000
0000
1010
0000
1000
0010
1000
0001
,
0010
0001
0010
0000
0200
0000
0320
0000
,
0130
0000
1000
0100
1000
0010
1000
0000
,
0001
0100
0001
0010
0001
0000
1000
0000
,
0001
0010
0100
0000
1000
0000
0100
0010
,
0002
0000
0000
0023
0000
0000
0230
0000
0000
2300
0000
0000
3001
0000
1000
0000
,
1100
0000
1000
0000
0100
1000
0010
1000
,
0000
0001
0000
0100
0000
0001
0010
0001
,
0010
0000
0100
0000
1000
0000
0001
1000
,
0000
0010
0100
0000
0110
0000
1001
0000
,
0001
0100
0001
0000
1000
0100
1000
0010
,
0000
0100
0001
0100
0000
0001
0010
0100
,
1000
0100
0010
0000
0001
0000
1000
0001
,
0000
0100
0010
0000
0120
0000
0000
0000
,
1030
0100
1000
0000
0001
0100
0000
1000
,
0100
0001
1000
1001
,
0001
0100
0001
0000
1000
0100
0000
0001
,
0100
1000
0001
1000
,
1010
0000
0110
0000
0101
0000
0001
0010
,
0001
0000
0110
0000
1100
0000
1000
0100
,
1000
0010
0100
0001
0010
0001
1000
0010
,
0200
0000
0000
0302
0000
0000
0023
0000
0000
0230
0000
0000
2300
0000
3001
0000
;
