#TITLE:BooYah;
#SUBTITLE:;
#ARTIST:Voidis;
#TITLETRANSLIT:;
#SUBTITLETRANSLIT:;
#ARTISTTRANSLIT:;
#CREDIT:;
#BANNER:BooYah (Voidis).png;
#BACKGROUND:BooYah (Voidis) - bg.png;
#LYRICSPATH:;
#CDTITLE:cdtitle.png;
#MUSIC:BooYah.mp3;
#OFFSET:-0.360;
#SAMPLESTART:57.367;
#SAMPLELENGTH:14.900;
#SELECTABLE:YES;
#BPMS:0.000=129.020,87.000=127.496,88.000=126.510,89.000=125.505,90.000=124.498,91.000=123.504,92.000=122.504,93.000=121.496,94.000=120.496,95.000=119.506,97.000=118.498,99.000=117.504,101.000=115.512,103.000=112.508,105.000=109.506,107.000=106.502,110.000=97.511,113.000=96.502,115.000=129.022;
#STOPS:115.000=1.700
;
#BGCHANGES:;

//---------------dance-single - ----------------
#NOTES:
     dance-single:
     :
     Hard:
     9:
     0.594,0.635,0.200,0.456,0.452: // measure 1
0000
0000
0000
0000
,  // measure 2
0000
0000
0000
0000
,  // measure 3
0000
0000
0000
0000
,  // measure 4
0000
0000
0000
0000
,  // measure 5
0000
0000
0000
0000
,  // measure 6
0000
0000
0000
0000
0000
0000
0000
0000
0000
0000
0000
0000
2000
0000
3000
2000
,  // measure 7
0000
3000
0002
0000
0003
0002
0000
0003
0200
0300
0000
0000
0002
0000
0003
0002
,  // measure 8
0000
0003
2000
0000
3000
2000
0000
3000
0020
0030
0000
0000
2000
0000
3000
2000
,  // measure 9
0000
3000
0020
0000
0030
0020
0000
0030
0200
0300
0000
0000
0002
0000
0003
0002
,  // measure 10
0000
0003
0020
0000
0030
0020
0000
0030
0100
0000
0010
0000
0200
0000
0300
2000
,  // measure 11
0000
3000
0020
0000
0030
0002
0000
0003
0020
0030
0000
0000
0200
0000
0300
0002
,  // measure 12
0000
0003
0020
0000
0030
2000
0000
3000
0020
0030
0000
0000
0200
0000
0300
2000
,  // measure 13
0000
3000
0200
0000
0300
0020
0000
0030
0200
0300
0000
0000
2000
0000
3000
0020
,  // measure 14
0000
0030
0200
0000
0300
0002
0003
0000
MMMM
0000
0000
0000
1001
0000
0000
1000
,  // measure 15
0100
0000
1000
0000
0000
0001
0100
0000
0020
0000
0030
0000
0100
0000
0000
0001
,  // measure 16
1000
0000
0100
0000
0000
0010
0100
0000
2000
0000
3000
0000
0010
0000
0000
0100
,  // measure 17
0001
0000
0010
0000
0000
0001
0100
0000
0020
0000
0030
0000
1000
0000
0000
0001
,  // measure 18
0010
0000
0100
0000
0000
0010
0001
0000
2000
0000
3000
0000
0001
0000
0000
1000
,  // measure 19
0010
0000
0100
0000
0000
0001
0010
0000
0200
0000
0300
0000
1000
0000
0000
0100
,  // measure 20
0010
0000
0001
0000
0000
0100
0010
0000
2000
0000
3000
0000
0100
0000
0000
1000
,  // measure 21
0001
0000
0010
0000
0000
0001
1000
0000
0020
0000
0030
0000
1000
0000
0000
0100
,  // measure 22
1000
0000
0001
0000
0000
0100
0001
0000
2000
0000
3000
0000
1010
0000
0000
0010
,  // measure 23
0100
0000
0001
0000
0011
0000
0000
0010
0100
0000
1000
0000
1001
0000
0000
0001
,  // measure 24
0010
0000
0100
0000
1001
0000
0000
1000
0010
0000
0100
0000
0101
0000
0000
0001
,  // measure 25
0010
0000
0100
0000
1100
0000
0000
0100
0001
0000
0100
0000
0110
0000
0000
0010
,  // measure 26
0001
0000
0100
0000
0110
0000
0000
0010
1000
0000
0100
0000
1001
0000
1000
0010
,  // measure 27
0001
0000
0001
0010
1000
0000
1000
0100
0010
0000
0010
0100
1000
0000
0001
0100
,  // measure 28
1000
0000
1000
0100
0001
0000
0001
0010
0100
0000
0100
0010
0001
0000
1000
0010
,  // measure 29
0100
0000
0001
0010
0100
0000
1000
0100
0010
0000
0001
0100
001M
0000
0000
0000
,  // measure 30
0100
0010
1000
0010
1000
0100
0010
0100
,  // measure 31
1000
0001
0100
0010
0100
0001
0011
0000
,  // measure 32
0001
1000
0100
1000
0100
0010
0100
1000
,  // measure 33
0010
0001
0010
1000
0100
1000
0010
0100
,  // measure 34
0010
1000
0001
0010
0001
0100
0010
0100
,  // measure 35
0001
1000
0100
0010
0100
1000
1001
0000
,  // measure 36
1000
0001
0100
0001
0100
0010
0100
0001
,  // measure 37
0010
0001
0010
0001
0010
0001
0010
0001
0010
0100
0010
0100
0010
0100
0010
0100
,  // measure 38
0010
0000
0001
0000
0100
0000
0001
0010
0000
0000
0001
0000
0100
0000
1000
0000
,  // measure 39
0100
0000
0010
0000
1000
0000
0100
0000
0010
0001
0010
0000
0110
0000
0000
0000
,  // measure 40
1000
0000
0010
0000
0001
0000
0010
1000
0000
0000
0100
0000
0001
0000
0100
0000
,  // measure 41
1000
0000
0010
0000
0100
0000
0010
0000
1000
0001
1000
0000
0100
0000
0010
0000
,  // measure 42
0001
0000
0100
0000
0010
0000
0100
0001
0000
0000
1000
0000
0100
0000
1000
0000
,  // measure 43
0010
0000
0100
0000
0010
0000
0001
0000
0010
0100
0010
0000
1010
0000
0000
0000
,  // measure 44
0100
0000
0001
0000
0010
0000
0001
0100
0000
0000
0001
0000
0010
0000
1000
0000
,  // measure 45
0010
0100
0010
0100
0010
0100
0010
0100
1000
0100
1000
0100
1000
0100
1000
0100
,  // measure 46
1000
0000
0001
0000
0101
0000
0000
0001
0000
1000
0100
0000
1000
0000
0010
0000
,  // measure 47
0100
0000
0001
0000
1001
0000
0000
0001
0000
0010
0100
0000
0110
0000
0000
0000
,  // measure 48
0001
0000
1000
0000
1010
0000
0000
1000
0000
0001
0010
0000
0001
0000
0100
0000
,  // measure 49
0010
0000
1000
0000
1001
0000
0000
1000
0000
0100
0010
0000
0110
0000
0000
0000
,  // measure 50
0100
0000
1000
0000
1010
0000
0000
1000
0000
0100
0001
0000
0100
0000
1000
0000
,  // measure 51
0010
0000
0100
0000
0101
0000
0000
0100
0000
0010
1000
0000
1001
0000
0000
0000
,  // measure 52
0010
0000
0001
0000
0101
0000
0000
0001
0000
0010
1000
0000
0010
0000
0001
0000
,  // measure 53
0100
0010
0100
0010
0100
0010
0100
0010
1000
0010
1000
0010
1000
0010
1000
0010
,  // measure 54
1000
0000
1000
0000
0002
0000
0000
0103
0000
0100
0001
0000
1000
0000
0010
0000
,  // measure 55
0100
0000
0100
0000
0020
0000
0000
1030
0000
1000
0001
0000
0020
0000
0000
0030
,  // measure 56
0001
0000
0001
0000
2000
0000
0000
3100
0000
0100
1000
0000
0001
0000
0010
0000
,  // measure 57
0100
0000
0100
0000
0020
0000
0000
0031
0000
0001
1000
0000
0020
0000
0000
0030
,  // measure 58
0100
0000
0100
0000
0002
0000
0000
0013
0000
0010
0100
0000
1000
0000
0100
0000
,  // measure 59
0010
0000
0010
0000
0002
0000
0000
1003
0000
1000
0010
0000
0200
0000
0000
0300
,  // measure 60
0010
0000
0010
0000
2000
0000
0000
3100
0000
0100
0010
0000
0001
0000
0010
0000
,  // measure 61
0100
0000
0100
0000
2000
0000
0000
3001
0000
0001
0100
0000
M000
0000
0M00
0000
,  // measure 62
0110
0000
0000
0000
;
