#VERSION:0.83;
#TITLE:999 (Call The Police);
#SUBTITLE:;
#ARTIST:Scooter;
#TITLETRANSLIT:;
#SUBTITLETRANSLIT:;
#ARTISTTRANSLIT:;
#GENRE:;
#ORIGIN:;
#CREDIT:;
#BANNER:999_bn.png;
#BACKGROUND:999_bg.png;
#PREVIEWVID:;
#JACKET:999_jacket.png;
#CDIMAGE:;
#DISCIMAGE:;
#LYRICSPATH:;
#CDTITLE:;
#MUSIC:999callthepolice.ogg;
#OFFSET:0.000000;
#SAMPLESTART:68.800003;
#SAMPLELENGTH:12.799995;
#SELECTABLE:YES;
#BPMS:0.000=150.000,
72.000=75.000,
105.000=150.000;
#STOPS:72.000=0.800;
#DELAYS:;
#WARPS:;
#TIMESIGNATURES:0.000=4=4;
#TICKCOUNTS:0.000=4;
#COMBOS:0.000=1;
#SPEEDS:0.000=1.000=0.000=0;
#SCROLLS:0.000=1.000;
#FAKES:;
#LABELS:0.000=Song Start;
#BGCHANGES:;
#KEYSOUNDS:;
#ATTACKS:
;

//---------------dance-single - ----------------
#NOTEDATA:;
#CHARTNAME:;
#STEPSTYPE:dance-single;
#DESCRIPTION:;
#CHARTSTYLE:;
#DIFFICULTY:Hard;
#METER:8;
#RADARVALUES:0.529342,0.794114,0.325749,0.065150,0.818444,455.000000,415.000000,40.000000,8.000000,0.000000,0.000000,0.000000,0.000000,0.000000,0.529342,0.794114,0.325749,0.065150,0.818444,455.000000,415.000000,40.000000,8.000000,0.000000,0.000000,0.000000,0.000000,0.000000;
#CREDIT:DigitalBasic;
#NOTES:
0000
0000
0000
0000
,
0000
0000
0000
0000
,
0000
0000
0000
0000
,
0000
0000
0000
0000
,
0000
0000
0000
0000
,
1001
1001
1100
1100
,
1001
0000
0000
1001
0000
0000
0101
0000
0000
0001
0100
0000
,
0101
0101
0110
0110
,
1010
0000
0000
1100
0000
0000
1010
0000
1000
0010
0100
0010
,
1000
0000
1000
0001
0000
0001
0010
0000
0100
0000
0000
0000
,
0010
0000
0010
0001
0000
1000
0010
0000
0000
0010
0100
0010
,
0100
0000
0010
0000
0000
1001
0000
0000
0000
0000
0000
1000
,
0010
0000
0100
0001
0000
0000
1100
0000
0000
1000
0100
0010
,
0001
0000
0001
1000
0000
0000
0010
0000
0100
0000
0000
0000
,
0001
0000
1000
0000
0000
1010
0000
0000
0000
1000
0001
1000
,
0001
0000
0000
0101
0000
0000
0010
0000
0010
0000
0000
0000
,
0100
0000
1000
0001
0000
0000
0110
0000
0000
0001
0100
0010
,
2000
0000
0000
0000
,
3000
0000
0000
0000
0001
0010
0100
1000
0000
0000
0010
0100
0001
1000
0100
0010
,
0000
0000
0100
0010
0001
0100
1000
0100
0001
1000
0010
0001
1000
0000
0100
0001
,
1000
0100
0010
0001
1000
0010
0100
0001
0000
0000
0010
0100
1000
0001
0100
0010
,
0000
0000
0100
0010
1000
0100
0001
0100
1000
0001
0010
1000
0001
0100
1000
0001
,
0100
0000
0000
0000
0020
0000
0130
0010
0000
0000
1000
0000
0200
0000
0000
0000
,
0300
0000
0000
0000
0020
0000
0001
0000
0032
0000
0000
0103
1000
0010
0001
0000
,
0000
0000
0000
0001
1000
0000
0010
0000
0100
0000
0010
0000
0001
0000
0000
0000
,
0000
0000
0000
0100
0020
0200
0000
0000
0000
0000
0000
0000
0000
0000
0000
0000
,
0330
0000
0000
0010
0000
0000
0010
0000
0100
0000
0000
1000
,
0000
0000
1000
0100
0000
0100
0001
0000
0001
0010
0000
0010
,
1000
0000
1000
0100
0000
0000
0010
0000
0100
0000
0000
0010
,
0000
0000
0001
0100
0000
0100
1000
0000
1000
0010
0000
0010
,
0001
0000
0001
0100
0000
0000
0010
0000
0100
0000
0000
0001
,
0000
0000
0001
0010
0000
0010
0100
0000
0100
0001
0000
0001
,
0100
0000
0100
1000
0000
0000
0001
0000
1000
0000
0000
0010
,
0000
0000
0100
0010
0000
0010
1000
0000
1000
0001
0000
0001
,
0010
0000
0000
0110
0000
0000
0100
0000
1000
0000
0000
1001
,
0000
0000
0001
0100
0000
0010
1000
0000
0001
0010
0000
0100
,
1000
0100
0000
1100
0000
0000
1000
0000
0001
0000
0000
0101
,
0000
0000
0001
0010
0000
0100
1000
0000
0010
1000
0000
0001
,
0100
0001
0010
0001
0000
0000
0100
0000
0010
0000
0000
0110
,
0000
0000
0001
0010
0000
0100
0010
0000
0001
0100
0000
0010
,
1000
0010
0000
1010
0000
0000
1000
0000
0001
0000
0000
0101
,
0000
0000
0100
0010
0000
1000
0010
0000
0100
0010
0000
1000
,
0001
0000
0001
0010
0000
0010
0100
0000
0110
0000
0000
1001
,
0000
0000
1000
0010
0000
0001
0010
0000
1000
0010
0000
0100
,
0001
1000
0000
1001
0000
0000
0001
0000
0101
0000
0000
1010
,
0000
0000
1000
0100
0000
0001
0100
0000
1000
0100
0000
0010
,
0100
1000
0001
0100
0000
0001
1000
0000
1100
0000
0000
0011
,
0000
0000
1000
0100
0000
0100
0001
0000
1000
0010
0000
0010
,
0001
1000
0001
0100
0000
0010
0100
0000
1010
0000
0000
1100
,
0000
0000
1000
0010
0000
0001
0100
0000
1000
0010
0000
0001
,
0100
0000
0000
1000
0000
0100
1000
0000
0100
1000
0000
0000
,
1001
0000
0000
0001
0000
0100
0001
0000
0100
0001
0000
0000
,
0001
0100
0010
1000
0000
0010
1000
0000
0010
1000
0000
0000
,
1001
0000
0010
0001
0000
0010
0001
0000
1000
0000
0000
0000
,
1000
0100
0010
0001
0000
0010
0001
0000
1000
0100
0000
0010
,
0000
0000
0001
0100
0000
0010
0100
0000
0000
0110
0000
0000
,
0001
0100
1000
0100
0000
0000
0110
0000
0000
0001
0000
0001
,
1000
0000
0000
1000
0000
0010
0100
0000
0000
0110
0000
0000
,
1000
0100
0001
0100
0000
0000
0100
0000
0010
0000
0000
0001
,
1000
0000
1000
0010
0000
1000
0001
0000
1000
0010
0000
1000
,
0100
0100
1000
0001
0000
0000
0100
0000
0010
0000
0000
1000
,
0001
0000
0001
0010
0000
0001
1000
0000
0001
0010
0000
0001
,
0100
0100
0001
1000
0000
0000
1000
0000
0010
0000
0000
0010
,
0100
0000
0100
0010
0000
1000
0010
0000
0100
0010
0000
0001
,
0010
1000
0010
0100
0000
0000
0001
0000
0010
0000
0000
0100
,
0010
0000
0010
0100
0000
1000
0100
0000
0010
0100
0000
0001
,
0100
0000
0100
0020
0000
0000
0000
0000
0000
0000
0000
0000
,
0000
0030
0000
0000
;

//---------------dance-single - ----------------
#NOTEDATA:;
#CHARTNAME:;
#STEPSTYPE:dance-single;
#DESCRIPTION:;
#CHARTSTYLE:;
#DIFFICULTY:Easy;
#METER:4;
#RADARVALUES:0.289684,0.381940,0.342036,0.105868,0.000000,249.000000,207.000000,42.000000,13.000000,0.000000,0.000000,0.000000,0.000000,0.000000,0.289684,0.381940,0.342036,0.105868,0.000000,249.000000,207.000000,42.000000,13.000000,0.000000,0.000000,0.000000,0.000000,0.000000;
#CREDIT:DigitalBasic;
#NOTES:
0000
0000
0000
0000
,
0000
0000
0000
0000
,
0000
0000
0000
0000
,
0000
0000
0000
0000
,
0000
0000
0000
0000
,
0010
0010
0010
0010
,
0100
0100
0100
0110
,
1000
1000
1000
1000
,
0001
0001
0001
1001
,
0001
0001
0010
0000
,
0100
0100
1000
0000
,
0010
0010
1000
0000
,
0001
0001
0100
0000
,
0001
0100
1000
0000
,
1000
0010
0001
0000
,
0001
1000
1001
0000
,
1000
0100
0001
0010
,
0220
0000
0000
0000
,
0330
0001
0100
0010
,
0001
0100
0010
0001
,
1000
0100
0010
1000
,
0100
0010
1000
0001
,
0010
0020
0000
0230
,
0000
2300
3002
0023
,
0030
0002
0203
2300
,
0000
3020
0000
0000
,
0030
0010
0000
0010
,
0000
0010
0100
0010
,
0100
1000
0000
1000
,
0000
0001
1000
0001
,
1000
0010
0000
0010
,
0000
0010
1000
0001
,
0100
0110
0000
1001
,
0000
0110
1001
0110
,
1001
0100
0100
0100
,
0100
0010
0010
0010
,
0010
1000
1000
1000
,
1000
0001
0001
0001
,
0001
0100
0100
0010
,
0010
0110
1001
0110
,
1001
1000
1000
0001
,
0001
1001
0110
1001
,
0110
0001
0001
0100
,
0001
1000
0100
0001
,
0010
1000
1000
0100
,
1000
0001
0100
1000
,
0010
0001
0001
0010
,
0001
0011
0101
1100
,
1010
0010
0010
0001
,
1000
1010
1100
0101
,
0011
0010
0010
0100
,
0100
0001
0001
1000
,
0000
0010
0010
1000
,
1000
0001
0001
0001
,
0011
0010
0100
0010
,
0000
0001
0100
0010
,
0000
0110
1001
0110
,
0000
0110
1001
0110
,
0000
0001
0000
0100
,
0000
0001
0010
0100
,
0001
0010
0000
1000
,
0000
0100
1000
0010
,
0100
1000
0000
0010
,
0000
0110
1001
0110
,
1001
0001
0000
1000
,
0000
1100
0101
0011
,
1010
2002
0000
0000
,
3003
0000
0000
0000
;

//---------------dance-single - ----------------
#NOTEDATA:;
#CHARTNAME:;
#STEPSTYPE:dance-single;
#DESCRIPTION:;
#CHARTSTYLE:;
#DIFFICULTY:Medium;
#METER:6;
#RADARVALUES:0.413003,0.463785,0.570060,0.065150,0.248383,355.000000,285.000000,70.000000,8.000000,0.000000,0.000000,0.000000,0.000000,0.000000,0.413003,0.463785,0.570060,0.065150,0.248383,355.000000,285.000000,70.000000,8.000000,0.000000,0.000000,0.000000,0.000000,0.000000;
#CREDIT:DigitalBasic;
#NOTES:
0000
0000
0000
0000
,
0000
0000
0000
0000
,
0000
0000
0000
0000
,
0000
0000
0000
0000
,
0000
0000
0000
0000
,
1000
1100
0001
0101
,
1000
0000
0000
1100
0000
0000
0001
0000
0000
0001
1000
0000
,
0001
0011
1000
1010
,
1001
0000
0000
1001
0000
0000
1001
0000
0001
1000
0000
1000
,
0001
0010
0010
0001
,
0100
0000
0000
0100
0000
0000
0010
0000
0000
0100
0010
0000
,
0100
0010
0010
1000
,
0001
0000
0000
0010
0000
0000
0010
0000
0000
0001
1000
0000
,
0001
0101
0100
1100
,
1000
1010
0010
0011
,
0001
0100
0101
0000
,
1100
1010
0011
0101
,
0220
0000
0000
0000
,
0330
0000
0001
0010
0000
0010
1000
0100
,
0000
0100
0001
1000
0010
1000
0001
0010
,
0100
1000
0001
0100
0000
0100
1000
0010
,
0000
0010
0001
1000
0010
1000
0001
0100
,
0010
0020
1000
0100
,
0031
0200
1000
0010
,
0301
0000
0001
0100
1000
0010
0001
0000
,
0000
0200
0020
0000
0000
0000
0000
0000
,
0330
0000
0000
0010
0000
0000
0100
0000
0010
0000
0000
0100
,
0000
1001
0110
1001
,
0110
0000
0000
1000
0000
0000
0001
0000
0010
0000
0000
0100
,
0000
0110
1001
0110
,
1001
0000
0000
0010
0000
0000
1000
0000
0001
0000
0000
0010
,
0000
0011
0101
1010
,
1100
0000
0000
1000
0000
0001
0000
0000
0000
0010
0000
0100
,
0000
0000
1000
0001
0000
0001
0100
0000
0010
0000
0000
0000
,
0000
1010
1010
1001
,
1001
0000
0000
0010
0000
0001
0010
0000
0000
0100
0000
1000
,
0010
0101
0101
1001
,
1001
0000
0000
1000
0000
0100
1000
0000
0000
0001
0000
0001
,
0100
0000
0010
0100
0000
0000
0110
0000
0000
0110
0000
0000
,
1001
0000
0000
0001
0000
1000
0001
0000
1000
0001
0000
1000
,
0001
1001
1001
0110
,
0110
0000
0000
0010
0000
0100
0010
0000
0100
0010
0000
0100
,
0010
0000
0000
0110
0000
0000
1000
0000
0010
0000
0000
0100
,
0000
0000
0000
0001
0000
0010
0100
0000
0010
0001
0000
0010
,
0100
0000
0000
1000
0000
0000
0001
0000
0100
0000
0000
0010
,
0000
0000
0000
1000
0000
0001
0100
0000
0010
0100
0000
0001
,
0100
0000
0000
0001
0000
0000
0010
0000
0100
0000
0000
0010
,
0000
0000
0000
0001
0000
0010
0100
0000
1000
0001
0000
0100
,
0010
0000
0000
0010
0000
0000
1000
0000
0010
0000
0000
0100
,
0000
0000
0000
0010
0000
1000
0010
0000
0100
0001
0000
0010
,
0100
1000
1010
0001
,
0011
1000
1100
0001
,
0001
0100
0000
0010
0000
0000
0110
0000
0000
1000
0000
0000
,
1001
0100
0110
0001
,
0010
0001
0000
0010
0000
0000
0010
0000
0000
0100
0000
0000
,
0100
1000
1000
0001
,
0001
0000
0000
1001
0000
0000
0101
0000
0000
0010
0000
0100
,
0000
0000
0000
0100
0000
0100
0001
0000
0000
1010
0000
0000
,
0000
0000
0000
0001
0000
0000
0100
0000
0001
0000
0000
0010
,
0001
0011
0110
1100
,
0110
0000
0000
0001
0000
0000
0001
0000
1000
0000
0000
0010
,
0000
1010
0110
0101
,
0110
0000
0000
1000
0000
0000
0010
0000
0100
0000
0000
0010
,
0000
0000
0010
1000
0000
0000
1100
0000
0000
1001
0000
0000
,
0011
0000
0000
0001
0000
0000
1000
0000
0100
0000
0000
0010
,
0000
0000
0010
0001
0000
0000
0101
0000
0000
1001
0000
0000
,
1010
0220
0000
0000
,
0330
0000
0000
0000
;

//---------------dance-single - I honestly don't know what I'm doing for this one.----------------
#NOTEDATA:;
#CHARTNAME:;
#STEPSTYPE:dance-single;
#DESCRIPTION:I honestly don't know what I'm doing for this one.;
#CHARTSTYLE:;
#DIFFICULTY:Beginner;
#METER:2;
#RADARVALUES:0.215227,0.272815,0.146587,0.057006,0.000000,185.000000,167.000000,18.000000,7.000000,0.000000,0.000000,0.000000,0.000000,0.000000,0.215227,0.272815,0.146587,0.057006,0.000000,185.000000,167.000000,18.000000,7.000000,0.000000,0.000000,0.000000,0.000000,0.000000;
#CREDIT:DigitalBasic;
#NOTES:
// measure 0
0000
0000
0000
0000
,  // measure 1
0000
0000
0000
0000
,  // measure 2
0000
0000
0000
0000
,  // measure 3
0000
0000
0000
0000
,  // measure 4
0000
0000
0000
0000
,  // measure 5
1000
0000
1000
0000
,  // measure 6
0001
0000
0001
0000
,  // measure 7
1000
0000
0001
0000
,  // measure 8
1001
0000
1001
0000
,  // measure 9
0001
0001
0001
0000
,  // measure 10
1000
1000
1000
0000
,  // measure 11
1000
0010
1000
0000
,  // measure 12
0001
0100
0001
0000
,  // measure 13
0001
0001
1000
0000
,  // measure 14
1000
1000
0001
0000
,  // measure 15
1001
0000
0110
0000
,  // measure 16
1001
0000
0110
0000
,  // measure 17
2002
0000
0000
0000
,  // measure 18
3003
1000
1000
0001
,  // measure 19
0001
0100
0100
0010
,  // measure 20
0010
0100
0010
0100
,  // measure 21
0010
1000
0001
1000
,  // measure 22
0001
2000
3000
0002
,  // measure 23
0003
0200
0300
0020
,  // measure 24
0030
1000
0001
1000
,  // measure 25
0000
1001
0000
0000
,  // measure 26
0000
1000
0000
0001
,  // measure 27
0000
1000
1000
0001
,  // measure 28
0001
0100
0000
0010
,  // measure 29
0000
0100
0100
0010
,  // measure 30
0010
0100
0000
0001
,  // measure 31
0000
0100
0100
0001
,  // measure 32
0001
1000
0000
0001
,  // measure 33
0000
1001
0000
1001
,  // measure 34
0000
0100
0100
0100
,  // measure 35
0000
0001
0000
0011
,  // measure 36
0000
0001
0001
0001
,  // measure 37
0000
1000
0000
1100
,  // measure 38
0000
0010
0010
0010
,  // measure 39
0000
0100
0000
0110
,  // measure 40
0000
0100
0100
0100
,  // measure 41
0000
0001
0000
0101
,  // measure 42
0000
0001
0001
1000
,  // measure 43
0000
1000
0100
0010
,  // measure 44
0001
1000
0000
0001
,  // measure 45
0000
0001
0100
0010
,  // measure 46
1000
0001
0000
1000
,  // measure 47
0000
1000
0010
0100
,  // measure 48
0001
1000
0000
0001
,  // measure 49
0000
0010
0100
1000
,  // measure 50
0001
0100
0000
0100
,  // measure 51
0000
0001
0001
0001
,  // measure 52
0000
1000
0000
1000
,  // measure 53
0000
0010
0010
0010
,  // measure 54
0000
0100
0100
0100
,  // measure 55
0000
0010
0010
0010
,  // measure 56
0000
0110
0000
1001
,  // measure 57
0000
0110
0000
1001
,  // measure 58
0000
0001
0000
1000
,  // measure 59
0000
0001
0001
0001
,  // measure 60
0001
1000
0000
0001
,  // measure 61
0000
1000
1000
1000
,  // measure 62
1000
0010
0000
0100
,  // measure 63
0000
0010
0010
0010
,  // measure 64
0010
0100
0000
0010
,  // measure 65
0000
0100
0100
0100
,  // measure 66
0100
0200
0000
0000
,  // measure 67
0300
0000
0000
0000
;
