#TITLE:9 o'clocks;
#SUBTITLE:;
#ARTIST:SYMPHONIC DEFOGGERS;
#TITLETRANSLIT:;
#SUBTITLETRANSLIT:;
#ARTISTTRANSLIT:;
#GENRE:;
#CREDIT:;
#BANNER:;
#BACKGROUND:;
#LYRICSPATH:;
#CDTITLE:;
#MUSIC:13 - SYMPHONIC DEFOGGERS - 9 o'clocks.mp3;
#OFFSET:-0.350000;
#SAMPLESTART:13.137001;
#SAMPLELENGTH:20.139999;
#SELECTABLE:YES;
#BPMS:0.000000=95.000000
;
#STOPS:
;
#BGCHANGES:;
#KEYSOUNDS:;
#ATTACKS:;

//---------------dance-single - ----------------
#NOTES:
     dance-single:
     :
     Challenge:
     10:
     0.607908,0.945914,0.386087,0.184651,0.826731,507.000000,461.000000,46.000000,22.000000,0.000000,0.000000,0.607908,0.945914,0.386087,0.184651,0.826731,507.000000,461.000000,46.000000,22.000000,0.000000,0.000000:
// measure 0
0000
0000
0000
0000
,  // measure 1
0001
0000
1000
0001
0000
0000
0010
0000
0001
0000
0000
1000
0010
0000
0000
0001
0000
1000
0000
0000
0010
0100
0000
0000
,  // measure 2
0001
0000
0100
0001
0000
0000
0010
0000
1000
0000
0000
0001
0100
0000
0000
0010
0000
1000
0000
0000
0010
0100
0000
0000
,  // measure 3
0001
0000
1000
0001
0000
0000
0100
0000
0010
0000
0000
1000
0001
0000
0000
0010
0000
1000
0000
0000
0001
0100
0000
0000
,  // measure 4
0010
0000
1000
0010
0000
0000
0100
0000
0001
0000
0000
1000
0010
0000
0000
0100
0000
0001
0000
0000
0010
0100
0000
0000
,  // measure 5
0001
0000
0100
0001
0000
0100
0000
0000
0001
0000
0000
0101
0000
0000
0000
0001
0000
0000
0100
0000
0010
0100
0000
0000
,  // measure 6
1000
0000
0010
1000
0000
0010
0000
0000
1000
0000
0000
1010
0000
0000
0000
1000
0000
0000
0100
0000
0010
0100
0000
0000
,  // measure 7
1000
0000
0001
1000
0000
0001
0000
0000
1000
0000
0000
1001
0000
0000
0000
0010
0000
0000
0110
0000
0000
0000
0000
0000
,  // measure 8
1001
0000
0000
1000
0000
0000
0010
0000
0000
0100
0000
0000
0001
0000
0100
0001
0000
0000
0010
0000
0000
1000
0000
0000
,  // measure 9
0001
0000
0100
0001
0000
0100
0000
0000
0001
0000
0000
1001
0000
0000
0000
0100
0000
0000
1000
0000
0010
1000
0000
0000
,  // measure 10
0100
0000
0010
0100
0000
0010
0000
0000
0100
0000
0000
0110
0000
0000
0000
0100
0000
0000
0001
0000
1000
0001
0000
0000
,  // measure 11
1000
0000
0100
1000
0000
0100
0000
0000
1000
0000
0000
1100
0000
0000
0000
0001
0000
0000
0101
0000
0000
0000
0000
0000
,  // measure 12
1001
0000
0000
0000
0000
0000
0010
0000
0000
1000
0000
0000
0100
0000
0001
0100
0000
0000
0010
0000
0000
1000
0000
0000
,  // measure 13
1001
0001
1001
1100
0100
0110
0010
0011
,  // measure 14
0001
0000
0000
1001
0000
0000
1000
0000
0000
1100
0000
0000
0100
0000
0000
0010
0000
0000
0001
0000
0100
0000
0000
0000
,  // measure 15
0010
0100
0110
0101
0001
1001
1000
1010
,  // measure 16
0010
0000
0000
0110
0000
0000
0100
0000
0000
0001
0000
0000
0010
0000
0000
1000
0000
0000
0001
0000
0100
0000
0000
0000
,  // measure 17
0010
1000
0100
1100
1000
1010
0010
0110
,  // measure 18
0010
0000
0000
0011
0000
0000
0110
0000
0000
1010
0000
0000
1000
0000
0000
1000
0000
0000
0001
0000
1000
0000
0000
0000
,  // measure 19
0010
0000
0000
0100
0000
0000
0001
0000
0000
0011
0000
0000
0010
0000
0000
0110
0000
0000
0100
0000
1000
0001
0000
1000
,  // measure 20
0010
0000
0000
0100
0000
0010
0100
0000
0100
0010
0100
0020
0200
0000
0000
0000
0000
0000
0330
0000
0000
0000
0000
0000
,  // measure 21
2002
0000
0000
0000
0000
0000
0003
0000
0000
3020
0000
0000
0000
0000
0000
0230
0000
0000
0000
0000
0302
0000
0003
0000
,  // measure 22
0202
0000
0000
0000
0000
0000
0300
0000
0000
2003
0000
0000
0000
0000
0000
3020
0000
0000
0000
0000
0230
0000
0300
0000
,  // measure 23
0220
0000
0000
0000
0000
0000
0030
0000
0000
0302
0000
0000
0003
0000
0100
0001
0000
0001
0100
0000
0000
0010
1000
0010
,  // measure 24
1000
0000
0000
0010
0000
0010
0100
0000
0000
0100
0000
0010
1000
0000
0000
0010
0000
0000
0100
0000
0000
0001
0000
0000
,  // measure 25
1000
0000
0001
1000
0000
0000
0001
0000
0000
1000
0000
0001
0100
0000
0000
0001
0100
0010
0100
0001
0100
1000
0100
0010
,  // measure 26
0100
0001
0100
0010
0100
1000
0100
0000
0000
0010
0000
1000
0010
0000
0000
0100
0001
0100
0001
0000
0001
1000
0000
1000
,  // measure 27
0001
0000
0001
0100
0000
0100
0010
0000
0000
1000
0000
0000
0001
0000
0000
0100
0000
0000
0001
0000
0000
1000
0000
0001
,  // measure 28
0100
0000
0001
0100
0000
0000
0101
0000
0000
0100
0000
0010
0000
0000
1000
0010
0000
0000
0100
0000
0000
0001
0000
0000
,  // measure 29
0100
0000
0001
0100
0000
0001
0000
0000
1000
0000
0000
1001
0000
0000
0000
0100
0000
0000
0010
0000
0100
0010
0000
0000
,  // measure 30
1000
0000
0100
1000
0000
0100
0000
0000
0010
0000
0000
0110
0000
0000
0000
0100
0000
0000
0010
0000
0100
0010
0000
0000
,  // measure 31
0010
0000
1000
0010
0000
1000
0000
0000
0001
0000
0000
1001
0000
0000
0000
0001
0000
0000
0101
0000
0000
0000
0000
0000
,  // measure 32
1010
0000
0000
1000
0000
0000
0001
0000
0000
0100
0000
0000
0010
0000
0000
1000
0000
0000
0001
0000
0100
0001
0000
1000
,  // measure 33
0001
0000
0100
0001
0000
0100
0000
0000
0010
0000
0000
1010
0000
0000
0000
0100
0000
0000
0001
0000
0100
0010
0000
0000
,  // measure 34
1000
0000
0100
1000
0000
0100
0000
0000
0010
0000
0000
0011
0000
0000
0000
0100
0000
0000
0010
0000
0100
0001
0000
0000
,  // measure 35
1000
0000
0100
1000
0000
0100
0000
0000
0010
0000
0000
0011
0000
0000
0000
0001
0000
0000
1001
0000
0000
0000
0000
0000
,  // measure 36
0110
0000
0010
0100
0002
0100
2003
0010
,  // measure 37
3001
0000
0100
0000
0000
0000
0101
0000
0000
0001
0000
1000
0000
0000
0000
0100
0000
0001
0000
0000
0100
0000
0000
0001
,  // measure 38
0100
0000
0001
1000
0000
0002
0000
0000
0000
0103
0000
0000
0010
0000
0000
1000
0000
0001
0000
0000
0100
0000
0000
0010
,  // measure 39
2000
0000
0000
0000
0000
3002
0000
0000
0000
0103
0000
0000
0010
0000
0000
0100
0000
0000
0001
0100
0001
0100
0001
0100
,  // measure 40
0010
0100
0010
0100
0010
0100
0010
1000
0010
1000
0010
1000
0001
1000
0001
1000
0001
1000
0001
0000
0001
1000
0000
0001
,  // measure 41
0000
0000
0100
0001
0000
0100
0000
0000
0010
1000
0000
0010
0000
0000
1000
0001
0000
1000
0000
0000
0001
1000
0000
0001
,  // measure 42
0000
0000
0100
0010
0000
0100
0000
0000
0010
0000
0000
0110
0000
0000
0010
0100
0000
0010
0000
0000
0100
0000
0000
0001
,  // measure 43
0100
0001
1000
0010
0100
0001
1000
0010
0100
0001
1000
0010
0100
0001
1000
0010
0100
0001
1000
0010
0100
0001
1000
0010
,  // measure 44
0100
0001
1000
0010
0100
0001
1000
0010
0100
0001
1000
0010
0100
0001
1000
0010
0100
0001
1000
0010
0100
0001
1000
0020
,  // measure 45
0200
0000
0000
0000
,  // measure 46
0330
0000
0000
0000
;

//---------------dance-single - ----------------
#NOTES:
     dance-single:
     :
     Beginner:
     1:
     0.152277,0.193044,0.050359,0.050359,0.000000,127.000000,121.000000,6.000000,6.000000,0.000000,0.000000,0.152277,0.193044,0.050359,0.050359,0.000000,127.000000,121.000000,6.000000,6.000000,0.000000,0.000000:
0000
0000
0000
0000
,
1000
0000
0000
0000
,
0100
0000
0000
0000
,
0010
0000
0000
0000
,
0001
0000
0000
0000
,
1000
0000
1000
0000
,
0001
0000
0001
0000
,
0100
0000
0100
0000
,
0110
0000
0010
0010
,
0001
0000
0001
0000
,
0010
0000
0010
0000
,
1000
0000
1000
0000
,
1001
0000
0001
0001
,
0100
0000
0010
1000
,
0001
0000
0001
0100
,
0010
0000
0100
1000
,
0010
0000
0100
1000
,
0001
0000
0001
1000
,
0010
0000
0100
0001
,
1000
0000
0010
0100
,
0001
1000
2002
3003
,
1000
0000
0010
0000
,
0100
0000
0001
0000
,
0010
0000
1000
0000
,
0100
0000
0001
0000
,
1000
0100
0010
0000
,
0001
0010
1000
0000
,
0100
1000
0001
0000
,
0010
0001
1000
0000
,
0010
0000
0100
0001
,
0010
0000
1000
0001
,
0100
0000
1000
0010
,
0110
0000
0001
1000
,
0100
0000
0010
0001
,
0100
0000
1000
0001
,
0010
0000
1000
0100
,
0110
0000
0001
0100
,
0010
0001
0100
0010
,
1000
2000
3000
0010
,
0001
0002
0003
0010
,
1000
0100
0001
1000
,
0010
0100
0001
0010
,
1000
0100
1000
0010
,
0100
0001
1000
0001
,
1000
0100
0010
0001
,
2002
0000
0000
0000
,
3003
0000
0000
0000
;

//---------------dance-single - ----------------
#NOTES:
     dance-single:
     :
     Easy:
     4:
     0.278175,0.328174,0.092325,0.075539,0.000000,232.000000,221.000000,11.000000,9.000000,0.000000,0.000000,0.278175,0.328174,0.092325,0.075539,0.000000,232.000000,221.000000,11.000000,9.000000,0.000000,0.000000:
0000
0000
0000
0000
,
1000
0001
0010
0100
,
0001
0100
0010
1000
,
0001
1000
0100
0010
,
0001
0100
0010
0110
,
1000
0000
0001
1000
0001
0000
0100
0000
,
0001
0000
1000
0100
1000
0000
0001
0000
,
0100
0000
0001
0010
0001
0000
1001
0000
,
0110
0000
0010
0000
1000
0001
1000
0001
,
1000
0000
0010
0100
0010
0000
1000
0000
,
0100
0000
0010
0001
0010
0000
0100
0000
,
1000
0000
0001
0100
0001
0000
0110
0000
,
1001
0000
0100
0000
0001
0010
0100
1000
,
0001
0000
0100
0001
0000
0100
0000
0010
,
0000
0100
0000
1000
0100
0010
0001
0000
,
0010
0000
1000
0001
0000
1000
0000
0100
,
0000
0001
0010
0001
1000
0010
0100
0000
,
0001
0100
0010
1000
0000
0100
0000
0010
,
0000
0001
0010
0100
0000
0001
0100
0000
,
0010
1000
0001
0100
0000
0001
0000
1000
,
0010
0100
0000
0000
0220
0000
0000
0330
,
0002
0000
0103
0010
,
2000
0000
3010
0100
,
0020
0000
0031
1000
,
0200
0000
0310
1000
,
0001
0100
0010
1000
,
0100
0010
1000
0001
,
0100
0001
0010
1000
,
0100
0001
0010
1000
,
0001
0000
0100
0010
0100
0000
0001
0000
,
1000
0000
0010
1000
0010
0000
0100
0000
,
0001
0000
0010
0001
0010
0000
0110
0000
,
1001
0000
0100
0000
0001
1000
0010
0100
,
0001
0000
1000
0100
1000
0000
0010
0000
,
0001
0000
0100
0010
0100
0000
0001
0000
,
1000
0000
0001
1000
0001
0000
1001
0000
,
0110
0000
0010
0000
0001
0010
0100
1000
,
0001
0000
0100
0001
0100
0000
0010
1000
,
0100
1000
0020
0000
0130
0000
0001
0100
,
0001
0000
0010
0000
0100
0000
1000
0010
,
1000
0001
1000
0100
1000
0001
1000
0000
,
0001
0100
0010
0000
1000
0001
0100
0000
,
0001
0010
0100
0000
1000
0010
0100
0000
,
0001
0010
0100
1000
0010
0100
0001
1000
,
0100
1000
0001
0100
0010
1000
0001
0000
,
2002
0000
0000
0000
,
3003
0000
0000
0000
;

//---------------dance-single - ----------------
#NOTES:
     dance-single:
     :
     Medium:
     7:
     0.390884,0.501914,0.151078,0.142684,0.255993,326.000000,308.000000,18.000000,17.000000,0.000000,0.000000,0.390884,0.501914,0.151078,0.142684,0.255993,326.000000,308.000000,18.000000,17.000000,0.000000,0.000000:
0000
0000
0000
0000
,
1000
0000
0000
0000
0000
0000
0100
0000
0000
0001
0000
0000
0010
0000
0000
0001
0000
0000
0100
0000
0010
0000
0000
0000
,
0001
0000
0000
0000
0000
0000
0100
0000
0000
1000
0000
0000
0010
0000
0000
1000
0000
0000
0100
0000
0001
0000
0000
0000
,
0010
0000
0000
0000
0000
0000
0001
0000
0000
1000
0000
0000
0010
0000
0000
1000
0000
0000
0001
0000
1000
0000
0000
0000
,
0100
0000
0000
0000
0000
0000
0001
0000
0000
1000
0000
0000
0010
0000
0000
1000
0000
0000
0100
0000
0010
0000
0000
0000
,
0001
0000
0000
0100
0000
0000
0001
0000
1000
0000
0000
1000
0000
0000
0000
0100
0000
0000
0010
0000
0000
0000
0000
0000
,
0100
0000
0000
0001
0000
0000
1000
0000
0010
0000
0000
0010
0000
0000
0000
0100
0000
0000
0001
0000
0000
0000
0000
0000
,
1000
0000
0000
0001
0000
0000
1000
0000
0010
0000
0000
0010
0000
0000
0000
0100
0000
0000
0110
0000
0000
0000
0000
0000
,
1001
0000
0001
0010
0100
1000
0010
0100
,
0001
0000
0000
1000
0000
0000
0001
0000
0010
0000
0000
0010
0000
0000
0000
0100
0000
0000
0001
0000
0000
0000
0000
0000
,
1000
0000
0000
0010
0000
0000
0100
0000
0001
0000
0000
0001
0000
0000
0000
0010
0000
0000
0100
0000
0000
0000
0000
0000
,
0001
0000
0000
0100
0000
0000
0010
0000
1000
0000
0000
1000
0000
0000
0000
0001
0000
0000
1001
0000
0000
0000
0000
0000
,
0110
0000
1000
0100
0010
0001
0100
0010
,
1000
0001
0100
0010
0000
0110
0000
1001
,
0000
0000
0000
0101
0000
0000
0000
0000
0000
1000
0000
0000
0100
0000
0000
0010
0000
0000
0001
0000
1000
0000
0000
0000
,
0010
0100
0001
1000
0000
1010
0000
0101
,
0000
0000
0000
1000
0000
0000
0100
0000
0000
0010
0000
0000
0001
0000
0000
0100
0000
0000
0010
0000
1000
0000
0000
0000
,
0001
0100
1000
0010
0000
0101
0000
1100
,
0000
0000
0000
1000
0000
0000
0001
0000
0000
0100
0000
0000
0000
0000
0000
0010
0000
0000
1000
0000
0001
0000
0000
0000
,
0100
0000
0000
0010
0000
0000
1000
0000
0000
0001
0000
0000
0000
0000
0000
1001
0000
0000
0000
0000
1000
0001
0000
0000
,
1000
0000
0000
0010
0000
0000
0000
0000
0100
0000
0000
0000
0220
0000
0000
0000
0000
0000
0000
0000
0000
0330
0000
0000
,
2000
0000
0000
0000
0000
0000
0000
0000
0000
3200
0000
0000
0000
0000
0000
0320
0000
0000
0000
0000
0032
0000
0000
0000
,
0203
0000
0000
0000
0000
0000
0000
0000
0000
0320
0000
0000
0000
0000
0000
2030
0000
0000
0000
0000
3002
0000
0000
0000
,
0023
0000
0000
0230
0000
1300
0010
0100
,
0001
0010
1000
0000
0100
1000
0010
0100
,
0001
0100
0001
0100
2000
0000
0001
3010
,
0100
1000
0100
1000
0002
0000
0100
1003
,
0010
1000
0010
1000
0020
0000
0100
1030
,
0100
0010
0100
0010
1000
0001
0100
0010
,
1000
0000
0000
0001
0000
0000
0100
0000
0001
0000
0000
1000
0000
0000
0000
0010
0000
0000
0100
0000
0000
0000
0000
0000
,
1000
0000
0000
0100
0000
0000
0001
0000
0010
0000
0000
1000
0000
0000
0000
0100
0000
0000
0010
0000
0000
0000
0000
0000
,
0001
0000
0000
0100
0000
0000
0010
0000
1000
0000
0000
0001
0000
0000
0000
0100
0000
0000
0101
0000
0000
0000
0000
0000
,
1010
0000
1000
0001
0100
0001
0010
0100
,
1000
0000
0000
0001
0000
0000
0100
0000
0010
0000
0000
0100
0000
0000
0000
0001
0000
0000
0100
0000
0000
0000
0000
0000
,
1000
0000
0000
0001
0000
0000
0010
0000
1000
0000
0000
0001
0000
0000
0000
0100
0000
0000
0010
0000
0000
0000
0000
0000
,
0001
0000
0000
0100
0000
0000
1000
0000
0001
0000
0000
0010
0000
0000
0000
0100
0000
0000
0110
0000
0000
0000
0000
0000
,
1001
0000
0001
0100
0010
1000
0100
0010
,
0001
0000
0100
0010
1000
0000
0010
0100
,
0001
0000
0000
1000
0000
0001
0000
0000
0000
0100
0000
0000
0010
0000
0000
0000
0000
0000
0001
0000
0000
0100
0000
0000
,
0001
0000
0000
0000
0000
0001
0000
0000
0000
0000
0000
0000
0100
0000
0000
0010
0000
0000
1000
0000
0001
0000
1000
0000
,
0010
0100
0010
1000
0100
1000
0001
0010
0001
0100
0000
0000
,
0010
1000
0100
0001
0010
0100
1000
0010
,
0100
0001
0010
1000
0100
0001
1000
0001
,
1000
0001
1000
0001
1000
0001
0100
0010
0100
0010
0100
0010
,
1000
0100
1000
0100
1000
0100
0010
0001
0010
0001
0010
0001
,
2002
0000
0000
0000
,
3003
0000
0000
0000
;

//---------------dance-single - ----------------
#NOTES:
     dance-single:
     :
     Hard:
     9:
     0.484408,0.714262,0.226617,0.184651,0.633687,404.000000,377.000000,27.000000,22.000000,0.000000,0.000000,0.484408,0.714262,0.226617,0.184651,0.633687,404.000000,377.000000,27.000000,22.000000,0.000000,0.000000:
0000
0000
0000
0000
,
0001
0000
0000
0100
0000
0000
0010
0000
1000
0000
0000
0000
0001
0000
0000
0000
0000
1000
0000
0000
1000
0010
0000
0000
,
0001
0000
0000
0010
0000
0000
0100
0000
0001
0000
0000
0000
1000
0000
0000
0000
0000
0001
0000
0000
0001
0100
0000
0000
,
1000
0000
0000
0100
0000
0000
0001
0000
1000
0000
0000
0000
0010
0000
0000
0000
0000
0100
0000
0000
0100
0001
0000
0000
,
1000
0000
0000
0001
0000
0000
0100
0000
0010
0000
0000
0000
1000
0000
0000
0000
0000
0010
0000
0000
0010
1000
0000
0000
,
0001
0000
1000
0001
0000
1000
0000
0000
0001
0000
0000
1000
0000
0000
0000
0010
0000
0000
0100
0000
0000
0001
0000
0000
,
0010
0000
0100
0010
0000
0100
0000
0000
0001
0000
0000
0100
0000
0000
0000
0010
0000
0000
1000
0000
0000
0100
0000
0000
,
0001
0000
0010
0001
0000
0010
0000
0000
0001
0000
0000
1000
0000
0000
0000
0100
0000
0000
0101
0000
0000
0000
0000
0000
,
1001
0000
0000
0000
0000
0000
1000
0000
0000
0010
0000
0000
0100
0000
0001
0100
0000
0000
0010
0000
0000
1000
0000
0000
,
0100
0000
0001
0100
0000
0001
0000
0000
1000
0000
0000
0010
0000
0000
0000
0100
0000
0000
0001
0000
0000
1000
0000
0000
,
0010
0000
1000
0010
0000
1000
0000
0000
0001
0000
0000
0100
0000
0000
0000
0010
0000
0000
1000
0000
0000
0100
0000
0000
,
0001
0000
1000
0001
0000
1000
0000
0000
0010
0000
0000
0100
0000
0000
0000
0001
0000
0000
1001
0000
0000
0000
0000
0000
,
0110
0000
0000
0000
0000
0000
0100
0000
0000
0010
0000
0000
0001
0000
1000
0001
0000
0000
0100
0000
0000
0010
0000
0000
,
0100
0001
1000
1100
0000
0101
0000
1001
,
0000
0000
0000
0011
0000
0000
0000
0000
0000
1010
0000
0000
1000
0000
0000
0010
0000
0000
0100
0000
0001
0000
0000
0000
,
0010
1000
0001
1001
0000
0110
0000
0101
,
0000
0000
0000
1010
0000
0000
1000
0000
0000
0100
0000
0000
0010
0000
0000
0001
0000
0000
1000
0000
0001
0000
0000
0000
,
0001
0010
1000
1001
0000
0101
0000
1010
,
0000
0000
0000
0011
0000
0000
0010
0000
0000
0100
0000
0000
0000
0000
0000
1000
0000
0000
0001
0000
0010
0000
0000
0000
,
0100
0000
0000
0010
0000
0000
1000
0000
0000
0001
0000
0000
0000
0000
0000
1001
0000
0000
0000
0000
1000
0001
0000
1000
,
0000
0000
0000
0100
0000
0000
0010
0000
0100
0000
0000
0000
0220
0000
0000
0000
0000
0000
0000
0000
0000
0330
0000
0000
,
2002
0000
0000
0000
0000
0000
0003
0000
0000
0020
0000
0000
3000
0000
0000
0230
0000
0000
0000
0000
0302
0000
0000
0000
,
2000
0000
0000
0000
0003
0000
0000
0000
0000
0200
3000
0000
0000
0000
0000
2300
0000
0000
0000
0000
3020
0000
0000
0000
,
0200
0000
0000
0000
0000
0000
0030
0000
0000
0002
0300
0000
0003
0000
0001
0100
0000
0000
0010
0000
0000
1000
0001
1000
,
0001
0000
0000
0100
0000
0100
0010
0000
0000
1000
0000
0000
0001
0000
0000
0100
0000
0000
0001
0000
0000
0010
0000
0000
,
0100
0000
0000
0001
0000
0000
1000
0000
0010
0000
0000
1000
0001
0000
0000
1000
0000
0100
0000
0000
1000
0010
0000
0000
,
0100
0000
0000
1000
0000
0000
0001
0000
0010
0000
0000
0001
1000
0000
0000
0001
0000
0100
0000
0000
0001
1000
0000
0000
,
0010
0000
0000
1000
0000
0000
0100
0000
0001
0000
0000
0100
0010
0000
0000
0100
0000
1000
0000
0000
0100
0010
0000
0000
,
0010
0000
0000
1000
0000
0000
0001
0000
0010
0000
0000
0100
0010
0000
0000
1000
0000
0010
0000
0000
0100
0010
0000
0000
,
0100
0000
0001
0100
0000
0001
0000
0000
1000
0000
0000
0001
0000
0000
0000
0100
0000
0000
0010
0000
0000
0100
0000
0000
,
0010
0000
1000
0010
0000
1000
0000
0000
0100
0000
0000
0010
0000
0000
0000
0001
0000
0000
0100
0000
0000
1000
0000
0000
,
0001
0000
1000
0001
0000
1000
0000
0000
0010
0000
0000
0100
0000
0000
0000
0010
0000
0000
1010
0000
0000
0000
0000
0000
,
1001
0000
0010
0100
0001
1000
0010
0100
,
0001
0000
0100
0001
0000
1000
0000
0000
0010
0000
0000
0100
0000
0000
0000
0001
0000
0000
1000
0000
0000
0100
0000
0000
,
0001
0000
0010
0001
0000
0100
0000
0000
0010
0000
0000
1000
0000
0000
0000
0100
0000
0000
0001
0000
0000
1000
0000
0000
,
0010
0000
1000
0010
0000
1000
0000
0000
0100
0000
0000
0001
0000
0000
0000
1000
0000
0000
1001
0000
0000
0000
0000
0000
,
0101
0000
1000
0001
0202
0303
2020
3030
,
1000
0000
0001
0000
0000
0000
0100
0000
0000
0010
0000
1000
0000
0000
0000
0001
0000
1000
0000
0000
0001
0000
0000
1000
,
0001
0000
0100
0001
0000
2000
0000
0000
0000
3010
0000
0000
0100
0000
0000
0001
0000
0100
0000
0000
0010
0000
0000
1000
,
0002
0000
0000
0003
0000
0200
0000
0000
0000
0310
0000
0000
1000
0000
0000
0001
0000
0000
0001
0000
0100
0000
0001
0000
,
0100
0000
0010
0000
1000
0000
0100
0000
0010
0000
0001
0000
0100
0000
0001
0000
1000
0000
0100
0000
0010
0100
0000
0010
,
0000
0000
1000
0100
0000
1000
0000
0000
0001
0100
0000
0001
0000
0000
0100
0010
0000
0100
0000
0000
0010
1000
0000
0010
,
0000
0000
1000
0001
0000
1000
0000
0000
0001
0000
0000
1001
0000
0000
1000
0001
0000
1000
0000
0000
0001
0000
0000
0010
,
0100
0010
1000
0100
0010
0001
0010
0100
1000
0001
0100
0001
,
1000
0001
1000
0001
1000
0001
1000
0001
1000
0001
1000
0001
1000
0001
1000
0001
1000
0001
1000
0001
1000
0001
1000
0002
,
2000
0000
0000
0000
,
3003
0000
0000
0000
;
