#TITLE:『82.99 AM』;
#SUBTITLE:;
#ARTIST:マクロスMACROSS 82-99;
#TITLETRANSLIT:82.99 AM;
#SUBTITLETRANSLIT:;
#ARTISTTRANSLIT:MACROSS 82-99;
#GENRE:;
#CREDIT:;
#BANNER:[Mighty No. 9] - 82.99-bn.png;
#BACKGROUND:[Mighty No. 9] - 82.99-bg.png;
#LYRICSPATH:;
#CDTITLE:;
#MUSIC:[Mighty No. 9] - 82.99 AM.ogg;
#OFFSET:-1.044000;
#SAMPLESTART:63.490997;
#SAMPLELENGTH:15.000000;
#SELECTABLE:YES;
#DISPLAYBPM:123.000000;
#BPMS:0.000000=123.000000
,63.500000=246.000000
,64.000000=123.000000
,71.500000=307.500000
,72.000000=123.000000
,95.000000=184.500000
,96.000000=123.000000
,224.000000=61.500000
;
#STOPS:63.500000=0.020000,
63.583332=0.020000,
63.666668=0.021000,
63.750000=0.020000,
63.833332=0.020000,
63.916668=0.021000,
71.500000=0.024000,
71.583336=0.024000,
71.666664=0.025000,
71.750000=0.024000,
71.833336=0.024000,
71.916664=0.025000,
95.000000=0.014000,
95.083336=0.014000,
95.166664=0.014000,
95.250000=0.014000,
95.333336=0.014000,
95.416664=0.014000,
95.500000=0.014000,
95.583336=0.014000,
95.666664=0.014000,
95.750000=0.012000,
95.833336=0.012000,
95.916664=0.012000
;
#BGCHANGES:;
#KEYSOUNDS:;
#ATTACKS:;

//---------------dance-single - ----------------
#NOTES:
     dance-single:
     :
     Challenge:
     8:
     0.387607,0.424201,0.221322,0.196731,0.139351,331.000000,304.000000,27.000000,24.000000,0.000000,0.000000,0.387607,0.424201,0.221322,0.196731,0.139351,331.000000,304.000000,27.000000,24.000000,0.000000,0.000000:
0000
0000
0000
0000
,
0000
0000
0000
0000
,
0000
0000
0000
0000
,
0000
0000
0000
0000
,
0020
0000
0000
0030
2000
0000
0000
3000
,
0200
0000
0000
0300
0002
0000
0000
0003
,
0020
0000
0000
0000
,
0030
0000
0000
0000
0000
0000
0000
0000
0000
2000
0000
0000
0001
0000
3001
0000
,
1000
0100
0010
0000
0100
0010
0001
0000
,
0100
0000
0001
0010
1000
0010
0001
0100
,
0020
0000
0000
0000
0001
0000
0000
0000
1030
0000
0001
0000
0100
0000
0010
0100
,
0000
0001
0010
0000
0100
1000
1001
0000
,
0001
0010
0100
0000
0010
0100
1000
0000
,
0010
0000
1000
0100
0001
0100
1000
0010
,
0200
0000
0000
0000
1000
0000
0000
0000
0301
0000
1000
0000
0010
0000
0100
0010
,
0000
0000
0000
0100
0000
0000
0001
0000
0000
0010
0000
0000
0100
0000
1000
0000
0000
0000
1100
0000
0000
4000
0000
0000
,
3002
0003
0001
0000
0200
0300
0100
0000
,
2000
3000
1000
0000
0200
0300
0100
0004
,
1003
0000
0000
0000
1100
0000
0000
0000
0100
0000
0000
0100
1000
0000
0000
0000
,
0010
0000
0000
0000
0010
0000
0000
0010
0100
0000
0000
0100
0001
0000
1000
0000
,
0001
0000
0000
0001
0010
0000
0000
0000
0100
0000
1000
0000
0010
0000
1000
0000
,
0100
0000
0000
0000
0110
0000
0000
0000
0010
0000
0001
0000
1000
0000
0000
1000
,
0001
0000
0101
0000
0100
0001
0010
0000
,
0010
0000
0000
0001
0000
0000
0100
0000
0000
0020
0000
0000
0000
0000
0000
0000
0000
0000
0000
0000
0000
0000
0030
0000
,
1000
0000
0000
0000
1020
0000
0000
0000
0001
0000
0000
0000
1030
0000
0000
0001
,
0010
0000
0010
0001
0000
0100
0000
0010
0000
0000
0000
0000
0010
0000
0100
0000
,
0010
1000
0001
0000
0010
0001
1000
0010
,
0100
1000
0100
0001
1000
0000
1100
0000
,
0001
0000
0000
0000
0021
0000
0000
0000
1000
0000
0000
0000
0031
0000
0000
1000
,
0010
0000
0010
1000
0000
0100
0000
0010
0000
0000
0000
0000
0010
0000
0100
0000
,
0010
0000
0001
0000
1000
0000
0000
0010
0000
1000
0000
0001
0000
0000
0000
0000
,
1000
0000
0010
0100
0000
0010
0000
0200
0000
0000
0000
0000
0000
0000
0300
0000
,
0010
0000
1001
0000
0010
0001
0100
0000
,
0010
0000
1001
0000
0010
0100
1000
0000
,
0001
0100
1000
0000
1000
0100
0001
0000
,
1000
0010
0001
0010
1000
0100
0010
0001
,
0100
0000
1001
0000
0100
0010
0001
0000
,
0100
0000
1001
0000
0100
1000
0010
0100
,
0101
0000
1000
0000
1100
0000
0010
0100
,
0100
0100
0110
0000
,
0001
0010
0001
0010
2000
0000
3010
0000
,
0001
0000
0100
0010
0000
0000
0100
0000
0001
0000
1000
0000
0100
0000
1000
0000
,
0010
0000
1010
0000
0100
0000
1001
0001
,
0010
0000
0000
0010
0000
0000
0010
0000
0001
0000
1000
0000
1000
0000
0010
0000
,
1000
0100
1000
0100
0002
0000
0103
0000
,
1000
0000
0000
1010
0000
0000
0101
0000
0000
0000
0001
0000
0010
0000
0010
0000
,
0001
0100
1000
0000
0001
0010
1000
0010
,
0100
0000
0000
0101
0000
0000
1010
0000
0000
0000
0001
0000
0100
0000
0001
1000
,
0001
0010
0100
0010
0002
0000
1003
0000
,
0010
0000
0100
0010
0000
0000
0100
0000
0001
0000
1000
0000
0100
0000
0001
0000
,
0100
1000
1010
0000
0100
0001
0011
0000
,
0001
0000
0000
0001
0000
0000
0001
0000
0100
0000
0100
0000
0001
0000
1000
0001
,
1000
0100
0010
0100
2000
0000
3001
0000
,
0100
0000
0000
0101
0000
0000
1010
0000
1000
0000
0010
0000
1000
0000
0100
0000
,
0010
0001
0010
0000
0001
0100
1000
0100
,
0001
0000
0000
0101
0000
0000
1001
0000
1000
0000
0000
0000
0001
0000
0001
0000
,
0020
0000
0000
0000
0000
0000
0000
0000
0230
0000
0000
0000
2300
0000
0000
0002
,
0000
0000
3003
0000
;

//---------------dance-single - ----------------
#NOTES:
     dance-single:
     :
     Hard:
     6:
     0.331398,0.377068,0.196731,0.254111,0.049183,283.000000,259.000000,24.000000,31.000000,0.000000,0.000000,0.331398,0.377068,0.196731,0.254111,0.049183,283.000000,259.000000,24.000000,31.000000,0.000000,0.000000:
0000
0000
0000
0000
,
0000
0000
0000
0000
,
0000
0000
0000
0000
,
0000
0000
0000
0000
,
0002
0000
0023
0000
,
0230
0000
2300
0000
,
0002
0000
0000
0000
,
3003
0000
0000
0000
0000
0000
0000
0000
0000
0200
0000
0000
0010
0000
0310
0000
,
0100
0000
0101
0000
0001
1000
0001
0000
,
1000
0000
0100
0010
0100
1000
0010
0100
,
0020
0001
0100
1030
,
0200
0001
0010
1300
,
0001
0000
0101
0000
1000
0001
1000
0000
,
0001
0000
0010
0100
0010
0001
0100
0010
,
0200
1000
0010
0301
,
0010
0000
1000
0100
0010
0001
2001
0000
,
3002
0103
0200
1300
,
2000
3010
0020
0032
,
2003
0000
3010
0000
1000
0100
0010
0000
,
0002
0000
0103
0000
0001
0010
0100
0000
,
2000
3010
0002
0013
,
1000
0100
0010
0000
0001
0100
0010
0000
,
2000
3100
0002
0103
,
1000
0010
0100
0002
0000
0000
0000
0000
,
1003
1100
1001
0101
,
0001
0010
0001
0010
0001
0000
1000
0100
,
1000
1010
0001
0101
,
1000
0100
0010
0100
1000
0000
0001
0000
,
1000
1010
1001
0011
,
0001
0100
0001
0100
0001
0000
1000
0010
,
1000
0100
1000
0000
0001
0010
0001
0000
,
1000
0000
0000
0010
0000
0100
0000
0020
0000
0000
0000
0000
0030
0000
0000
0000
,
1000
0000
1100
0000
1000
0100
1000
0000
,
0001
0000
0011
0000
0001
0010
0001
0000
,
1000
0110
0001
0110
,
1000
0000
0100
0000
0001
0000
0010
0010
,
1000
0000
1100
0000
1000
0100
1000
0000
,
0001
0000
0011
0000
0001
0010
0001
0010
,
0200
1000
0010
0001
,
0310
0010
0020
0030
,
0001
1000
0001
1000
0010
0000
0010
0000
,
0100
0000
0101
0000
0010
0000
1000
0001
,
1000
0110
0001
0110
,
1000
0000
0000
1000
0000
0000
1000
0000
0000
0000
0010
0000
0100
0000
0001
0000
,
1000
0001
1000
0001
0010
0000
0010
0000
,
0100
0000
0000
0100
0000
0000
1000
0000
0100
0000
1000
0000
0010
0000
0100
0000
,
0001
0101
1000
1100
,
0001
0000
0000
0001
0000
0000
0200
0000
0000
0000
0000
0000
0310
0000
1000
0000
,
0001
0010
0001
0010
0100
0000
0100
0000
,
1000
0000
0000
0010
0000
0000
1000
0000
0001
0000
0001
0000
0100
0000
0001
0000
,
0100
0010
1000
0000
1000
0100
0010
0001
,
1000
0000
0000
1000
0000
0000
1000
0000
0000
0000
0010
0000
0100
0000
0010
0000
,
1000
0100
1000
0100
0010
0000
0010
0000
,
0001
0000
0000
0001
0000
0000
0100
0000
0001
0000
0000
0000
1000
0000
0100
0000
,
1000
1010
0001
0011
,
1000
0000
0000
1000
0000
0000
0200
0000
0000
0000
0000
0000
0310
0000
0001
0000
,
2000
0000
0000
0000
0000
0000
0000
0000
3020
0000
0000
0000
0230
0000
0000
0302
,
0000
0000
0003
0000
;
