#TITLE:39 TECHNO;
#SUBTITLE:;
#ARTIST:八王子P feat. 初音ミク;
#TITLETRANSLIT:;
#SUBTITLETRANSLIT:;
#ARTISTTRANSLIT:8#Prince feat. Hatsune Miku;
#GENRE:;
#CREDIT:;
#BANNER:[Mighty No. 9] - 39 TECHNO.png;
#BACKGROUND:[Mighty No. 9] - 39 TECHNO-bg.png;
#LYRICSPATH:;
#CDTITLE:cdtitle.png;
#MUSIC:[Mighty No. 9] - 39 TECHNO.ogg;
#OFFSET:1.597000;
#SAMPLESTART:27.752001;
#SAMPLELENGTH:15.000000;
#LASTBEATHINT:1.382543;
#SELECTABLE:YES;
#BPMS:0.000000=139.000000
;
#STOPS:
;
#BGCHANGES:3.500=[Mighty No. 9] - 39 TECHNO.avi=1.000=0=0=0=StretchNoLoop====,
99999=-nosongbg-=1.000=0=0=0 // don't automatically add -songbackground-
;
#KEYSOUNDS:;
#ATTACKS:;

//---------------dance-single - ----------------
#NOTES:
     dance-single:
     9646_BEG:
     Beginner:
     3:
     0.171737,0.225085,0.017052,0.017052,0.000000,141.000000,139.000000,2.000000,2.000000,0.000000,0.000000,0.171737,0.225085,0.017052,0.017052,0.000000,141.000000,139.000000,2.000000,2.000000,0.000000,0.000000:
0000
0000
0000
0000
,
0000
0000
0000
0000
,
0000
0000
0000
0000
,
0000
0000
0000
0000
,
0000
0000
0000
0000
,
0000
0000
0000
0000
,
0000
0000
0000
0000
,
0000
0000
0000
0000
,
0000
0000
0000
0000
,
1000
0000
1000
0000
,
1000
1000
1000
0000
,
0100
0000
0100
0000
,
0100
0100
0100
0000
,
0001
0000
0001
0000
,
0001
0001
0001
0000
,
0010
0010
0010
0010
,
0010
0000
0010
0000
,
1000
0000
0001
0000
,
0010
0010
0010
0000
,
0001
0000
1000
0000
,
0010
0010
0010
0000
,
1000
0000
0001
0000
,
0100
0100
0100
0000
,
0010
0010
0010
0010
,
0010
0000
0010
0000
,
1000
0000
0001
0000
,
1000
0000
0001
0001
,
0001
0000
1000
0000
,
0100
0100
0100
0000
,
1000
0000
0010
0000
,
0100
0000
0001
0001
,
0001
0000
1000
0000
,
2002
0000
3003
0000
,
1000
0000
0001
0000
,
1000
1000
1000
0000
,
0010
0000
0100
0000
,
0010
0010
0010
0000
,
0001
0000
1000
0000
,
0001
0001
0001
0001
,
0001
0000
0000
0000
,
0100
0000
0100
0000
,
0100
0000
1000
0000
,
0001
0001
0001
0000
,
1000
0000
0010
0000
,
0100
0100
0100
0000
,
0010
0000
1000
0000
,
0001
0001
0001
0000
,
1000
0000
0100
0000
,
0010
0000
0010
0000
,
0010
0000
0001
0000
,
1000
1000
1000
0000
,
0001
0000
0100
0000
,
0010
0010
0010
0000
,
0100
0000
0001
0000
,
1000
1000
1000
0000
,
0001
0000
0010
0000
,
0100
0000
0100
0000
,
0100
0000
0010
0000
,
0001
0001
0001
0000
,
0010
0000
0100
0000
,
1000
1000
1000
0000
,
0010
0000
0100
0000
,
0001
0001
0001
0000
,
1000
0000
0001
0000
,
0010
0000
0010
0000
,
0010
0000
0010
0000
,
1001
0000
0000
0000
;

//---------------dance-single - ----------------
#NOTES:
     dance-single:
     9646_CSP:
     Challenge:
     9:
     0.563931,0.787798,0.289882,0.034104,0.294145,463.000000,429.000000,34.000000,4.000000,116.000000,0.000000,0.563931,0.787798,0.289882,0.034104,0.294145,463.000000,429.000000,34.000000,4.000000,116.000000,0.000000:
// measure 0
0000
0000
0000
0000
,  // measure 1
0000
0000
0000
0000
,  // measure 2
0000
0000
0000
0000
,  // measure 3
0000
0000
0000
0000
,  // measure 4
0000
0000
0000
0000
,  // measure 5
0000
0000
0000
0000
,  // measure 6
0000
0000
0000
0000
,  // measure 7
0000
0000
0000
0000
,  // measure 8
0000
0000
0000
0000
,  // measure 9
1000
0100
0001
0000
0001
0100
1000
0000
,  // measure 10
1000
0100
0001
0100
1000
0100
0001
0000
,  // measure 11
0001
0010
1000
0000
1000
0010
0001
0000
,  // measure 12
0001
0010
1000
0010
0001
0010
1000
0000
,  // measure 13
1000
0010
0001
0000
0001
0010
1000
0000
,  // measure 14
1000
0010
0001
0010
1000
0010
0001
0000
,  // measure 15
0001
0100
1000
0100
0001
1000
0010
0001
,  // measure 16
1001
0000
0000
0000
0110
0000
0000
0000
0001
1000
0001
0010
0100
0010
0000
0000
,  // measure 17
0001
1000
0010
0000
0001
0000
0000
0000
0010
1000
0001
0000
0010
0000
0000
0000
,  // measure 18
0100
0001
0100
0000
1000
0100
1000
0000
0010
0001
0010
0000
1000
0000
0000
0000
,  // measure 19
0001
1000
0100
0000
0001
0000
0000
0000
0100
1000
0001
0000
0100
0000
0000
0000
,  // measure 20
0010
0001
0010
0000
1000
0010
1000
0000
0100
0001
0100
0000
1000
0000
0000
0000
,  // measure 21
0100
1000
0010
0000
0001
0000
0000
0000
0010
1000
0100
0000
0001
0000
0000
0000
,  // measure 22
0100
1000
0010
0000
0100
0001
0010
0000
0100
1000
0010
0000
0001
0000
0000
0000
,  // measure 23
0010
1000
0100
0000
0010
0001
0100
0000
0010
1000
0100
0000
0010
0001
0100
0000
,  // measure 24
1001
0000
0000
0000
0110
0000
0000
0000
1000
0001
1000
0100
0010
0100
0000
0000
,  // measure 25
1001
0000
1000
0010
0100
0000
0100
0000
1000
0000
0010
0000
0100
0000
0010
0000
,  // measure 26
0110
0000
0001
1000
0010
0000
0100
0000
0001
1000
0001
0010
0100
0000
1000
0000
,  // measure 27
1001
0000
0001
0100
0010
0000
0010
0000
0001
0000
0100
0000
0010
0000
0100
0000
,  // measure 28
0010
1000
0001
0010
0100
0000
0100
0000
0200
0000
0300
0000
MMMM
0000
0000
0000
,  // measure 29
1001
0000
0001
0010
0100
0000
0100
0000
0001
0000
0010
0000
0100
0000
0010
0000
,  // measure 30
0110
0000
1000
0001
0010
0000
0100
0000
1000
0001
1000
0010
0100
0000
0001
0000
,  // measure 31
1001
0000
1000
0100
0010
0000
0010
0000
1000
0000
0100
0000
0010
0000
0100
0000
,  // measure 32
2002
0000
0000
3003
,  // measure 33
1000
0100
1000
0100
0010
0000
0100
0000
1000
0010
1000
0010
0100
0000
0010
0000
,  // measure 34
1000
0001
1000
0000
0001
0010
0001
0000
1000
0100
1000
0100
0010
0000
0001
0000
,  // measure 35
1000
0010
1000
0010
0100
0000
0010
0000
1000
0100
1000
0100
0010
0000
0100
0000
,  // measure 36
1000
0001
1000
0001
1000
0010
0100
0001
2000
0000
3000
0000
MMMM
0000
0000
0000
,  // measure 37
1000
0100
1000
0100
0001
0000
0100
0000
1000
0010
1000
0010
0001
0000
0010
0000
,  // measure 38
1000
0100
1000
0100
0010
0001
0010
0001
1000
0010
0100
0001
0010
0100
1000
0001
,  // measure 39
MMMM
0000
MMMM
0000
MMMM
MMMM
MMMM
MMMM
,  // measure 40
0110
1001
0110
1001
,  // measure 41
0110
0001
MMMM
0001
0010
MMMM
1000
0010
,  // measure 42
0001
0001
0001
MMMM
1000
MMMM
0001
0010
,  // measure 43
1000
0001
MMMM
0010
1000
MMMM
0010
0100
,  // measure 44
1000
0001
0010
MMMM
1000
0010
0001
0010
,  // measure 45
0100
0001
MMMM
0001
0100
MMMM
1000
0100
,  // measure 46
0001
0001
0001
MMMM
1000
MMMM
0001
0100
,  // measure 47
1000
0001
MMMM
0100
1000
MMMM
0100
0010
,  // measure 48
0110
1001
0110
1001
,  // measure 49
0110
0001
MMMM
0100
0010
MMMM
1000
0100
,  // measure 50
1000
0000
0010
0000
0001
0000
0010
0000
1000
0000
0001
0100
0000
1000
0100
0000
,  // measure 51
0001
0010
MMMM
1000
0010
MMMM
0001
0010
,  // measure 52
0100
1000
0010
0001
0010
1000
0001
0001
,  // measure 53
0010
0001
MMMM
0010
0100
MMMM
1000
0010
,  // measure 54
1000
0000
0100
0000
0001
0000
0100
0000
1000
0000
0001
0010
0000
1000
0010
0000
,  // measure 55
0001
0100
MMMM
1000
0100
MMMM
0001
0100
,  // measure 56
0110
1001
0110
1001
,  // measure 57
1000
0100
0001
0000
0001
0100
1000
0000
,  // measure 58
1000
0100
0001
0100
1000
0100
0001
0000
,  // measure 59
0001
0010
1000
0000
1000
0010
0001
0000
,  // measure 60
0001
0010
1000
0010
0001
0010
1000
0000
,  // measure 61
1000
0010
0001
0000
0001
0010
1000
0000
,  // measure 62
1000
0010
0001
0010
1000
0010
0001
0000
,  // measure 63
0001
0100
1000
0100
0001
1000
0010
0001
,  // measure 64
1001
0110
1010
1100
,  // measure 65
0101
0011
0110
1001
,  // measure 66
0110
0000
0000
0000
;

//---------------dance-single - ----------------
#NOTES:
     dance-single:
     9646_ESP:
     Hard:
     7:
     0.489633,0.506441,0.281356,0.068208,0.025578,402.000000,369.000000,33.000000,8.000000,0.000000,0.000000,0.489633,0.506441,0.281356,0.068208,0.025578,402.000000,369.000000,33.000000,8.000000,0.000000,0.000000:
0000
0000
0000
0000
,
0000
0000
0000
0000
,
0000
0000
0000
0000
,
0000
0000
0000
0000
,
0000
0000
0000
0000
,
0000
0000
0000
0000
,
0000
0000
0000
0000
,
0000
0000
0000
0000
,
0000
0000
0000
0000
,
1000
0001
0100
0000
1000
0001
0100
0000
,
1000
1000
0100
0100
0001
0010
1000
0000
,
0001
1000
0100
0000
0001
1000
0100
0000
,
0001
0001
0100
0100
1000
0010
0001
0000
,
1000
0001
0010
0000
1000
0001
0010
0000
,
1000
1000
0010
0010
0001
0100
1000
0000
,
0001
0001
1000
1000
0010
0100
0001
1000
,
1001
1100
1001
0101
,
0001
1000
0100
0000
0001
1000
0100
0000
,
0001
0001
0100
0100
1000
0010
0001
0000
,
1000
0001
0100
0000
1000
0001
0100
0000
,
1000
1000
0100
0100
0001
0010
1000
0000
,
0001
1000
0010
0000
0001
1000
0010
0000
,
0001
0001
0010
0010
1000
0100
0001
0000
,
1000
1000
0001
0001
0010
0100
1000
0001
,
1001
0101
1001
1100
,
2000
0000
0000
3001
0010
0000
0000
0000
1000
0000
0010
0000
0001
0000
0100
0000
,
2000
0000
0000
3100
0001
0000
0000
0000
0100
0000
0010
0000
1000
0000
0000
0000
,
0002
0000
0000
1003
0100
0000
0000
0000
0001
0000
0100
0000
1000
0000
0001
0000
,
1000
0010
0100
0100
0100
0000
0110
0000
,
0002
0000
0000
1003
0100
0000
0000
0000
0001
0000
0100
0000
1000
0000
0010
0000
,
0002
0000
0000
0013
1000
0000
0000
0000
0010
0000
0100
0000
0001
0000
0000
0000
,
2000
0000
0000
3001
0010
0000
0000
0000
1000
0000
0010
0000
0001
0000
1000
0000
,
2002
0000
0000
0000
3003
0000
0100
0100
,
0001
1000
0100
0000
1000
0001
0010
0000
,
0001
1000
0010
1000
0001
0010
0100
0000
,
1000
0001
0010
0000
0001
1000
0100
0000
,
1000
0001
0100
0001
1000
0000
1100
0000
,
1000
0001
0010
0000
0001
1000
0100
0000
,
1000
0001
0100
0001
1000
0100
0010
0001
,
1001
0000
0000
0000
,
1100
1010
0101
0011
,
1000
0100
1000
0010
0100
0001
0100
0010
,
1000
0001
0010
0010
1000
0100
0100
0001
,
0010
0010
1000
0001
0010
0010
0100
0001
,
1000
0100
0010
0010
1000
0100
0010
0000
,
0001
0100
0001
0010
0100
1000
0100
0010
,
0001
1000
0010
0010
0001
0100
0100
1000
,
0010
0010
0001
1000
0010
0010
0100
1000
,
1001
0110
1001
0110
,
1000
0010
1000
0100
0010
0001
0010
0100
,
1000
0001
0100
0100
1000
0010
0010
0001
,
0100
0100
1000
0001
0100
0100
0010
0001
,
1000
0010
0100
0100
1000
0010
0100
0000
,
0001
0010
0001
0100
0010
1000
0010
0100
,
0001
1000
0100
0100
0001
0010
0010
1000
,
0100
0100
0001
1000
0100
0100
0010
1000
,
1001
0110
1001
0110
,
0001
1000
0100
0000
0001
1000
0100
0000
,
0001
0001
0100
0100
1000
0010
0001
0000
,
1000
0001
0100
0000
1000
0001
0100
0000
,
1000
1000
0100
0100
0001
0010
1000
0000
,
0001
1000
0010
0000
0001
1000
0010
0000
,
0001
0001
0010
0010
1000
0100
0001
0000
,
1000
1000
0001
0001
0010
0100
1000
0001
,
1001
0101
1001
1100
,
0101
1010
0011
0110
,
1001
0000
0000
0000
;

//---------------dance-single - ----------------
#NOTES:
     dance-single:
     9646_BSP:
     Easy:
     5:
     0.370270,0.506441,0.724706,0.025578,0.000000,304.000000,219.000000,85.000000,3.000000,0.000000,0.000000,0.370270,0.506441,0.724706,0.025578,0.000000,304.000000,219.000000,85.000000,3.000000,0.000000,0.000000:
0000
0000
0000
0000
,
0000
0000
0000
0000
,
0000
0000
0000
0000
,
0000
0000
0000
0000
,
0000
0000
0000
0000
,
0000
0000
0000
0000
,
0000
0000
0000
0000
,
0000
0000
0000
0000
,
0000
0000
0000
0000
,
1000
0110
1000
0110
,
0001
0001
0001
0110
,
0100
1001
0100
1001
,
0010
0010
0010
1001
,
0001
0110
0001
0110
,
1000
1000
1000
0110
,
1000
1000
0001
0001
,
1001
1001
0110
0110
,
0001
1010
1000
0101
,
0001
1000
0001
0101
,
0001
1100
1000
0011
,
0001
1000
0001
0011
,
1000
0011
0001
1100
,
1000
0001
1000
1100
,
1000
0010
0001
0100
,
1100
1100
0101
0101
,
1001
0100
1000
0010
,
0001
0010
1000
1000
,
0001
0010
0100
1000
,
0001
0001
0002
0003
,
1001
0100
0001
0010
,
1000
0010
0001
0001
,
1000
0010
0100
0001
,
2002
0000
0000
3003
,
0001
0110
0001
0110
,
1000
1000
1000
0110
,
0010
1001
0010
1001
,
0100
0100
0100
1001
,
1000
0110
1000
0110
,
0001
0001
0001
0110
,
1001
0000
0000
0000
,
0011
0011
1010
1010
,
1001
0010
1001
0010
,
0100
0100
0100
0000
,
1001
0100
1001
0100
,
0010
0010
0010
0000
,
0110
0001
0110
1000
,
0001
0001
0001
0000
,
0110
1000
0110
0001
,
1001
1001
0110
0110
,
1001
0100
1001
0100
,
0010
0010
0010
0100
,
1001
0010
1001
0010
,
0100
0100
0100
0010
,
0110
0001
0110
1000
,
0001
0001
0001
1000
,
0110
1000
0110
0001
,
1001
1001
0110
0110
,
1000
0110
1000
0110
,
0001
0001
0001
0110
,
0100
1001
0100
1001
,
0010
0010
0010
1001
,
0001
0110
0001
0110
,
1000
1000
1000
0110
,
1000
1000
0001
0001
,
1001
1001
0110
0110
,
1001
0110
1001
0110
,
1001
0000
0000
0000
;

//---------------dance-single - ----------------
#NOTES:
     dance-single:
     9646_DSP:
     Medium:
     6:
     0.423861,0.506441,0.503031,0.076734,0.000000,348.000000,289.000000,59.000000,9.000000,0.000000,0.000000,0.423861,0.506441,0.503031,0.076734,0.000000,348.000000,289.000000,59.000000,9.000000,0.000000,0.000000:
0000
0000
0000
0000
,
0000
0000
0000
0000
,
0000
0000
0000
0000
,
0000
0000
0000
0000
,
0000
0000
0000
0000
,
0000
0000
0000
0000
,
0000
0000
0000
0000
,
0000
0000
0000
0000
,
0000
0000
0000
0000
,
1000
0100
1000
0000
0010
0100
0010
0000
,
1000
0001
1000
0001
1000
0000
1100
0000
,
0001
0100
0001
0000
0010
0100
0010
0000
,
0001
1000
0001
1000
0001
0000
0101
0000
,
1000
0100
1000
0000
0010
0100
0010
0000
,
1000
0001
1000
0001
1000
0000
1100
0000
,
0001
0010
0001
0000
1000
0100
1000
0000
,
1001
1001
0110
1001
,
0001
0010
0100
0000
0010
0001
1000
0000
,
0010
0001
0010
1000
0001
0000
1100
0000
,
1000
0100
0010
0000
0100
1000
0001
0000
,
1000
0010
0100
1000
0100
0000
0101
0000
,
0001
0100
0010
0000
0100
0001
1000
0000
,
0100
0001
0100
1000
0001
0000
1010
0000
,
0001
0001
0001
0000
1000
1000
1000
0000
,
1001
1001
0110
1001
,
2000
0000
3100
0000
0001
0100
1000
0000
,
0002
0000
0103
0000
1000
0100
0001
0000
,
2000
0000
3010
0000
0001
0010
1000
0000
,
0010
0000
0100
0100
0200
0000
0300
0000
,
0002
0000
0013
0000
1000
0010
0001
0000
,
2000
0000
3010
0000
0001
0010
1000
0000
,
0002
0000
0103
0000
1000
0100
0001
0000
,
2002
0000
0000
3003
,
1000
0100
0010
0000
0100
1000
0001
0000
,
0100
1000
0100
0001
1000
0000
0011
0000
,
0001
0010
0100
0000
0010
0001
1000
0000
,
0001
0100
0010
0001
0010
0000
1010
0000
,
1000
0010
0100
0000
0010
1000
0001
0000
,
0010
1000
0010
0001
1000
0001
1000
0001
,
1000
0000
0000
0000
,
0110
0110
1001
0110
,
1000
1100
0001
0101
,
1000
0001
1000
0000
0001
0000
0000
0000
,
0001
0101
1000
1100
,
0001
1000
0001
0000
1000
0000
1000
0000
,
0001
0101
1000
1010
,
0001
1000
0001
0000
1000
0000
0000
0000
,
1000
1100
0001
0011
,
0110
0110
1001
0110
,
0001
0011
1000
1010
,
0001
1000
0001
0000
1000
0000
0011
0000
,
1000
1010
0001
0011
,
1000
0001
1000
0000
0001
0000
0001
0000
,
1000
1010
0001
0101
,
1000
0001
1000
0000
0001
0000
1100
0000
,
0001
0011
1000
1100
,
0110
0110
1001
0110
,
1000
0100
1000
0000
0010
0100
0010
0000
,
1000
0001
1000
0001
1000
0000
1100
0000
,
0001
0100
0001
0000
0010
0100
0010
0000
,
0001
1000
0001
1000
0001
0000
0101
0000
,
1000
0100
1000
0000
0010
0100
0010
0000
,
1000
0001
1000
0001
1000
0000
1100
0000
,
0001
0010
0001
0000
1000
0100
1000
0000
,
1001
1001
0110
1001
,
1100
0101
0011
1010
,
1001
0000
0000
0000
;
