#VERSION:0.83;
#TITLE:This Is How We Do It;
#SUBTITLE:;
#ARTIST:Montell Jordan;
#TITLETRANSLIT:;
#SUBTITLETRANSLIT:;
#ARTISTTRANSLIT:;
#GENRE:;
#ORIGIN:;
#CREDIT:hooky;
#BANNER:This Is How We Do It.png;
#BACKGROUND:This Is How We Do It-bg.png;
#PREVIEWVID:;
#JACKET:This Is How We Do It-jacket.png;
#CDIMAGE:;
#DISCIMAGE:;
#LYRICSPATH:;
#CDTITLE:;
#MUSIC:This Is How We Do It.ogg;
#OFFSET:0.000000;
#SAMPLESTART:50.632973;
#SAMPLELENGTH:15.000000;
#SELECTABLE:YES;
#DISPLAYBPM:104.000000;
#BPMS:0.000=103.650;
#STOPS:;
#DELAYS:;
#WARPS:;
#TIMESIGNATURES:0.000=4=4;
#TICKCOUNTS:0.000=4;
#COMBOS:0.000=1;
#SPEEDS:0.000=1.000=0.000=0;
#SCROLLS:0.000=1.000;
#FAKES:;
#LABELS:0.000=Song Start;
#BGCHANGES:;
#KEYSOUNDS:;
#ATTACKS:
;

//---------------dance-single - ----------------
#NOTEDATA:;
#CHARTNAME:;
#STEPSTYPE:dance-single;
#DESCRIPTION:;
#CHARTSTYLE:;
#DIFFICULTY:Hard;
#METER:7;
#RADARVALUES:0.319007,0.332166,0.118631,0.062804,0.000000,320.000000,303.000000,17.000000,9.000000,0.000000,0.000000,0.000000,0.000000,0.000000,0.319007,0.332166,0.118631,0.062804,0.000000,320.000000,303.000000,17.000000,9.000000,0.000000,0.000000,0.000000,0.000000,0.000000;
#CREDIT:;
#DISPLAYBPM:104.000000;
#NOTES:
0000
0000
0000
0000
,
0000
0000
0000
0000
,
0000
0000
0000
0000
,
0000
0000
0000
0000
,
1000
0000
0100
1000
0010
0000
1000
0000
,
0001
0001
1000
0000
1000
0010
0100
0000
,
0100
0100
0110
0000
0100
0100
0101
0000
,
0001
0001
0011
0000
0010
0010
0110
0000
,
0001
1000
1000
0000
1000
0100
0010
0000
,
0010
0001
0100
0100
0001
0010
0001
0000
,
0100
0100
0001
0000
0001
0001
1000
0000
,
1000
0100
1000
0100
0010
0010
0010
0000
,
0001
0001
0101
0000
1000
1000
1010
0000
,
0020
0000
0130
0000
0001
0100
0101
0000
,
0002
1000
0010
0100
,
0010
0000
1000
1000
0100
0000
0103
0000
,
0020
0000
1000
0000
0001
0001
0001
0000
,
0100
0000
0001
0000
0100
0100
0130
0000
,
0010
1000
0100
0000
0100
1000
0010
0000
,
0010
0100
0001
0010
0001
0001
1000
0000
,
0001
0001
0101
0000
0100
0100
0110
0000
,
0010
1000
0100
1000
0001
0001
0100
0000
,
0200
0010
0001
1300
,
0010
0010
0010
0010
0010
0010
0000
0000
,
2000
0010
0100
3001
,
1000
1000
1000
1000
1000
1000
0000
0000
,
0001
0100
0010
0000
0010
1000
0100
0000
,
0100
0100
0100
0100
0100
0100
0000
0000
,
1000
0010
1000
0000
0010
1000
0001
0000
,
0001
0001
0001
0001
0001
0001
0000
0000
,
0100
0100
0110
0000
0010
0010
1010
0000
,
1000
0100
1000
1000
0010
0100
0001
0000
,
0010
0001
0100
0000
0100
0001
0010
0000
,
0001
0010
1000
0010
0001
0001
0001
0000
,
0100
0100
0110
0000
0010
0010
1010
0000
,
1000
0100
1000
0000
0010
0100
0001
0000
,
0010
0001
0100
0001
0010
0010
0001
0000
,
0220
0000
0000
0000
0330
0010
0100
0000
,
0100
0100
0010
0000
0010
0010
0100
0000
,
0010
0010
0100
0010
0100
0010
0000
0000
,
1000
0100
1000
0000
1000
0001
0100
0000
,
0001
0001
0100
0001
0001
0001
0010
0000
,
0001
0010
1000
0000
1000
0100
0001
0000
,
0001
1000
0001
1000
0001
0001
1001
0000
,
0100
0010
1000
0000
1000
0001
0100
0000
,
0010
0010
0010
0010
0100
0100
0110
0000
,
0010
0010
1000
0000
1000
1000
0100
0000
,
1000
1000
1000
1000
1000
1000
0001
0000
,
0100
0010
0100
0000
0100
0001
0010
0000
,
0001
0001
0001
0001
0001
0001
0100
0000
,
0100
0010
1000
0100
1000
0001
0100
0001
,
0010
0010
0010
0010
0010
0010
0100
0000
,
0100
1000
0001
0000
0100
0010
1000
0000
,
0100
0100
0100
0100
0100
0100
0010
0000
,
0022
0000
0000
0000
,
0000
0000
0000
0000
,
0033
0000
0000
0000
;

//---------------dance-single - ----------------
#NOTEDATA:;
#CHARTNAME:;
#STEPSTYPE:dance-single;
#DESCRIPTION:;
#CHARTSTYLE:;
#DIFFICULTY:Medium;
#METER:5;
#RADARVALUES:0.218320,0.273548,0.111652,0.097696,0.000000,219.000000,203.000000,16.000000,14.000000,0.000000,0.000000,0.000000,0.000000,0.000000,0.218320,0.273548,0.111652,0.097696,0.000000,219.000000,203.000000,16.000000,14.000000,0.000000,0.000000,0.000000,0.000000,0.000000;
#CREDIT:;
#DISPLAYBPM:104.000000;
#NOTES:
0000
0000
0000
0000
,
0000
0000
0000
0000
,
0000
0000
0000
0000
,
0000
0000
0000
0000
,
0010
0000
0100
0000
,
0001
0000
1000
0000
0001
0001
0001
0000
,
0100
0000
0010
0000
,
0100
0000
0010
0000
,
0100
0000
0010
0000
,
1000
0000
0001
0000
1000
1000
1000
0000
,
0001
0010
0001
0000
,
0100
0010
1000
0100
,
0100
1000
0001
0000
,
0001
0100
0010
0010
,
1000
0100
1000
0000
1000
0000
0000
0000
,
0010
0100
0001
0000
0001
0000
0000
0000
,
0010
0001
0010
0000
0001
0000
0001
0000
,
0100
0010
1000
0000
0100
0000
0100
0000
,
1000
1000
0001
0001
,
0100
0010
0100
0000
0220
0000
0330
0000
,
0010
1000
0100
0000
0100
1000
0010
0000
,
0010
0100
0001
0010
,
0002
0100
1000
0010
,
0100
0100
0103
0000
,
0020
1000
0100
0001
,
0100
1000
0130
0000
,
0010
0000
1000
0000
0100
0100
0100
0000
,
0020
0001
0130
0000
,
0010
0001
0010
0000
0001
1000
1000
0000
,
0100
0010
0001
0000
,
0100
0100
0010
0010
,
1000
0100
1000
1000
,
0001
0100
0010
0010
,
0100
0001
0100
0000
0010
1000
0010
0000
,
1000
1100
0010
0011
,
0001
0000
0101
0000
0100
0100
0100
0000
,
0010
1000
0100
0000
1000
1000
1000
0000
,
0002
0000
0000
0000
0000
0100
0103
0000
,
0010
1000
0100
1000
,
0001
1000
0001
0000
1001
0000
0000
0000
,
0010
0100
0001
0001
,
0010
0000
0001
1000
0100
0000
1100
0000
,
0010
0010
0001
0001
,
0100
0000
0100
0010
0100
0000
0110
0000
,
0010
1000
0100
0000
0100
0000
1000
0000
,
0010
0100
0001
0000
0001
0000
0101
0000
,
0100
0110
0010
1010
,
0100
0100
2200
3300
,
0010
0001
0100
0100
,
0101
0001
0022
0033
,
0100
0001
1000
0100
,
1000
1000
0202
0303
,
0010
0010
0010
0000
0100
0100
0100
0000
,
0001
1000
1001
0100
,
0220
0000
0000
0000
,
0000
0000
0000
0000
,
0330
0000
0000
0000
;

//---------------dance-single - ----------------
#NOTEDATA:;
#CHARTNAME:;
#STEPSTYPE:dance-single;
#DESCRIPTION:;
#CHARTSTYLE:;
#DIFFICULTY:Easy;
#METER:3;
#RADARVALUES:0.162494,0.195392,0.055826,0.062804,0.000000,163.000000,155.000000,8.000000,9.000000,0.000000,0.000000,0.000000,0.000000,0.000000,0.162494,0.195392,0.055826,0.062804,0.000000,163.000000,155.000000,8.000000,9.000000,0.000000,0.000000,0.000000,0.000000,0.000000;
#CREDIT:;
#DISPLAYBPM:104.000000;
#NOTES:
0000
0000
0000
0000
,
0000
0000
0000
0000
,
0000
0000
0000
0000
,
0000
0000
0000
0000
,
1000
0000
0100
0000
,
1000
0000
0010
0000
,
0100
0100
0100
0000
,
0001
0001
0001
0000
,
1000
1000
1000
0000
,
0001
0100
0001
0000
,
0010
0001
0100
0000
,
0010
0010
0100
0100
,
0010
0000
1000
0000
,
0100
1000
0001
0001
,
0202
0000
0000
0000
,
0000
0003
0310
0000
,
0020
0000
0000
0000
,
0000
0000
1000
1030
,
2000
0000
0000
0000
,
0000
0000
3100
0000
,
0020
0000
0031
0000
,
0001
1000
0001
0010
,
0100
0010
0001
1000
,
0001
0100
0101
0000
,
0100
0010
1000
0100
,
1000
1000
1001
0000
,
0100
0100
0010
0010
,
0100
0010
0110
0000
,
0010
1000
0100
0100
,
1000
1000
1100
0000
,
0010
0001
0100
0100
,
0010
0010
1000
0100
,
1000
1000
0001
0001
,
0010
0100
1000
1000
,
0010
0100
0001
0010
,
0001
0100
0010
0010
,
0100
0001
1000
0001
,
2002
0000
0000
3003
,
1000
1000
0001
0001
,
0100
0010
0110
0000
,
0010
1000
0100
0100
,
1000
0001
1000
0000
,
0010
0100
0001
0001
,
0010
0100
0010
0000
,
0001
0100
0001
0000
,
0010
1000
0010
0000
,
0100
0001
0010
0010
,
0001
0001
0010
0000
,
0010
0100
1000
0001
,
1000
1000
0001
0000
,
0100
0100
0100
0000
,
0010
0010
0010
0000
,
0010
1000
0100
1000
,
0001
0010
0001
0001
,
0202
0000
0000
0000
,
0000
0000
0000
0000
,
0303
0000
0000
0000
;

//---------------dance-single - ----------------
#NOTEDATA:;
#CHARTNAME:;
#STEPSTYPE:dance-single;
#DESCRIPTION:;
#CHARTSTYLE:;
#DIFFICULTY:Beginner;
#METER:1;
#RADARVALUES:0.110655,0.136774,0.027913,0.027913,0.000000,111.000000,107.000000,4.000000,4.000000,0.000000,0.000000,0.000000,0.000000,0.000000,0.110655,0.136774,0.027913,0.027913,0.000000,111.000000,107.000000,4.000000,4.000000,0.000000,0.000000,0.000000,0.000000,0.000000;
#CREDIT:;
#DISPLAYBPM:104.000000;
#NOTES:
// measure 0
0000
0000
0000
0000
,  // measure 1
0000
0000
0000
0000
,  // measure 2
0000
0000
0000
0000
,  // measure 3
0000
0000
0000
0000
,  // measure 4
1000
0000
0000
0000
,  // measure 5
0001
0000
0000
0000
,  // measure 6
1000
0000
1000
0000
,  // measure 7
1000
0000
1000
0000
,  // measure 8
1000
0000
1000
0000
,  // measure 9
1000
0000
1000
0000
,  // measure 10
0001
0000
0001
0000
,  // measure 11
0001
0000
0001
0000
,  // measure 12
0001
0000
0001
0000
,  // measure 13
0100
0000
0100
0100
,  // measure 14
0100
0000
0000
0000
,  // measure 15
0010
0000
1000
0000
,  // measure 16
0001
0000
0000
0000
,  // measure 17
0000
0000
1000
0000
,  // measure 18
0010
0000
0000
0000
,  // measure 19
0000
0000
0100
0000
,  // measure 20
0001
0000
0001
0000
,  // measure 21
1000
0000
0010
0000
,  // measure 22
0100
0100
0100
0000
,  // measure 23
0001
0001
0001
0000
,  // measure 24
1000
0000
1000
0000
,  // measure 25
0010
0010
0010
0000
,  // measure 26
0100
0000
0110
0000
,  // measure 27
0100
0001
0100
0000
,  // measure 28
0001
0000
0001
0000
,  // measure 29
1000
1000
1000
0000
,  // measure 30
0010
0000
0010
0000
,  // measure 31
0100
0000
0100
0000
,  // measure 32
0001
0000
0001
0000
,  // measure 33
0100
0000
0100
0000
,  // measure 34
0010
0000
1000
0000
,  // measure 35
0100
0000
1000
0000
,  // measure 36
0010
0010
0010
0000
,  // measure 37
0220
0000
0000
0330
,  // measure 38
0100
0000
0001
0000
,  // measure 39
0010
0010
0010
0000
,  // measure 40
0001
0000
1000
0000
,  // measure 41
0010
0010
0010
0000
,  // measure 42
0100
0100
0100
0000
,  // measure 43
0001
0000
1000
0000
,  // measure 44
0010
0010
0010
0000
,  // measure 45
0100
0000
0101
0000
,  // measure 46
0010
0000
0001
0000
,  // measure 47
1000
1000
1000
0000
,  // measure 48
0010
0000
0100
0000
,  // measure 49
0010
0010
0010
0000
,  // measure 50
0010
0000
1000
0000
,  // measure 51
0100
0100
0100
0000
,  // measure 52
1000
0000
0001
0000
,  // measure 53
0100
0000
0010
0000
,  // measure 54
2002
0000
0000
0000
,  // measure 55
0000
0000
0000
0000
,  // measure 56
3003
0000
0000
0000
;
