#TITLE:The Love You Save;
#SUBTITLE:;
#ARTIST:The Jackson 5;
#TITLETRANSLIT:;
#SUBTITLETRANSLIT:;
#ARTISTTRANSLIT:;
#GENRE:;
#CREDIT:;
#BANNER:[20th Century Boys] - The Love You Save.png;
#BACKGROUND:[20th Century Boys] - The Love You Save-bg.png;
#LYRICSPATH:;
#CDTITLE:;
#MUSIC:[20th Century Boys] - The Love You Save.mp3;
#OFFSET:1.676000;
#SAMPLESTART:34.303570;
#SAMPLELENGTH:15.000000;
#LASTBEATHINT:1.258850;
#SELECTABLE:YES;
#BPMS:0.000000=113.000000
;
#STOPS:
;
#BGCHANGES:3.000=[20th Century Boys] - The Love You Save.mp4=1.000=1=0=1===CrossFade==,
199.000=[20th Century Boys] - The Love You Save-bg.png=1.000=0=0=1=====,
99999=-nosongbg-=1.000=0=0=0 // don't automatically add -songbackground-
;
#KEYSOUNDS:;
#ATTACKS:;

//---------------dance-single - ----------------
#NOTES:
     dance-single:
     :
     Hard:
     7:
     0.401802,0.361490,0.138325,0.092217,0.087606,280.000000,15.000000,10.000000,0.000000,0.000000,0.000000,0.401802,0.361490,0.138325,0.092217,0.087606,280.000000,15.000000,10.000000,0.000000,0.000000,0.000000:
// measure 0
0000
0000
0000
0000
,  // measure 1
0000
0000
0000
0000
,  // measure 2
0000
0000
0000
0000
,  // measure 3
0000
0000
0000
0000
,  // measure 4
0000
0000
0000
0000
,  // measure 5
0010
0000
0100
0000
0001
0000
0000
0000
0001
0000
1000
0100
0000
1000
0100
0000
,  // measure 6
0010
0000
0100
0000
1000
0000
0000
0000
1000
0000
0001
0100
0000
0010
0100
0000
,  // measure 7
0001
0000
1000
0000
0100
0000
0000
0000
0100
0000
1000
0001
0000
1000
0010
0000
,  // measure 8
0100
0001
0100
0000
1000
0100
1000
0000
,  // measure 9
0001
0000
0001
0000
0001
0100
0010
1000
,  // measure 10
0001
0000
0001
0000
0010
0001
0010
0100
,  // measure 11
1000
0000
1000
0000
1000
0001
0010
0100
,  // measure 12
1000
0000
1000
0000
0000
0101
1100
0000
,  // measure 13
0001
0000
0010
0000
0001
1000
0010
1000
,  // measure 14
0100
0000
0001
0000
0010
0100
0010
0001
,  // measure 15
1000
0000
0010
0000
1000
0100
1000
0001
,  // measure 16
0010
0000
0100
0000
0000
0010
0110
0000
,  // measure 17
0001
0000
0000
0001
1000
0000
0010
0000
0100
0000
0001
0000
1000
0000
0010
0000
,  // measure 18
1000
0000
1000
0000
0001
0001
0010
0100
,  // measure 19
1000
0100
0000
0100
1000
0001
0010
0100
,  // measure 20
0010
0001
0010
0000
0100
0000
0010
0001
,  // measure 21
1000
0000
0000
1000
0001
0000
0010
0000
0100
0000
1000
0000
0001
0000
0100
0000
,  // measure 22
0010
0000
0010
0000
0010
0100
0001
0010
,  // measure 23
0100
0000
0000
0010
0001
0000
0100
0000
1000
0000
1000
0000
0000
0000
0100
0000
,  // measure 24
0001
0001
1000
1000
0100
1000
1100
0000
,  // measure 25
0002
0000
2003
0000
3001
0010
0010
0000
,  // measure 26
2000
0000
3200
0000
1300
0010
0010
0000
,  // measure 27
0002
0000
2003
0000
3010
0100
0100
0000
,  // measure 28
2000
0000
3002
0000
0103
0010
0010
0000
,  // measure 29
0010
1000
0001
0200
0000
0301
0000
0000
,  // measure 30
1000
0000
0001
0000
1000
0000
0010
0000
0000
0110
0000
0000
1001
0000
0000
0000
,  // measure 31
0010
1000
0100
0001
0000
0010
0000
0000
,  // measure 32
0100
0000
0010
0000
0001
0000
1000
0000
0000
0000
1100
0000
0000
0011
0000
0000
,  // measure 33
1001
0000
0001
0100
0010
1000
0100
1000
,  // measure 34
0000
1000
0001
1000
0100
1000
0001
0010
,  // measure 35
0000
0010
0001
1000
0010
0000
0010
0010
,  // measure 36
1000
0000
0001
0001
1000
1000
0100
1000
,  // measure 37
0001
0000
0000
0001
1000
0000
0010
0000
1000
0000
0001
0000
0100
0000
0001
0000
,  // measure 38
0010
0000
1100
0000
0011
0000
0000
1000
,  // measure 39
0001
0000
1000
0000
0100
0000
1000
0001
0000
0000
0100
0000
0010
0000
0100
0000
,  // measure 40
0001
0001
1000
1000
0001
0100
0101
0000
,  // measure 41
0010
0000
1000
0010
0000
0100
0010
0000
0000
0000
1000
0000
0100
0000
0000
0000
,  // measure 42
0010
0000
0001
0100
0000
0100
0020
0000
0000
0000
0000
0000
0030
0000
1000
0000
,  // measure 43
0100
0000
0001
0000
0100
0000
1000
0000
0010
0000
0001
0010
0000
0000
1000
0000
,  // measure 44
0100
0000
0100
1000
0001
0001
0001
0001
,  // measure 45
1000
0000
0000
1000
0001
0000
0001
0000
1000
0000
0100
0000
1000
0000
0100
0000
,  // measure 46
0010
0001
0000
1000
0000
0001
0010
0001
,  // measure 47
0100
0000
0101
0000
1100
0000
0001
1000
,  // measure 48
0100
1000
0001
0100
0010
1000
0010
0000
,  // measure 49
1001
0000
0000
0000
;

//---------------dance-single - ----------------
#NOTES:
     dance-single:
     :
     Medium:
     5:
     0.341202,0.293711,0.082995,0.239764,0.009222,224.000000,9.000000,26.000000,0.000000,0.000000,0.000000,0.341202,0.293711,0.082995,0.239764,0.009222,224.000000,9.000000,26.000000,0.000000,0.000000,0.000000:
0000
0000
0000
0000
,
0000
0000
0000
0000
,
0000
0000
0000
0000
,
0000
0000
0000
0000
,
0000
0000
0000
0000
,
2001
0000
3100
0000
0001
1000
0100
0000
,
1002
0000
0103
0000
1000
0010
0100
0000
,
2000
3100
0002
0103
,
2000
0000
3010
0000
0100
0001
0100
0000
,
0001
0000
0001
0000
0001
0000
0001
1000
,
0010
0000
0010
0000
0010
0000
0010
1000
,
0100
0000
0100
0000
0100
0000
0100
1000
,
0002
0000
2003
0000
3000
0010
0010
0000
,
1000
0000
1000
0000
1000
0000
1000
0001
,
0100
0000
0100
0000
0100
0000
0100
0001
,
0010
0000
0010
0000
0010
0000
0010
0100
,
2000
0000
3002
0000
0003
0010
0010
0000
,
0100
0000
0100
1000
0100
1000
0001
0010
,
0002
0000
0003
0000
1000
0010
1000
0010
,
0100
0001
0000
0001
0100
0000
1100
0000
,
0001
0000
0101
0000
1000
0000
0001
0100
,
0010
0000
0010
1000
0010
1000
0001
0100
,
0002
0000
0003
0000
0100
0001
1000
0100
,
2000
0000
3002
0000
0103
0100
0000
0100
,
0020
0000
0230
0000
0301
0010
0100
0000
,
1000
0000
0001
0000
1000
0010
0010
0000
,
0001
0000
1000
0000
0001
0010
0010
0000
,
1000
0000
0100
0000
1000
0010
0010
0000
,
0001
0000
1000
0000
0001
0010
0010
0000
,
0001
1000
0001
2000
0000
3002
0000
0000
,
0013
0000
0100
0000
0010
0000
0100
0000
0000
0100
0000
0000
0100
0000
0000
0000
,
1000
0010
0100
0002
0000
0203
0000
0000
,
0301
0000
0010
0000
0100
0000
1000
0000
0000
0000
0001
0000
0000
1000
0000
0000
,
0001
0000
0100
0010
1000
0010
0100
0000
,
0010
0000
1000
0001
1000
0000
0001
0020
,
0000
0000
0130
2000
0000
0000
3001
0001
,
1000
0000
1000
0100
1000
0000
1000
0000
,
0010
0000
1000
0001
1000
0000
1000
0001
,
0100
0000
1010
0000
0101
0000
0000
0001
,
0010
0000
0010
0000
0010
0000
0010
0001
,
1000
0100
1000
0000
0001
0010
0001
0000
,
0102
1000
0103
0000
,
2100
0001
3010
0000
,
0002
0103
2000
3100
,
0002
0000
0013
0000
1000
0010
0100
0010
,
1000
0000
1000
0100
0001
0000
0001
0100
,
1000
0010
0100
0000
0001
0100
0000
0100
,
0010
0000
0010
0000
0010
0100
0010
0100
,
0010
0010
0010
0100
,
1001
0000
0000
0000
;

//---------------dance-single - ----------------
#NOTES:
     dance-single:
     :
     Easy:
     3:
     0.213416,0.180745,0.009222,0.092217,0.000000,151.000000,1.000000,10.000000,0.000000,0.000000,0.000000,0.213416,0.180745,0.009222,0.092217,0.000000,151.000000,1.000000,10.000000,0.000000,0.000000,0.000000:
0000
0000
0000
0000
,
0000
0000
0000
0000
,
0000
0000
0000
0000
,
0000
0000
0000
0000
,
0000
0000
0000
0000
,
1000
0100
0000
1000
,
0001
0100
0000
0100
,
0001
0010
1000
0010
,
1000
0100
0001
0001
,
0001
0000
0001
1000
,
0100
0000
1000
0001
,
0010
0000
0001
1000
,
0010
0000
0100
0000
0000
0001
0001
0000
,
1000
0000
1000
0001
,
0100
0000
0100
0010
,
1000
0000
0100
1000
,
0001
0000
0010
0000
0000
1000
1000
0000
,
0001
1000
0100
1000
,
0020
0030
0001
1000
,
0200
0300
0010
0100
,
1000
0010
0000
0100
,
0001
0001
1000
0100
,
0020
0030
0100
1000
,
0001
0000
0100
0000
0001
0001
0000
0000
,
0100
0010
0100
0010
,
0200
0000
0000
0000
0300
0010
0010
0000
,
2000
0000
0000
0000
3000
0010
0010
0000
,
0002
0000
0000
0000
0003
0010
0010
0000
,
0200
0000
0000
0000
0300
0010
0010
0000
,
0001
1000
0100
0000
,
0100
0010
0001
0000
,
0001
1000
0010
0000
,
0010
0100
0001
0001
,
0010
0000
0010
0100
,
1000
0000
1000
0001
,
0100
0100
0001
0100
,
0010
0100
0010
1000
,
0001
1000
0001
0010
,
0100
0000
1000
0000
1000
0000
0000
0001
,
1000
1000
0100
1000
,
0001
0100
0001
0010
,
0001
0001
0000
0100
,
1000
1000
0000
0100
,
0010
0010
0001
0001
,
0100
0100
0020
0030
,
1000
0001
1000
0100
,
0010
0000
0100
1000
,
0001
0001
0001
0100
,
0010
2000
0002
3003
,
1001
0000
0000
0000
;

//---------------dance-single - ----------------
#NOTES:
     dance-single:
     :
     Beginner:
     2:
     0.115930,0.112966,0.082995,0.000000,0.000000,79.000000,9.000000,0.000000,0.000000,0.000000,0.000000,0.115930,0.112966,0.082995,0.000000,0.000000,79.000000,9.000000,0.000000,0.000000,0.000000,0.000000:
0000
0000
0000
0000
,
0000
0000
0000
0000
,
0000
0000
0000
0000
,
0000
0000
0000
0000
,
0000
0000
0000
0000
,
1000
0000
0000
1000
,
0001
0000
0000
0001
,
1000
0000
0000
1000
,
0001
0000
0001
0000
,
1000
0000
0000
0000
,
0010
0000
0000
0000
,
0100
0000
0000
0000
,
0001
0000
0000
0000
,
0001
0000
0000
0000
,
0010
0000
0000
0000
,
0100
0000
0000
0000
,
1000
0000
0000
0000
,
0001
0000
0001
0001
,
1000
0000
1000
0000
,
0010
0000
0010
0000
,
0100
0000
0000
0000
,
1000
0000
1000
1000
,
0001
0000
0001
0000
,
0100
0100
0100
0000
,
0010
0010
0010
0000
,
1001
0000
0000
0000
,
0110
0000
0000
0000
,
1001
0000
0000
0000
,
0110
0000
0000
0000
,
0001
0000
0100
0000
,
0001
0000
0100
0000
,
1000
0000
0100
0000
,
1000
0000
1000
0000
,
0010
0000
0000
0010
,
0010
0000
0000
0010
,
0010
0000
1000
0000
,
0001
0000
0100
0000
,
0001
0000
0001
0001
,
1000
0000
1000
0000
,
0100
0100
0100
0000
,
0010
0000
0000
0000
,
1001
0000
0000
0000
,
0110
0000
0000
0000
,
1001
0000
0000
0000
,
0110
0000
0000
0000
,
1000
0000
1000
1000
,
0001
0000
0001
0000
,
0010
0010
0010
0000
,
0100
0000
0100
0000
,
1001
0000
0000
0000
;
