#VERSION:0.83;
#TITLE:Tearin' Up My Heart;
#SUBTITLE:;
#ARTIST:*NSYNC;
#TITLETRANSLIT:;
#SUBTITLETRANSLIT:;
#ARTISTTRANSLIT:;
#GENRE:;
#ORIGIN:;
#CREDIT:;
#BANNER:tearinupmyheart_bn.png;
#BACKGROUND:tearinupmyheart_bg.png;
#PREVIEWVID:;
#JACKET:tearinupmyheart_jacket.png;
#CDIMAGE:;
#DISCIMAGE:;
#LYRICSPATH:;
#CDTITLE:cdtitle.png;
#MUSIC:tearinupmyheart.ogg;
#OFFSET:0.000000;
#SAMPLESTART:61.880959;
#SAMPLELENGTH:18.264427;
#SELECTABLE:YES;
#BPMS:0.000=110.050;
#STOPS:;
#DELAYS:;
#WARPS:;
#TIMESIGNATURES:0.000=4=4;
#TICKCOUNTS:0.000=4;
#COMBOS:0.000=1;
#SPEEDS:0.000=1.000=0.000=0;
#SCROLLS:0.000=1.000;
#FAKES:;
#LABELS:0.000=Song Start;
#BGCHANGES:;
#KEYSOUNDS:;
#ATTACKS:
;

//---------------dance-single - ----------------
#NOTEDATA:;
#CHARTNAME:;
#STEPSTYPE:dance-single;
#DESCRIPTION:;
#CHARTSTYLE:;
#DIFFICULTY:Hard;
#METER:7;
#RADARVALUES:0.303056,0.364251,0.027285,0.047748,0.054570,311.000000,307.000000,4.000000,7.000000,0.000000,0.000000,0.000000,0.000000,0.000000,0.303056,0.364251,0.027285,0.047748,0.054570,311.000000,307.000000,4.000000,7.000000,0.000000,0.000000,0.000000,0.000000,0.000000;
#CREDIT:;
#NOTES:
// measure 0
0000
0000
0000
0000
,  // measure 1
0000
0000
0000
0000
,  // measure 2
0000
0000
0000
0000
,  // measure 3
0000
0000
0000
0000
,  // measure 4
0000
0000
0000
0000
,  // measure 5
1000
0000
0001
0100
0000
0010
0000
0100
,  // measure 6
0001
1000
0000
0100
0000
0010
0000
0001
,  // measure 7
1000
0000
0000
0001
0000
0000
0000
0000
0000
0000
0000
0000
0001
0000
0100
0000
,  // measure 8
1000
0000
0000
0100
0000
0000
0010
0000
0000
0000
0000
0000
0000
0000
0000
0000
,  // measure 9
0010
0000
0000
0010
0000
0000
0100
0000
0010
0000
1000
0000
0000
0000
0000
0000
,  // measure 10
1000
0000
0000
1000
0000
0001
1000
0000
0010
0000
0100
0000
0010
0000
0000
0000
,  // measure 11
0100
0000
0000
0100
0000
0000
0001
0000
1000
0000
0100
0000
0000
0000
0000
0000
,  // measure 12
0100
0000
0000
0100
0000
0010
0100
0000
1000
0000
0001
0000
1000
0000
0001
0000
,  // measure 13
0100
0000
0100
0010
0000
0001
0000
0010
,  // measure 14
0100
0000
0000
0100
0000
0000
0001
0000
1000
0000
0000
0000
1000
0000
0001
0000
,  // measure 15
0010
0000
0010
0100
0000
1000
0000
0010
,  // measure 16
0000
0100
0000
0000
0100
0001
1000
0000
,  // measure 17
0001
0000
0001
0010
0000
1000
0000
0010
,  // measure 18
0100
0000
0000
0100
0000
0000
1000
0000
0010
0000
0100
0000
0010
0000
0000
0000
,  // measure 19
0010
0000
1000
0001
0000
0010
0000
0100
,  // measure 20
1000
0100
0000
0010
0001
0010
0100
0000
,  // measure 21
1001
0000
1000
0001
0000
0001
0100
1000
,  // measure 22
0100
0000
0001
1000
0100
1000
0100
0010
,  // measure 23
0000
0001
0000
1000
0000
0010
0001
0010
,  // measure 24
1000
0000
0001
0000
0010
0100
0010
0000
,  // measure 25
0100
0000
0100
0000
0100
1000
0001
0100
,  // measure 26
0010
0000
0010
1000
0001
0001
1000
0100
,  // measure 27
0010
0000
0001
1000
0000
0010
0000
1000
,  // measure 28
0100
0000
0000
0100
0010
0000
0001
0000
1000
0000
0100
0000
0010
0000
0001
0000
,  // measure 29
1000
0000
1000
0001
0000
0010
0000
0100
,  // measure 30
1000
0000
1000
0001
0100
0010
1000
0001
,  // measure 31
0100
0000
0001
0100
0000
0010
0000
0100
,  // measure 32
0001
0000
0001
1000
0100
0000
1000
0000
,  // measure 33
0001
0000
0001
0100
0000
1000
0000
0010
,  // measure 34
0000
0001
0000
0100
0000
0010
0000
0100
,  // measure 35
0010
0000
0010
0100
0100
0001
1000
0100
,  // measure 36
0010
0000
0000
0100
0000
0000
1000
0000
0000
0000
0000
0000
0000
0000
0000
0000
,  // measure 37
2200
0000
0300
0000
,  // measure 38
0002
0000
3000
0000
,  // measure 39
0200
0000
0003
0000
,  // measure 40
0020
0000
0300
0000
,  // measure 41
1030
0000
0001
0100
0010
0100
0000
0001
,  // measure 42
0000
0100
0000
1000
0000
0010
0000
0001
,  // measure 43
1000
0001
0000
0100
0000
0000
0100
0010
,  // measure 44
0100
0000
0000
0010
0000
0000
1000
0000
0000
0000
0000
0000
0000
0000
0000
0000
,  // measure 45
1000
0100
1000
0010
1000
0100
1000
0010
,  // measure 46
0100
0010
0100
0001
0000
1000
0000
1000
,  // measure 47
0001
0100
0001
0010
0001
0100
0001
0010
,  // measure 48
0100
0010
0100
1000
0001
0000
0001
1000
,  // measure 49
0010
0000
0100
0010
1000
0001
0000
0100
,  // measure 50
0000
1000
0000
0010
0000
0001
0000
1000
,  // measure 51
0001
1000
0000
0010
0000
0000
0100
0010
,  // measure 52
0100
0000
0000
0001
0000
0000
0010
0000
0001
0000
0010
0000
0100
0000
1000
0000
,  // measure 53
0001
0000
0001
1000
0000
0100
0000
0010
,  // measure 54
0001
0000
0001
1000
0010
0100
0001
1000
,  // measure 55
0010
0000
1000
0010
0000
0100
0000
0010
,  // measure 56
1000
0000
1000
0001
0010
0000
0001
0000
,  // measure 57
1000
0000
1000
0010
0000
0001
0000
0100
,  // measure 58
0000
1000
0000
0010
0000
0100
0000
0010
,  // measure 59
0100
0000
0100
0010
0010
1000
0001
0010
,  // measure 60
0100
0000
0000
0010
0000
0000
0001
0000
0000
0000
0000
0000
0000
0000
0000
0000
,  // measure 61
1001
0000
1000
0100
1000
0010
0000
0100
,  // measure 62
0000
1000
0000
0010
0000
0001
0000
1000
,  // measure 63
0001
1000
0000
0010
0000
0000
0100
0001
,  // measure 64
0010
0000
0000
1000
0000
0000
0100
0000
0000
0000
0000
0000
0000
0000
0000
0000
,  // measure 65
0220
0000
0000
0000
,  // measure 66
0000
0000
0000
0330
;
