#TITLE:Scatmambo;
#SUBTITLE:;
#ARTIST:Scatman John;
#TITLETRANSLIT:;
#SUBTITLETRANSLIT:;
#ARTISTTRANSLIT:;
#GENRE:;
#CREDIT:;
#BANNER:[20th Century Boys] - Scatmambo.png;
#BACKGROUND:[20th Century Boys] - Scatmambo-bg.png;
#LYRICSPATH:;
#CDTITLE:;
#MUSIC:[20th Century Boys] - Scatmambo.ogg;
#OFFSET:-0.047;
#SAMPLESTART:44.444;
#SAMPLELENGTH:12.000;
#SELECTABLE:YES;
#BPMS:0.000=135.000;
#STOPS:;
#BGCHANGES:;
#KEYSOUNDS:;

//---------------dance-single - warpdr!ve----------------
#NOTES:
     dance-single:
     warpdr!ve:
     Easy:
     3:
     0.176,0.224,0.064,0.036,0.000:
0000
0000
0000
0000
,
0000
0000
0000
0000
,
1000
0100
0010
0000
,
0001
0000
0000
0000
,
1000
0010
0100
0000
,
0020
0000
0030
0000
,
1000
0001
1000
0000
,
0001
0000
0000
0000
,
0010
0100
1000
0000
,
0002
0000
0003
0000
,
1000
0000
0100
0000
,
1000
0000
0001
0000
,
0100
0000
0010
0000
,
0100
0000
0001
0000
,
1000
0000
1000
0000
,
0001
0000
0001
0000
,
1000
0000
0100
0000
,
0010
0000
0001
0000
,
1001
0000
0000
0000
,
1001
0000
0000
0000
,
1000
0010
1000
0000
,
0000
0001
0001
0000
,
1000
0010
1000
0000
,
0000
0001
0001
0000
,
1000
0100
1000
0000
,
0000
0001
0001
0000
,
1000
0000
0000
1000
0000
0000
0000
0000
,
0001
0000
0000
0000
,
1001
0000
0000
0000
,
0110
0000
0000
0000
,
1001
0000
0000
0000
,
0110
0000
0000
0000
,
1000
0000
0001
0000
,
1000
0000
0001
0000
,
0010
0000
0100
0000
,
0010
0000
0100
0000
,
1000
0100
1000
0000
,
0001
0000
0000
0000
,
1000
0100
1000
0000
,
0001
0000
0000
0000
,
1000
0010
1000
0000
,
0001
0000
0000
0000
,
1000
0010
1000
0000
,
0001
0000
0000
0000
,
1000
1000
0001
0010
,
0001
0100
1000
0100
,
0001
1000
0001
0000
,
0000
0010
0010
0000
,
0001
1000
0001
0000
,
0000
0010
0010
0000
,
0001
1000
0001
0000
,
0000
0100
0100
0000
,
0001
0000
0000
0001
0000
0000
0000
0000
,
1000
0000
0000
0000
,
0001
0010
0001
0000
,
0000
1000
1000
0000
,
0001
0010
0001
0000
,
0000
1000
1000
0000
,
0001
0100
0001
0000
,
0000
1000
1000
0000
,
0001
0000
0000
0001
0000
0000
0000
0000
,
2002
0000
3003
0000
;

//---------------dance-single - warpdr!ve----------------
#NOTES:
     dance-single:
     warpdr!ve:
     Hard:
     9:
     0.717,0.703,0.146,0.328,0.883:
0000
0000
0000
0000
,
0000
0000
0000
0000
0000
0000
0000
0000
0000
0000
0000
0000
0000
0000
0000
0000
0000
0000
0000
0000
1000
0000
0010
0000
1000
0000
0000
0000
0000
0000
0001
0000
0000
0100
0000
0000
0000
0000
0000
0100
0000
0000
0001
0000
0000
0000
0000
0000
,
1000
0100
0010
0100
0000
0001
0000
0100
0000
1000
0000
0002
0000
0000
0000
0000
,
2003
0000
0000
3010
0000
0000
0100
0000
0000
0000
0100
0000
0000
0000
0100
0001
,
1000
0001
0000
0010
1000
0000
1000
0010
0000
0001
0000
1000
0010
0000
0100
0000
,
0002
0000
0000
1000
0000
0000
1000
0000
0000
0000
0013
0000
0000
0000
0010
0000
,
0001
1000
0010
0100
0000
1000
0000
0100
0000
0001
0000
2000
0000
0000
0000
0000
,
3002
0000
0000
0013
0000
0000
0100
0000
0000
0000
0100
0000
0000
0000
0100
0010
,
0001
1000
0000
0010
0001
0000
0001
0010
0000
1000
0000
0001
0010
0000
0100
0000
,
2000
0000
0000
0001
0000
0000
0001
0000
0000
0000
3010
0000
0000
0000
0010
0000
,
1000
0001
1000
0000
1000
0001
1000
0000
0001
0010
0100
0000
0020
0000
0032
0000
,
1003
0010
1000
0100
1000
0000
1000
0000
0001
0010
0001
0100
0001
0000
1000
0000
,
0000
0000
0000
0000
0000
0000
0001
0000
0000
1000
0000
0000
0010
0000
0000
1000
0000
0000
0001
0000
0000
0100
0000
0000
0010
0000
0000
0100
0000
0000
0001
0000
0000
0000
0000
0000
1000
0000
0000
0000
0100
0000
0000
0000
1000
0000
0000
0000
,
0001
0000
0000
0100
0000
0000
0010
0000
0000
0000
0001
0000
0010
0000
1000
0000
,
0001
0010
0000
0010
0100
0000
1000
0000
0001
0100
0000
0100
0010
0000
1000
0000
,
0002
0000
1003
0001
0100
1000
0100
0001
,
0000
0000
1000
0100
0010
0100
1000
0001
1000
0100
0010
0000
0001
0000
0000
0000
,
1000
0010
0100
0000
0010
0000
1000
0000
0001
0010
0100
0000
0010
0000
0001
1000
,
0010
0000
0100
0001
0100
0010
0000
1000
0000
1000
0000
1000
0000
0000
0000
0001
,
1000
0000
0000
0000
0000
0000
0001
0000
0000
0010
0000
0000
0100
0000
0000
0010
0000
0000
0000
0000
0001
0000
0010
0000
0001
0000
0000
0000
0000
0000
1000
0000
0000
0010
0000
0000
0000
0000
0000
0010
0000
0000
1000
0000
0000
0000
0000
0000
,
0001
0100
0001
0000
0001
0100
0001
0000
0001
0100
0001
0200
0000
0000
1300
0000
,
0000
0100
0010
0010
1000
0100
0000
0000
,
1000
0100
1000
0000
1000
0100
1000
0000
1000
0100
1000
0200
0000
0000
0301
0000
,
0000
0100
0010
0010
0001
0100
0000
0000
,
0001
0100
0001
0000
0001
0100
0001
0000
0001
0100
0001
0200
0000
0000
1300
0000
,
0000
0100
0010
0010
1000
0100
0000
0000
,
1000
0000
0001
0000
0000
1000
0000
0001
0000
0000
0000
0000
0000
0000
0000
0000
,
0200
0000
0000
0302
0000
0000
2003
0000
3001
0000
1000
0000
0100
0000
0000
0000
,
1100
0000
1000
0100
0010
0001
0000
1000
0000
1000
0000
1000
0000
0000
1001
0000
,
1010
0000
0000
0000
0000
0000
0010
0000
0000
0100
0000
0000
0001
0000
0000
0100
0000
0000
0000
0000
0000
0000
0000
0000
0010
0000
0000
0000
1000
0000
0000
0000
0001
0000
0000
0000
1000
0000
0000
0000
0000
0000
0000
0000
0000
0000
0000
0000
,
1100
0000
0100
0010
0001
1000
0000
0001
0000
0001
0000
0001
0000
0000
0101
0000
,
1001
0000
0000
0000
0000
0000
0000
0000
0000
1000
0000
0000
0000
0000
0000
0000
0000
0000
0000
0000
0000
0000
0000
0000
0001
0000
0000
0000
1000
0000
0000
0000
0010
0000
0000
0000
1000
0000
0000
0000
0000
0000
0000
0000
0000
0000
0000
0000
,
1001
0000
0001
0010
0100
0000
0100
0000
1000
0000
0010
0100
0001
0000
0001
0000
,
1001
0000
0000
0000
0000
0000
1000
0000
0000
0100
0000
0000
0000
0000
0000
0020
0000
0000
0000
0000
0000
0030
0000
0000
0100
0000
0000
0000
1000
0000
0000
0000
0001
0000
0000
0000
1000
0000
0000
0000
0000
0000
0000
0000
0000
0000
0000
0000
,
1001
0000
0001
0100
0010
0100
0000
0001
0000
0001
0000
1000
0000
0000
1100
0000
,
1001
0000
0001
0000
0010
0000
0000
0000
0100
0010
0001
1000
0001
0000
0000
0000
,
1000
0010
0100
0010
0000
0001
0000
0010
0000
1000
0000
0002
0000
0000
0000
0000
,
1003
0000
0000
0100
0000
0000
0000
0000
0020
0000
0000
0032
0000
0000
1003
0010
,
1000
0001
0000
0100
1000
0000
1000
0100
0000
0001
0000
1000
0100
0000
1000
0000
,
0002
0000
0000
1000
0000
0000
1000
0000
0000
0000
0103
0000
0000
0000
0100
0000
,
0001
1000
0001
0100
0000
1000
0000
0100
0000
0001
0000
2000
0000
0000
0000
0000
,
3002
0000
0000
0013
0000
0000
0000
0000
0002
0000
0000
2003
0000
0000
3010
1000
,
0001
1000
0000
0010
0001
0000
0001
0010
0000
1000
0000
0001
0010
0000
0100
0000
,
0020
0000
0000
0001
0000
0000
0001
0000
0000
0000
0130
0000
0000
0000
0100
0000
,
0110
0000
0000
0000
0011
0000
0000
0010
0001
1000
0001
0000
0100
0000
0010
0000
,
1000
0001
0100
0010
0100
1000
0100
0000
0001
0010
1000
0010
0001
1000
0000
0000
,
0001
0010
0001
0000
0001
0010
0001
0000
0001
0010
0001
0020
0000
0000
1030
0000
,
0000
0010
0100
0100
1000
0010
0000
0000
,
1000
0010
1000
0000
1000
0010
1000
0000
1000
0010
1000
0020
0000
0000
0031
0000
,
0000
0010
0100
0100
0001
0010
0000
0000
,
0001
0010
0001
0000
0001
0010
0001
0000
0001
0010
0001
0020
0000
0000
1030
0000
,
0000
0010
0100
0100
1000
0010
0000
0000
,
1000
0000
0001
0000
0000
1000
0000
0001
0000
0000
0000
0000
0000
0000
0000
0000
,
2000
0000
0000
0000
0000
0000
0000
0000
0000
3002
0000
0000
1003
0000
0100
0000
1000
0000
0200
0000
0000
0000
0000
0000
0310
0000
0000
0000
0000
0000
0001
0000
0000
1000
0000
0000
0010
0000
0000
1000
0000
0000
0001
0000
0000
0000
0000
0000
,
1000
0100
1000
0000
1000
0100
1000
0000
1000
0100
1000
0200
0000
0000
0301
0000
,
0100
1000
1000
0001
0100
0100
0010
1000
1000
0001
0000
0000
,
1000
0010
1000
0000
1000
0010
1000
0000
1000
0010
1000
0020
0000
0000
0031
0000
,
0000
0010
0100
0100
0001
0010
0000
0000
,
0001
0010
0001
0000
0001
0010
0001
0000
0001
0010
0001
0020
0000
0000
1030
0000
,
0000
0010
0100
0100
1000
0010
0000
0000
,
0100
0000
0001
0000
0000
0100
0000
0001
0000
0000
1000
0100
0010
0100
1000
0000
,
1001
0000
0000
0110
0000
0000
2002
0000
0000
0000
0000
0000
3003
0000
0000
0000
;

//---------------dance-single - warpdr!ve----------------
#NOTES:
     dance-single:
     warpdr!ve:
     Medium:
     5:
     0.312,0.364,0.191,0.118,0.000:
0000
0000
0000
0000
,
0000
0000
0000
0000
,
1000
0100
0010
0001
,
1001
0000
0000
0000
0000
0000
0000
1000
,
0010
0000
0100
0000
0010
0000
1000
1000
,
2002
0000
3003
0000
,
0001
0010
0100
1000
,
1100
0000
0000
0000
0000
0000
0000
0100
,
1000
0000
0001
0000
0100
0000
0010
0010
,
0220
0000
0330
0000
,
0100
0000
0100
0000
0100
0001
1000
0000
,
0001
0000
0001
0000
0001
0010
0100
0000
,
0000
0000
1000
0000
1000
0001
0100
0000
,
0220
0000
0000
0000
0330
0000
0010
1000
,
0010
0000
1000
0000
,
0002
0000
1003
0000
,
0000
0000
0001
0000
0001
0010
0100
0000
,
1000
0000
0001
0000
,
1000
0010
1000
0000
0001
0100
0001
0000
,
1000
0100
1000
0000
0001
0010
0001
0000
,
1000
0000
1000
0000
1000
0010
0100
0000
,
0000
0001
0010
0000
0001
0000
0000
0000
,
1000
0000
1000
0000
1000
0100
0010
0000
,
0000
0001
0010
0000
0001
0000
0000
0000
,
1000
0000
1000
0000
1000
0001
0100
0000
,
0000
0010
0100
0000
0010
0000
0000
0000
,
1010
0000
0000
0000
,
0101
0000
0000
0000
,
1001
0000
0000
0000
0000
0000
0000
1000
,
1100
0000
0000
0000
,
0011
0000
0000
0000
0000
0000
0000
0001
,
1001
0000
1000
0010
,
0100
0010
0100
0010
,
1000
0000
0001
0000
1000
0100
0010
0000
,
0001
1000
0001
1000
,
0010
0100
0010
0000
0100
0010
0100
0000
,
0001
0010
0100
1000
,
1001
0000
0000
0000
0000
0000
0000
0001
,
0010
0000
0100
0000
0010
0000
0001
0001
,
2002
0000
3003
0000
,
1000
0010
0100
0001
,
0101
0000
0000
0000
0000
0000
0000
0100
,
0001
0000
1000
0000
0100
0000
0010
0010
,
0220
0000
0330
0000
,
0110
0110
0100
1000
,
0001
0100
0001
0100
0001
0100
0001
0000
,
1000
0000
1000
0000
1000
0100
0010
0000
,
0000
0001
0010
0000
0001
0000
0000
0000
,
1000
0000
1000
0000
1000
0001
0100
0000
,
0000
0010
0100
0000
0010
0000
0000
0000
,
1000
0000
1000
0000
1000
0001
1000
0000
,
0000
0100
1000
0000
0100
0000
0000
0000
,
1100
0000
0000
0000
,
1001
0000
0000
0000
,
1000
0000
1000
0000
1000
0001
0100
0000
,
0000
0010
1000
0000
0010
0000
0000
0000
,
1000
0000
1000
0000
1000
0001
0010
0000
,
0000
0001
0010
0000
0100
0000
0000
0000
,
0010
0000
0010
0000
0010
0001
1000
0000
,
0000
0001
1000
0000
0001
0000
0000
0000
,
1001
0000
0000
0000
0000
1000
0001
1000
,
2002
0000
3003
0000
;
