#VERSION:0.83;
#TITLE:Psychedelic Circus;
#SUBTITLE:(Astrix Remix);
#ARTIST:Soundaholix;
#TITLETRANSLIT:;
#SUBTITLETRANSLIT:;
#ARTISTTRANSLIT:;
#GENRE:;
#ORIGIN:;
#CREDIT:;
#BANNER:Psychedelic Circus-bn.png;
#BACKGROUND:Psychedelic Circus-bg.png;
#PREVIEWVID:;
#JACKET:Psychedelic Circus-jacket.png;
#CDIMAGE:;
#DISCIMAGE:;
#LYRICSPATH:;
#CDTITLE:cd-title-Benpai.png;
#MUSIC:Psychedelic Circus.ogg;
#OFFSET:-0.017428;
#SAMPLESTART:109.731697;
#SAMPLELENGTH:13.714286;
#SELECTABLE:YES;
#DISPLAYBPM:140.000000;
#BPMS:0.000=140.000;
#STOPS:;
#DELAYS:;
#WARPS:;
#TIMESIGNATURES:0.000=4=4;
#TICKCOUNTS:0.000=4;
#COMBOS:0.000=1;
#SPEEDS:0.000=1.000=0.000=0;
#SCROLLS:0.000=1.000;
#FAKES:;
#LABELS:0.000=Song Start;
#BGCHANGES:;
#KEYSOUNDS:;
#ATTACKS:
;

//---------------dance-single - ----------------
#NOTEDATA:;
#CHARTNAME:;
#STEPSTYPE:dance-single;
#DESCRIPTION:;
#CHARTSTYLE:;
#DIFFICULTY:Challenge;
#METER:11;
#RADARVALUES:0.742674,0.926963,0.061798,0.115870,1.112356,673.000000,665.000000,8.000000,15.000000,72.000000,0.000000,1.000000,0.000000,0.000000,0.742674,0.926963,0.061798,0.115870,1.112356,673.000000,665.000000,8.000000,15.000000,72.000000,0.000000,1.000000,0.000000,0.000000;
#CREDIT:Benpai;
#DISPLAYBPM:140.000000;
#NOTES:
// measure 0
0000
0000
0000
0000
,  // measure 1
0000
0000
0000
0000
,  // measure 2
0000
0000
0000
0000
,  // measure 3
0000
0000
0000
0000
,  // measure 4
1000
0100
1000
0000
0001
1000
0000
0010
1000
0001
0100
0010
0100
0000
0001
0000
,  // measure 5
1000
0001
1000
0100
0010
0001
0000
0100
0010
1000
0010
1000
0001
0000
0010
0000
,  // measure 6
0100
1000
0100
1000
0001
0100
0000
0100
0010
1000
0001
0100
0001
0000
1000
0000
,  // measure 7
0100
0010
0100
1000
0001
0010
0000
0100
0010
0001
1000
0001
0100
0000
0010
0000
,  // measure 8
1000
0001
1000
0100
0010
0001
0000
0100
0001
0100
0010
1000
0001
0000
1000
0000
,  // measure 9
0100
1000
0100
0010
0001
1000
0000
1000
0001
0100
0010
0100
0001
0000
1000
0000
,  // measure 10
0200
0000
0000
0000
0310
0000
0001
1000
0001
0000
0100
0000
0010
0000
1000
0100
,  // measure 11
0020
0000
000M
M000
000M
M000
000M
M000
000M
M000
000M
M000
000M
M000
0000
0030
,  // measure 12
1001
0000
0001
0010
0100
0000
1000
0001
0100
0000
0001
1000
0001
0000
1000
0100
,  // measure 13
0010
0000
0100
1000
0001
0000
0100
0010
0100
0000
0001
1000
0100
0000
1000
0100
,  // measure 14
1000
0001
0000
0001
0000
1000
0010
0000
2000
0000
0000
3100
0000
0000
0100
0000
,  // measure 15
1000
0100
1000
0000
0001
0010
0001
0000
1000
0010
1000
0000
0001
0100
0001
1000
,  // measure 16
0010
0100
0000
0100
0000
0001
1000
0000
0200
0000
0000
0310
0000
0000
0010
0000
,  // measure 17
0001
1000
0001
0000
1000
0010
1000
0000
0010
0100
0010
0000
1000
0001
0010
0001
,  // measure 18
1000
0010
0000
0010
0000
0100
0001
0000
2000
0000
0000
3100
0000
0000
0100
0000
,  // measure 19
4000
0000
0000
0000
0000
0000
0000
3001
,  // measure 20
1001
0000
1000
0000
0100
1000
0000
0001
0100
0000
0010
0000
0100
0000
00M1
0000
,  // measure 21
1000
0000
0010
0000
1000
0001
0000
0010
0100
0000
1000
0000
0001
0000
0100
0000
,  // measure 22
0010
0000
1M00
0000
0010
0100
0000
0001
1000
0000
0100
0000
0010
0000
0M01
0000
,  // measure 23
1000
0000
0010
0000
0100
0010
0000
1000
0001
0000
1000
0000
0100
0000
0010
0000
,  // measure 24
0100
0000
10M0
0000
0001
0010
0000
0100
1000
0000
0100
0000
0010
0000
0M01
0000
,  // measure 25
1000
0000
0010
0000
1000
0010
0000
0100
0001
0000
0010
0000
0100
0000
0010
0000
,  // measure 26
0001
0000
10M0
0000
0001
0100
0000
0010
1000
0000
0100
0000
1000
0000
0M01
0000
,  // measure 27
1000
0000
0010
0000
0100
0010
0000
1000
0010
0000
1000
0000
0100
0000
0010
0000
,  // measure 28
0021
0000
0M00
0000
0000
0M00
0000
0000
0M00
0000
0000
0M00
0000
0000
0M00
0000
,  // measure 29
0030
0000
1002
0000
0000
00M0
0000
0000
00M0
0000
0000
00M0
0000
0000
00M0
0000
,  // measure 30
0003
0000
2010
0000
0M00
000M
0M00
000M
0M00
000M
0M00
000M
0M00
000M
0M00
000M
,  // measure 31
3000
000M
M120
000M
M000
000M
M000
000M
M000
000M
M000
000M
M000
000M
M000
0000
,  // measure 32
0130
0000
0001
1000
0000
0100
1000
0000
,  // measure 33
0001
0100
0000
0010
1000
0000
0001
0010
,  // measure 34
0000
0100
1000
0000
0001
1000
0000
0010
,  // measure 35
0100
0000
0010
1000
0000
0001
0010
0000
,  // measure 36
0011
0001
1000
0010
1000
0001
0010
0100
,  // measure 37
1000
0001
0010
0001
1000
0010
0100
0001
,  // measure 38
1000
0100
1000
0001
0100
0001
0100
0010
,  // measure 39
0100
0001
1000
0100
0010
0001
1000
0010
,  // measure 40
0100
0001
1000
0100
1000
0001
0010
0001
,  // measure 41
1000
0010
0100
0010
1000
0001
0010
0100
,  // measure 42
1000
0001
1000
0001
1000
0010
1000
0010
0100
0001
1000
0100
0010
0001
1000
0010
,  // measure 43
0100
0001
1000
0010
1000
0001
1000
0001
0010
0100
1000
0100
0010
0000
0001
0000
,  // measure 44
2001
0000
0000
3020
0030
0100
0200
0300
,  // measure 45
0001
0000
0010
0200
0000
0000
0000
0000
1300
0001
1000
0000
0010
0000
0100
0000
,  // measure 46
0002
0000
0000
1003
0200
0000
0310
0000
,  // measure 47
0001
0000
1M00
000M
0010
0000
0100
0000
0010
0000
1000
0000
0100
0000
0010
0000
,  // measure 48
0001
0000
0010
0100
0000
0100
1000
0000
0001
1000
0010
1000
0000
0000
1000
0000
,  // measure 49
0001
0000
10M0
000M
0100
0000
0010
0000
0100
0000
1000
0000
0001
0000
0100
0000
,  // measure 50
0010
0100
0001
1000
0100
0010
0001
1000
,  // measure 51
0010
0100
0000
0100
0001
0000
0001
1000
0001
0010
0000
0010
0100
1000
0001
1000
,  // measure 52
0MM1
1000
0000
0010
0100
0000
0010
1000
0000
1000
0000
0001
0010
0000
0001
1000
,  // measure 53
0001
0100
0000
0010
0100
0000
0001
1000
0000
1000
0000
0100
0010
0000
0001
0010
,  // measure 54
0000
0010
0000
0001
1000
0010
0100
0001
0000
0001
0000
1000
0001
0000
0010
0100
,  // measure 55
0000
0100
0000
1000
0001
0000
0100
0010
0000
0010
0000
M001
0010
0100
0001
1000
,  // measure 56
0100
1000
0000
1000
0000
0001
0100
0000
0000
0010
0000
0000
0100
0000
0001
1000
,  // measure 57
0000
1000
0000
0100
0010
0000
0001
1000
0000
1000
0000
0000
0010
0000
0100
0001
,  // measure 58
0000
0001
0000
1000
0100
0000
1000
0001
0000
0001
0000
0100
0010
0000
1000
0100
,  // measure 59
0000
0100
0000
0010
0001
0000
1000
0010
0000
0010
0000
1000
0100
0010
1000
0010
,  // measure 60
010M
1000
0000
0001
0100
0000
0010
0001
0000
0010
0100
0000
0010
1000
0000
0001
,  // measure 61
0010
0001
1000
0100
0000
0010
0100
0001
0000
0100
0010
0000
0100
1000
0000
0001
,  // measure 62
1000
0010
1000
0001
0000
1000
0010
0001
0000
0010
0100
0000
0010
1000
0000
0100
,  // measure 63
1000
0100
0010
0001
0000
1000
0100
0001
0000
0100
0010
0000
0100
1000
0000
0001
,  // measure 64
0100
0001
0100
0010
0000
0100
0010
0001
0000
0010
0100
0000
0010
1000
0000
0001
,  // measure 65
1000
0100
0010
0001
0000
0010
0100
0001
0000
0100
0010
0000
0100
1000
0000
0001
,  // measure 66
0100
0010
0100
0001
0000
1000
0100
0001
0000
0100
0010
0000
0100
1000
0000
0001
,  // measure 67
0010
0100
0010
0001
0000
1000
0010
0001
0000
0010
0100
0000
0010
1000
0000
0100
,  // measure 68
10MM
0100
0010
0001
0000
0010
0100
0001
0000
0100
0010
0000
0100
1000
00M0
1000
,  // measure 69
0010
0100
0010
0100
0000
0001
0010
1000
0000
0010
0100
0000
0010
0001
0M00
0001
,  // measure 70
1000
0010
0100
0001
0000
1000
0100
0001
0000
0100
0010
0000
0100
1000
00M0
1000
,  // measure 71
0010
0100
0001
1000
0000
0010
0100
1000
0000
0100
0010
0000
0100
0001
00M0
0001
,  // measure 72
1000
0100
1000
0100
0000
1000
0010
0001
0000
0010
0100
0000
0010
0100
000M
0100
,  // measure 73
0001
1000
0001
1000
0000
0010
0100
1000
0000
0100
0010
0000
0100
0010
M000
0010
,  // measure 74
1000
0100
0010
0001
0000
0010
0100
0001
0000
0100
0010
0000
0001
1000
0001
1000
,  // measure 75
0M1M
0000
0000
0000
;

//---------------dance-single - 16th streams----------------
#NOTEDATA:;
#CHARTNAME:;
#STEPSTYPE:dance-single;
#DESCRIPTION:16th streams;
#CHARTSTYLE:;
#DIFFICULTY:Edit;
#METER:11;
#RADARVALUES:0.841991,0.955931,0.054073,0.115870,1.421343,763.000000,756.000000,7.000000,15.000000,73.000000,0.000000,1.000000,0.000000,0.000000,0.841991,0.955931,0.054073,0.115870,1.421343,763.000000,756.000000,7.000000,15.000000,73.000000,0.000000,1.000000,0.000000,0.000000;
#CREDIT:16th streams;
#DISPLAYBPM:140.000000;
#NOTES:
0000
0000
0000
0000
,
0000
0000
0000
0000
,
0000
0000
0000
0000
,
0000
0000
0000
0000
,
1000
0100
1000
0000
0001
1000
0000
0010
1000
0001
0100
0010
0100
0000
0001
0000
,
1000
0001
1000
0100
0010
0001
0000
0100
0010
1000
0010
1000
0001
0000
0010
0000
,
0100
1000
0100
1000
0001
0100
0000
0100
0010
1000
0001
0100
0001
0000
1000
0000
,
0100
0010
0100
1000
0001
0010
0000
0100
0010
0001
1000
0001
0100
0000
0010
0000
,
1000
0001
1000
0100
0010
0001
0000
0100
0001
0100
0010
1000
0001
0000
1000
0000
,
0100
1000
0100
0010
0001
1000
0000
1000
0001
0100
0010
0100
0001
0000
1000
0000
,
0200
0000
0000
0000
0310
0000
0001
1000
0001
0000
0100
0000
0010
0000
1000
0100
,
0020
0000
000M
M000
000M
M000
000M
M000
000M
M000
000M
M000
000M
M000
0000
0030
,
1001
0000
0001
0010
0100
0000
1000
0001
0100
0000
0001
1000
0001
0000
1000
0100
,
0010
0000
0100
1000
0001
0000
0100
0010
0100
0000
0001
1000
0100
0000
1000
0100
,
1000
0001
0000
0001
0000
1000
0010
0000
2000
0000
0000
3100
0000
0000
0100
0000
,
1000
0100
1000
0000
0001
0010
0001
0000
1000
0010
1000
0000
0001
0100
0001
1000
,
0010
0100
0000
0100
0000
0001
1000
0000
0200
0000
0000
0310
0000
0000
0010
0000
,
0001
1000
0001
0000
1000
0010
1000
0000
0010
0100
0010
0000
1000
0001
0010
0001
,
1000
0010
0000
0010
0000
0100
0001
0000
2000
0000
0000
3100
0000
0000
0100
0000
,
4000
0000
0000
0000
0000
0000
0000
3001
,
1001
0000
1000
0000
0100
1000
0000
0001
0100
0000
0010
0000
0100
0000
00M1
0000
,
1000
0000
0010
0000
1000
0001
0000
0010
0100
0000
1000
0000
0001
0000
0100
0000
,
0010
0000
1M00
0000
0010
0100
0000
0001
1000
0000
0100
0000
0010
0000
0M01
0000
,
1000
0000
0010
0000
0100
0010
0000
1000
0001
0000
1000
0000
0100
0000
0010
0000
,
0100
0000
10M0
0000
0001
0010
0000
0100
1000
0000
0100
0000
0010
0000
0M01
0000
,
1000
0000
0010
0000
1000
0010
0000
0100
0001
0000
0010
0000
0100
0000
0010
0000
,
0001
0000
10M0
0000
0001
0100
0000
0010
1000
0000
0100
0000
1000
0000
0M01
0000
,
1000
0000
0010
0000
0100
0010
0000
1000
0010
0000
1000
0000
0100
0000
0010
0000
,
0021
0000
0M00
0000
0000
0M00
0000
0000
0M00
0000
0000
0M00
0000
0000
0M00
0000
,
0030
0000
1002
0000
0000
00M0
0000
0000
00M0
0000
0000
00M0
0000
0000
00M0
0000
,
0003
0000
2010
0000
0M00
000M
0M00
000M
0M00
000M
0M00
000M
0M00
000M
0M00
000M
,
3000
000M
M120
000M
M000
000M
M000
000M
M000
000M
M000
000M
M000
000M
M000
0000
,
0130
0001
1000
0001
1000
0100
0010
0001
1000
0010
0100
0001
1000
0100
1000
0001
,
0010
0100
0010
0001
1000
0010
1000
0001
0010
0100
1000
0001
1000
0010
0100
0001
,
1000
0100
1000
0001
1000
0010
0100
0001
0100
0010
1000
0001
0010
0100
0010
0001
,
1000
0010
1000
0001
0010
0100
1000
0001
0100
0010
1000
0100
1000
0001
1000
0001
,
1M00
0010
0100
0010
1000
0001
0010
0100
0010
0001
1000
0010
1000
0001
1000
0100
,
0010
0001
1000
0010
0100
0001
1000
0100
1000
0001
0100
0001
1000
0010
1000
0001
,
0010
0100
1000
0100
0010
0001
1000
0010
1000
0001
0100
0001
1000
0100
0010
0100
,
1000
0001
0010
0001
1000
0010
0100
0010
1000
0100
0010
0001
1000
0010
1000
0001
,
0100
0001
0010
0100
1000
0001
0010
0001
1000
0010
0100
0010
1000
0100
0010
0001
,
1000
0010
1000
0001
0100
0001
1000
0100
0010
0001
0010
0100
1000
0001
0100
0010
,
1000
0001
1000
0001
1000
0010
1000
0010
0100
0001
1000
0100
0010
0001
1000
0010
,
0100
0001
1000
0010
1000
0001
1000
0001
0010
0100
1000
0100
0010
0000
0001
0000
,
2001
0000
0000
3020
0030
0100
0200
0300
,
0001
0000
0010
0200
0000
0000
0000
0000
1300
0001
1000
0000
0010
0000
0100
0000
,
0002
0000
0000
1003
0200
0000
0310
0000
,
0001
0000
1M00
000M
0010
0000
0100
0000
0010
0000
1000
0000
0100
0000
0010
0000
,
0001
0000
0010
0100
0000
0100
1000
0000
0001
1000
0010
1000
0000
0000
1000
0000
,
0001
0000
10M0
000M
0100
0000
0010
0000
0100
0000
1000
0000
0001
0000
0100
0000
,
0010
0100
0001
1000
0100
0010
0001
1000
,
0010
0100
0000
0100
0001
0000
0001
1000
0001
0010
0000
0010
0100
1000
0001
1000
,
0MM1
1000
0000
0010
0100
0000
0010
1000
0000
1000
0000
0001
0010
0000
0001
1000
,
0001
0100
0000
0010
0100
0000
0001
1000
0000
1000
0000
0100
0010
0000
0001
0010
,
0000
0010
0000
0001
1000
0010
0100
0001
0000
0001
0000
1000
0001
0000
0010
0100
,
0000
0100
0000
1000
0001
0000
0100
0010
0000
0010
0000
M001
0010
0100
0001
1000
,
0100
1000
0000
1000
0000
0001
0100
0000
0000
0010
0000
0000
0100
0000
0001
1000
,
0000
1000
0000
0100
0010
0000
0001
1000
0000
1000
0000
0000
0010
0000
0100
0001
,
0000
0001
0000
1000
0100
0000
1000
0001
0000
0001
0000
0100
0010
0000
1000
0100
,
0000
0100
0000
0010
0001
0000
1000
0010
0000
0010
0000
1000
0100
0010
1000
0010
,
010M
1000
0000
0001
0100
0000
0010
0001
0000
0010
0100
0000
0010
1000
0000
0001
,
0010
0001
1000
0100
0000
0010
0100
0001
0000
0100
0010
0000
0100
1000
0000
0001
,
1000
0010
1000
0001
0000
1000
0010
0001
0000
0010
0100
0000
0010
1000
0000
0100
,
1000
0100
0010
0001
0000
1000
0100
0001
0000
0100
0010
0000
0100
1000
0000
0001
,
0100
0001
0100
0010
0000
0100
0010
0001
0000
0010
0100
0000
0010
1000
0000
0001
,
1000
0100
0010
0001
0000
0010
0100
0001
0000
0100
0010
0000
0100
1000
0000
0001
,
0100
0010
0100
0001
0000
1000
0100
0001
0000
0100
0010
0000
0100
1000
0000
0001
,
0010
0100
0010
0001
0000
1000
0010
0001
0000
0010
0100
0000
0010
1000
0000
0100
,
10MM
0100
0010
0001
0000
0010
0100
0001
0000
0100
0010
0000
0100
1000
00M0
1000
,
0010
0100
0010
0100
0000
0001
0010
1000
0000
0010
0100
0000
0010
0001
0M00
0001
,
1000
0010
0100
0001
0000
1000
0100
0001
0000
0100
0010
0000
0100
1000
00M0
1000
,
0010
0100
0001
1000
0000
0010
0100
1000
0000
0100
0010
0000
0100
0001
00M0
0001
,
1000
0100
1000
0100
0000
1000
0010
0001
0000
0010
0100
0000
0010
0100
000M
0100
,
0001
1000
0001
1000
0000
0010
0100
1000
0000
0100
0010
0000
0100
0010
M000
0010
,
1000
0100
0010
0001
0000
0010
0100
0001
0000
0100
0010
0000
0001
1000
0001
1000
,
0M1M
0000
0000
0000
;

//---------------dance-single - ----------------
#NOTEDATA:;
#CHARTNAME:;
#STEPSTYPE:dance-single;
#DESCRIPTION:;
#CHARTSTYLE:;
#DIFFICULTY:Beginner;
#METER:2;
#RADARVALUES:0.084972,0.173806,0.030899,0.015449,0.000000,77.000000,73.000000,4.000000,2.000000,0.000000,0.000000,0.000000,0.000000,0.000000,0.084972,0.173806,0.030899,0.015449,0.000000,77.000000,73.000000,4.000000,2.000000,0.000000,0.000000,0.000000,0.000000,0.000000;
#CREDIT:Benpai;
#DISPLAYBPM:140.000000;
#NOTES:
0000
0000
0000
0000
,
0000
0000
0000
0000
,
0000
0000
0000
0000
,
0000
0000
0000
0000
,
1000
0000
0000
0000
,
0001
0000
0000
0000
,
0100
0000
0000
0000
,
0001
0000
0000
0000
,
1000
0000
0000
0000
,
0100
0000
0000
0000
,
0010
0000
0000
0000
,
0002
0000
0000
0000
,
0103
0000
0000
0000
,
0010
0000
0000
0000
,
1000
0000
0000
0000
,
0001
0000
0000
0000
,
0010
0000
0000
0000
,
0100
0000
0000
0000
,
1000
0000
0000
0000
,
0010
0000
0000
0000
,
1001
0000
0000
0000
,
0001
0000
0000
0000
,
1000
0000
0000
0000
,
0010
0000
0000
0000
,
0100
0000
0000
0000
,
0001
0000
0000
0000
,
1000
0000
0000
0000
,
0100
0000
0000
0000
,
1000
0000
0000
0000
,
0000
0000
0000
0000
,
0000
0000
0000
0000
,
0000
0000
0000
0000
,
0001
0000
0001
0000
,
0100
0000
0100
0000
,
0010
0000
0010
0000
,
1000
0000
1000
0000
,
1001
0000
0000
0000
,
0001
0000
0000
0000
,
0100
0000
0000
0000
,
0010
0000
0000
0000
,
0100
0000
0000
0000
,
0001
0000
0000
0000
,
1000
0000
0000
0000
,
0100
0000
0000
0000
,
0110
0000
0000
0000
,
0001
0000
0000
0000
,
1000
0000
0000
0000
,
0010
0000
0000
0000
,
1000
0000
0000
0000
,
0001
0000
0000
0000
,
0100
0000
0000
0000
,
0002
0000
0000
0000
,
1003
0000
0000
0000
,
0100
0000
0000
0000
,
1000
0000
0000
0000
,
0001
0000
0000
0000
,
0100
0000
0000
0000
,
0010
0000
0000
0000
,
0100
0000
0000
0000
,
0001
0000
0000
0000
,
1001
0000
0000
0000
,
1000
0000
0000
0000
,
0100
0000
0000
0000
,
0010
0000
0000
0000
,
0001
0000
0000
0000
,
0010
0000
0000
0000
,
0100
0000
0000
0000
,
1000
0000
0000
0000
,
0001
0000
0000
0000
,
0100
0000
0000
0000
,
0001
0000
0000
0000
,
1000
0000
0000
0000
,
0010
0000
0000
0000
,
0100
0000
0000
0000
,
0001
0000
0000
0000
,
1000
0000
0000
0000
;

//---------------dance-single - ----------------
#NOTEDATA:;
#CHARTNAME:;
#STEPSTYPE:dance-single;
#DESCRIPTION:;
#CHARTSTYLE:;
#DIFFICULTY:Easy;
#METER:4;
#RADARVALUES:0.180979,0.289676,0.046348,0.023174,0.000000,164.000000,158.000000,6.000000,3.000000,0.000000,0.000000,0.000000,0.000000,0.000000,0.180979,0.289676,0.046348,0.023174,0.000000,164.000000,158.000000,6.000000,3.000000,0.000000,0.000000,0.000000,0.000000,0.000000;
#CREDIT:Benpai;
#DISPLAYBPM:140.000000;
#NOTES:
0000
0000
0000
0000
,
0000
0000
0000
0000
,
0000
0000
0000
0000
,
0000
0000
0000
0000
,
0001
0000
0100
0000
,
0001
0000
1000
0000
,
0100
0000
0010
0000
,
0100
0000
1000
0000
,
0001
0000
0100
0000
,
0010
0000
0100
0000
,
0001
0000
1000
0000
,
0002
0000
0000
0000
,
0013
0000
0100
0000
,
1000
0000
0001
0000
,
0010
0000
0100
0000
,
1000
0000
0001
0000
,
0100
0000
0010
0000
,
1000
0000
0001
0000
,
0100
0000
0010
0000
,
2000
0000
0000
0000
0000
0000
0000
3000
,
1100
0000
0100
0000
,
0010
0000
0100
0000
,
1000
0000
0001
0000
,
0100
0000
0010
0000
,
0100
0000
0001
0000
,
1000
0000
0100
0000
,
1000
0000
0001
0000
,
0010
0000
0100
0000
,
1000
0000
0000
0000
,
0000
0000
0000
0000
,
0000
0000
0000
0000
,
0000
0000
0000
0000
,
0001
0001
1000
1000
,
0100
0100
0010
0010
,
0001
0001
1000
1000
,
0010
1000
0001
0010
,
0011
0001
1000
0010
,
0100
0001
1000
0100
,
1000
0010
0100
0001
,
1000
0100
0010
0001
,
1000
0010
1000
0001
,
1000
0100
0010
0100
,
1000
0001
1000
0001
,
0100
0010
0100
0010
,
0110
0000
1000
0001
,
0010
0000
0100
0000
,
2000
0000
3001
0000
,
0100
0000
0001
0000
,
0010
0000
0100
0000
,
0010
0000
0001
0000
,
1000
0000
0010
0000
,
0100
0000
0000
0000
,
0110
0000
0010
0000
,
1000
0000
1000
0000
,
0001
0000
0001
0000
,
0010
0000
0010
0000
,
0100
0000
0100
0000
,
1000
0000
1000
0000
,
0001
0000
0001
0000
,
0100
0000
0100
0000
,
1001
0000
1000
0000
,
0100
0000
0010
0000
,
0001
0000
0010
0000
,
0100
0000
1000
0000
,
0001
0000
0100
0000
,
0010
0000
0100
0000
,
0001
0000
1000
0000
,
0100
0000
0010
0000
,
0110
0000
1000
0000
,
0001
0000
0100
0000
,
0001
0000
1000
0000
,
0100
0000
1000
0000
,
0001
0000
0100
0000
,
0010
0000
0100
0000
,
0001
0000
1000
0000
,
0100
0000
0000
0000
;

//---------------dance-single - ----------------
#NOTEDATA:;
#CHARTNAME:;
#STEPSTYPE:dance-single;
#DESCRIPTION:;
#CHARTSTYLE:;
#DIFFICULTY:Medium;
#METER:7;
#RADARVALUES:0.317816,0.376579,0.038623,0.084972,0.115870,288.000000,283.000000,5.000000,11.000000,1.000000,0.000000,0.000000,0.000000,0.000000,0.317816,0.376579,0.038623,0.084972,0.115870,288.000000,283.000000,5.000000,11.000000,1.000000,0.000000,0.000000,0.000000,0.000000;
#CREDIT:Benpai;
#DISPLAYBPM:140.000000;
#NOTES:
0000
0000
0000
0000
,
0000
0000
0000
0000
,
0000
0000
0000
0000
,
0000
0000
0000
0000
,
0001
0000
0000
0001
0000
0000
0001
0000
,
0000
1000
0000
0000
1000
0000
0000
1000
,
0000
0000
0010
0000
0000
0010
0000
0000
,
0010
0000
0000
0100
0000
0000
0100
0000
,
0000
0100
0000
0000
0001
0000
0000
1000
,
0000
0000
0001
0000
0000
0010
0000
0000
,
0200
0000
0000
0000
,
1300
0000
0000
0000
,
0001
0000
0000
0100
0100
0000
0000
0000
,
0001
0000
1000
0000
0001
0000
1000
0100
,
0100
0000
0000
0010
0010
0000
0000
0000
,
0100
0000
1000
0000
0100
0000
1000
0001
,
0001
0000
0000
0100
0100
0000
0000
0000
,
0010
0000
1000
0000
0010
0000
1000
0001
,
0001
0000
0000
0010
0010
0000
0000
0000
,
0200
0000
0000
0000
0000
0000
0000
0300
,
1001
1000
0010
0100
,
0001
1000
0100
1000
,
0001
0010
0100
0010
,
0001
1000
0010
1000
,
0001
1000
0100
0010
,
0001
1000
0010
0100
,
0001
0100
0010
1000
,
0001
0010
0001
0001
,
2000
0000
0000
0000
,
0000
3020
0000
0000
0000
0000
0000
0000
,
0000
2030
0000
0000
0000
0000
0000
0000
,
0000
3002
0000
0000
0000
0000
0000
0000
,
1003
0000
0100
1000
0000
0001
1000
0000
,
0010
1000
0000
0010
0100
0000
0001
1000
,
0000
0100
1000
0000
0100
0010
0000
0001
,
0010
0000
0001
1000
0000
0010
1000
0000
,
1010
0000
0010
1000
0001
0000
0010
0000
,
0100
0000
0010
0001
1000
0000
0001
0000
,
0100
0000
0010
1000
0010
0000
0100
0000
,
0001
0000
1000
0001
1000
0000
0100
0000
,
0010
0000
0001
0010
0100
0000
1000
0000
,
0001
0000
0100
0010
0100
0000
0001
0000
,
1000
0000
0100
0010
0001
0000
1000
0000
,
0002
0203
0320
1030
,
1001
0000
0000
0001
0000
0100
0100
0000
,
0010
1000
0001
0010
,
0200
0000
1300
0000
,
0001
1000
0001
1000
,
0010
0100
0001
1000
,
0001
0010
0100
0010
,
0001
1000
0010
0100
,
0001
0000
0000
0000
,
1001
1000
0010
0100
,
0001
0010
0100
0010
,
0001
1000
0010
1000
,
0001
0100
0010
1000
,
0100
0010
0100
1000
,
0001
1000
0010
0100
,
0010
1000
0001
0010
,
0100
0010
0100
1000
,
1001
0000
0000
0000
0001
0000
0000
1000
0000
0000
0100
0000
0000
1000
0000
0000
,
0001
0000
0000
0000
0100
0000
0000
0010
0000
0000
1000
0000
0000
0010
0000
0000
,
0100
0000
0000
0000
0001
0000
0000
0010
0000
0000
0100
0000
0000
0010
0000
0000
,
0001
0000
0000
0000
1000
0000
0000
0010
0000
0000
1000
0000
0000
0001
0000
0000
,
0100
0000
0000
0000
0010
0000
0000
1000
0000
0000
0001
0000
0000
1000
0000
0000
,
0100
0000
0000
0000
0010
0000
0000
0001
0000
0000
1000
0000
0000
0001
0000
0000
,
1000
0000
0000
0000
0010
0000
0000
0100
0000
0000
0010
0000
0000
1000
0000
0000
,
0100
0000
0000
0000
1000
0000
0000
0001
0000
0000
0100
0000
0000
0010
0000
0000
,
100M
0000
0000
0000
0100
0000
0000
1000
0000
0000
0001
0000
0000
0100
0000
0000
,
0001
0000
1000
0000
0001
0000
0000
0010
0000
0000
0100
0000
0000
1000
0000
0000
,
0010
0000
0100
0000
0010
0000
0000
1000
0000
0000
0001
0000
0000
0010
0000
0000
,
0100
0000
1000
0000
0100
0000
0000
1000
0000
0000
0001
0000
0000
0100
0000
0000
,
0001
0000
1000
0000
0001
0000
0000
0010
0000
0000
0100
0000
0000
1000
0000
0000
,
0001
0000
0100
0000
0001
0000
0000
1000
0000
0000
0100
0000
0000
0010
0000
0000
,
0100
0000
1000
0000
0100
0000
0000
0010
0000
0000
0001
0000
0000
0002
0000
0000
,
1003
0000
0000
0000
;

//---------------dance-single - ----------------
#NOTEDATA:;
#CHARTNAME:;
#STEPSTYPE:dance-single;
#DESCRIPTION:;
#CHARTSTYLE:;
#DIFFICULTY:Hard;
#METER:9;
#RADARVALUES:0.549557,0.695222,0.038623,0.077247,0.336024,498.000000,493.000000,5.000000,10.000000,3.000000,0.000000,0.000000,0.000000,0.000000,0.549557,0.695222,0.038623,0.077247,0.336024,498.000000,493.000000,5.000000,10.000000,3.000000,0.000000,0.000000,0.000000,0.000000;
#CREDIT:Benpai;
#DISPLAYBPM:140.000000;
#NOTES:
0000
0000
0000
0000
,
0000
0000
0000
0000
,
0000
0000
0000
0000
,
0000
0000
0000
0000
,
0001
0000
0000
0000
1000
0001
0000
0000
1000
0000
0100
0000
1000
0000
0001
0000
,
0100
0010
0000
0000
0100
0001
0000
0000
1000
0000
0100
0000
0010
0000
0001
0000
,
1000
0001
0000
0000
0100
0010
0000
0000
0010
0000
0100
0000
0010
0000
1000
0000
,
0001
0010
0000
0000
0100
1000
0000
0000
0001
0000
0100
0000
0010
0000
1000
0000
,
0001
1000
0000
0000
0100
0010
0000
0000
0100
0000
1000
0000
0001
0000
0100
0000
,
0001
1000
0000
0000
0100
1000
0000
0000
0100
0000
0010
0000
0001
0000
1000
0000
,
0010
1000
0000
0000
0010
0100
0000
0000
0001
0000
1000
0000
0100
0000
0010
0000
,
0002
0000
0000
0000
0000
0000
0000
0000
0000
0000
0000
0000
0000
0000
0000
0003
,
0101
0000
0000
1000
2000
0000
3001
0000
,
0100
0000
0010
0000
1000
0000
0001
0010
,
0010
0000
0000
0010
0000
0000
0100
0000
0200
0000
0000
0000
1300
0000
0000
0000
,
0001
0000
0100
0000
0010
0000
1000
0001
,
0001
0000
0000
0001
0000
0000
1000
0000
2000
0000
0000
0000
3100
0000
0000
0000
,
0010
0000
0100
0000
1000
0000
0001
0100
,
0010
0000
0000
0010
0000
0000
0100
0000
0100
0000
0000
0000
0001
0000
0000
0000
,
2000
0000
0000
0000
,
3010
0000
0100
0000
0001
1000
0000
1000
0001
0000
0010
0000
0100
0000
1000
0000
,
0001
0000
0100
0000
0010
1000
0000
1000
0001
0000
1000
0000
0100
0000
0010
0000
,
0001
0000
0010
0000
0100
1000
0000
1000
0001
0000
1000
0000
0010
0000
0100
0000
,
0001
0000
1000
0000
0100
0010
0000
0010
0001
0000
1000
0000
0010
0000
1000
0000
,
0001
0000
0100
0000
0010
0100
0000
0100
0001
0000
1000
0000
0100
0000
0010
0000
,
0001
0000
1000
0000
0001
0100
0000
0100
0010
0000
0100
0000
0001
0000
1000
0000
,
0001
0000
0010
0000
0100
1000
0000
1000
0010
0000
1000
0000
0001
0000
0100
0000
,
0001
0000
0010
0000
0100
0010
0000
0010
0001
0000
1000
0000
0001
0000
1000
0000
,
0020
0000
0000
0000
,
0000
0230
0000
0000
0000
0000
0000
0000
,
0000
0302
0000
0000
0000
0000
0000
0000
,
0000
2003
0000
0000
0000
0000
0000
0000
,
3100
0000
0010
0001
0000
0001
1000
0000
,
1000
0010
0000
0010
0100
0000
0100
0001
,
0000
0001
0010
0000
0010
0100
0000
0100
,
1000
0000
1000
0001
0000
0001
1000
0000
,
1010
0010
0100
0001
1000
0100
1000
0001
,
1000
0010
1000
0001
1000
0100
0010
0001
,
1000
0001
0100
0001
1000
0100
0001
0100
,
0010
0001
0100
0010
0001
0010
1000
0100
,
1000
0100
0001
0100
0010
0001
1000
0010
,
0100
1000
0100
0001
1000
0100
0010
0001
,
1000
0010
1000
0010
0100
0001
0100
0001
,
1000
0100
1000
0100
1000
0001
1000
0001
0100
0001
0100
0001
1000
0000
0100
0000
,
0011
0000
0000
0011
0000
1000
1000
0000
,
0010
0100
0001
0000
1000
1000
0100
0010
,
0002
0000
0000
0013
0100
0000
1000
0000
,
0001
0100
0001
1000
,
0100
0000
0010
0000
0100
0000
0000
0000
1000
0001
1000
0001
0000
0000
0001
0000
,
0100
0010
0100
0001
1000
0100
0010
0001
,
1000
0010
0100
0001
1000
0100
1000
0001
,
0010
0000
0000
0100
0000
0000
1000
0000
0000
0001
0000
0000
0100
0000
0100
0000
,
1001
0001
0010
0100
0010
0001
1000
0010
,
0100
0010
1000
0001
0010
0100
1000
0001
,
0100
0001
1000
0100
0010
0100
1000
0010
,
0100
0010
1000
0001
0010
0100
1000
0001
,
0100
0010
1000
0001
0100
0001
1000
0100
,
1000
0100
0010
0001
1000
0010
1000
0001
,
0010
0001
1000
0100
0010
0001
1000
0010
,
1000
0001
0100
0010
1000
0001
0010
0100
,
10MM
0000
0100
0000
1000
0000
0010
0001
0000
0000
0010
0000
0000
0100
0000
0001
,
1000
0000
0100
0000
0010
0000
0100
0001
0000
0000
0100
0000
0000
1000
0000
0001
,
1000
0000
0010
0000
0100
0000
0010
0001
0000
0000
0010
0000
0000
0100
0000
0001
,
0100
0000
0010
0000
1000
0000
0100
0001
0000
0000
0100
0000
0000
0010
0000
0001
,
1000
0000
0001
0000
0010
0000
0100
0001
0000
0000
0100
0000
0000
0010
0000
0001
,
1000
0000
0010
0000
1000
0000
0010
0001
0000
0000
0010
0000
0000
0100
0000
0010
,
1000
0000
0100
0000
0010
0000
0100
0001
0000
0000
0100
0000
0000
0010
0000
0100
,
1000
0000
0001
0000
1000
0000
0010
0001
0000
0000
0010
0000
0000
0100
0000
0010
,
100M
0000
0001
0000
0010
0000
0100
0001
0000
0000
0100
0000
0000
1000
0000
0001
,
1000
0000
0001
0000
0100
0000
0010
0001
0000
0000
0010
0000
0000
0100
0000
0001
,
0100
0000
0010
0000
1000
0000
0100
0001
0000
0000
0100
0000
0000
1000
0000
0010
,
0100
0000
0010
0000
1000
0000
0010
0001
0000
0000
0010
0000
0000
0100
0000
0001
,
1000
0000
0100
0000
1000
0000
0100
0001
0000
0000
0100
0000
0000
0010
0000
0001
,
1000
0000
0001
0000
0100
0000
0010
0001
0000
0000
0010
0000
0000
1000
0000
0001
,
0010
0000
0100
0000
1000
0000
0001
0100
0000
0000
0010
0000
0000
0010
1000
0001
,
1000
0000
0000
0000
;
