#TITLE:NaHaNaHa vs. Gattchoon Battle;
#SUBTITLE:;
#ARTIST:DJ Senda & Tiny K;
#TITLETRANSLIT:;
#SUBTITLETRANSLIT:;
#ARTISTTRANSLIT:;
#GENRE:;
#CREDIT:;
#BANNER:;
#BACKGROUND:;
#LYRICSPATH:;
#CDTITLE:;
#MUSIC:07.NaHaNaHa vs. Gattchoon Battle.mp3;
#OFFSET:-1.075000;
#SAMPLESTART:39.700001;
#SAMPLELENGTH:15.500000;
#SELECTABLE:YES;
#BPMS:0.000000=124.000000
,112.000000=152.000000
,116.000000=163.000000
;
#STOPS:
;
#BGCHANGES:;
#KEYSOUNDS:;
#ATTACKS:;

//---------------dance-single - ----------------
#NOTES:
     dance-single:
     :
     Beginner:
     1:
     0.126535,0.197880,0.028269,0.037691,0.000000,94.000000,91.000000,3.000000,4.000000,0.000000,0.000000,0.126535,0.197880,0.028269,0.037691,0.000000,94.000000,91.000000,3.000000,4.000000,0.000000,0.000000:
0000
0000
0000
0000
,
0000
0000
0000
0000
,
1000
0000
0000
0000
,
1000
0000
0000
0000
,
1000
0000
0000
0000
,
1001
0000
0000
0000
,
0100
0000
0000
0000
,
0100
0000
0000
0000
,
0100
0000
0000
0000
,
0100
0000
0000
0000
,
0001
0000
0000
0000
,
0001
0000
0000
0000
,
0001
0000
0000
0000
,
0010
0000
0000
0000
,
0200
0000
0000
0300
,
0020
0000
0000
0030
,
2000
0000
0000
3000
,
0002
0000
0000
0003
,
1000
0000
1000
0000
,
0001
0000
0001
0000
,
0100
0000
0100
0000
,
1000
0000
1000
0000
,
0001
0000
0001
0000
,
0010
0000
0010
0000
,
1000
0000
0100
0000
,
1000
0000
0100
0000
,
0010
0000
0001
0000
,
0010
0000
0001
0000
,
1001
0000
0000
0000
,
0000
0000
0000
0000
,
0000
1000
0000
1000
,
0000
0100
0000
0100
,
0000
0001
0000
0001
,
0000
0010
0000
0010
,
0000
1000
1000
0100
,
0000
0100
0100
1000
,
0000
0001
0001
0010
,
0000
0010
0001
0010
,
0000
0001
0000
0000
,
0000
1000
0000
0000
,
0000
0100
0000
0010
,
0000
1000
0000
0001
,
0000
0100
0000
0001
,
0000
1000
0010
0100
,
0000
0000
0000
0000
,
0000
0000
0000
0000
,
0000
1000
0000
0100
,
0000
0010
0000
0001
,
0000
0100
0100
0001
,
0000
0001
0001
1000
,
0000
0010
0100
0010
,
0000
0100
0001
0100
,
0000
1000
0000
0001
,
0000
0100
0010
0110
,
0000
0000
0000
0000
,
0000
0000
0000
0000
,
0000
0000
0000
0000
,
0000
0000
0000
0000
,
0000
0000
0000
0000
,
1000
0000
0000
0000
,
0001
0000
0000
0000
;

//---------------dance-single - ----------------
#NOTES:
     dance-single:
     :
     Easy:
     4:
     0.247686,0.282980,0.056537,0.056537,0.028269,184.000000,178.000000,6.000000,6.000000,0.000000,0.000000,0.247686,0.282980,0.056537,0.056537,0.028269,184.000000,178.000000,6.000000,6.000000,0.000000,0.000000:
0000
0000
0000
0000
,
0000
0000
0000
0000
,
1000
0000
1000
1000
,
0100
0000
0100
0100
,
1000
0000
1000
1000
,
1001
0000
0000
0000
,
0100
0000
1000
0100
,
1000
0000
0100
1000
,
0100
0000
1000
0100
,
1000
0000
0001
0001
,
0010
0000
0001
0010
,
0001
0000
0010
0001
,
0010
0000
0001
0010
,
0001
0000
0001
0000
,
0001
0000
1000
0001
,
1000
0000
0010
0100
,
0010
0000
0001
0100
,
0001
0000
0110
0000
,
1000
1000
0001
0001
,
0100
0010
0100
0010
,
1000
0000
1000
0000
,
0100
0100
1000
0100
,
0001
0000
0010
0000
,
0001
0001
0010
0001
,
1000
1000
0100
0100
,
1000
0100
1000
0100
,
0001
0000
0010
0001
,
0010
0000
0001
0010
,
0010
0000
0000
0000
0000
0000
0000
0000
0000
0000
0010
0000
0000
0000
0000
0000
0000
0000
0000
0000
0100
0000
0000
0000
0000
0000
0000
0000
0000
0100
0000
0000
,
0000
0000
0000
0000
0000
0000
0010
0000
0000
0000
0000
0000
0000
0000
0000
0100
0000
0000
0000
0000
0000
0000
0000
0000
0010
0000
0000
0000
0000
0000
0000
0000
,
0100
1000
1000
0100
,
1000
0100
0100
1000
,
0100
0001
0001
0010
,
0010
0000
0001
0000
0010
0000
0001
0010
,
0000
0100
0100
1000
,
0100
1000
1000
0001
,
1000
0001
0001
0010
,
0001
0000
0010
0000
0001
0000
0010
0001
,
0000
0100
0100
0100
,
0100
0010
0010
0010
,
0010
1000
0001
0100
,
0010
0100
0001
1000
,
0010
1000
0100
0001
,
0010
1000
0001
1001
,
0000
0000
0000
0000
,
2002
0000
0000
0000
,
3003
1000
1000
0001
,
0001
0100
0010
0100
,
0010
1000
0100
0001
,
0010
1000
0001
0100
,
0010
0100
0001
1000
,
0010
1000
0100
0001
,
0010
1000
1000
0001
,
0001
0100
0010
0220
,
0000
0000
0000
0000
0330
0000
0000
2002
,
0000
0000
0000
3003
,
0000
0000
0000
0100
0000
0000
0010
0000
,
0000
0000
0000
0000
,
0000
0000
0000
0000
,
0000
1000
0000
0000
0000
0000
0000
0000
0000
0000
0000
0000
0000
0000
0000
0000
,
0000
0001
0000
0000
0000
0000
0000
0000
0000
0000
0000
0000
0000
0000
0000
0000
;

//---------------dance-single - ----------------
#NOTES:
     dance-single:
     :
     Medium:
     7:
     0.383645,0.481066,0.084806,0.056537,0.023557,285.000000,276.000000,9.000000,6.000000,0.000000,0.000000,0.383645,0.481066,0.084806,0.056537,0.023557,285.000000,276.000000,9.000000,6.000000,0.000000,0.000000:
0000
0000
0000
0000
,
0000
0000
0000
0000
,
1000
0000
1000
0000
1000
0010
0010
0000
,
1000
0000
1000
0000
1000
0001
0001
0000
,
1000
0000
1000
0000
1000
0100
0100
0000
,
1001
0000
0000
0000
,
1000
0000
0100
0000
1000
0100
0000
1000
,
0000
0100
1000
0000
0100
0000
1100
0000
,
0010
0000
0100
0000
0010
0100
0000
0010
,
0000
0100
0010
0000
0100
0000
0100
0000
,
0001
0000
0010
0001
0010
0000
0001
0000
,
0010
0000
0001
0010
0001
0000
0011
0000
,
0100
0000
0010
0100
0010
0000
0100
0000
,
0010
0100
0000
0010
,
0001
0000
0001
0000
0100
0100
0000
0010
,
0000
0010
1000
0000
0001
0000
1001
0000
,
1000
0000
1000
0000
0100
0100
0000
0010
,
0000
0010
0001
0000
0001
0000
1000
0000
,
0001
0001
1000
1000
,
0100
0000
0010
0000
0100
0010
0100
0010
,
1000
0000
0100
0000
1000
1000
0100
0000
,
1000
0000
0100
0000
1000
0100
1000
0000
,
0001
0001
0010
0000
0010
0010
0001
0000
,
0001
0010
0001
0010
0001
0000
1000
0000
,
0100
0000
1000
1000
0100
0000
1000
1000
,
0100
0100
1000
1000
0010
0010
0100
0000
,
0001
0001
0100
0001
0000
0100
0100
0010
,
0100
0100
0001
0010
0001
1000
0001
0000
,
0100
0000
0000
0000
0000
0000
0000
0000
0000
0000
0100
0000
0000
0000
0000
0000
0000
0000
0000
0000
0010
0000
0000
0000
0000
0000
0000
0000
0000
0010
0000
0000
,
0000
0000
0000
1000
0000
0000
0000
0000
1000
0000
0000
0000
0010
0000
1000
0000
,
0010
0000
1000
0100
0000
0100
0000
0100
,
0000
0100
1000
0001
0000
0001
0000
0001
,
1000
0000
0001
0000
0100
0001
0000
1000
,
0001
0000
0010
0001
0000
1000
0001
0100
,
0000
0000
0010
0100
0010
1000
0010
0100
,
0010
0000
0001
1000
0001
0100
0001
0010
,
0001
1000
0100
0000
0010
0100
0000
1000
,
0001
0000
1000
0100
0000
1000
0001
1000
,
0000
0000
0010
0000
0010
0100
0010
0000
,
0010
1000
0010
0100
0010
0000
0010
0000
,
0010
0000
1000
0000
1000
0001
1000
0000
,
0010
1000
0010
0100
0010
1000
0000
0000
,
0001
0100
0001
0000
0000
1000
0010
0000
,
0100
0010
1000
0100
0010
0001
1000
0000
,
0000
0000
0000
0000
,
2002
0000
0000
3003
,
0000
0000
0100
0010
0100
0000
1000
0001
,
1000
0000
0001
0100
0010
1000
0100
0010
,
0001
0000
1000
0100
1000
0100
0010
0001
,
0010
0001
1000
1000
0001
0001
0100
0010
,
0100
0010
0100
0001
0100
0001
1000
0010
,
1000
0010
1000
0001
1000
0001
1000
1000
,
0010
0000
0100
0001
0100
0010
1000
0100
,
0010
0110
0110
2002
,
0000
0000
0000
0000
3003
0000
0000
2002
,
0000
0000
0000
0000
0000
0000
0000
0000
0000
0000
0000
0000
0000
3003
0000
0000
,
0000
0000
0000
0100
0000
0000
0010
0000
,
0000
0000
0000
0000
,
0000
0000
0000
0000
,
0000
1000
0000
0000
0000
0000
0000
0000
0000
0000
0000
0000
0000
0000
0000
0000
,
0000
0001
0000
0000
0000
0000
0000
0000
0000
0000
0000
0000
0000
0000
0000
0000
;

//---------------dance-single - ----------------
#NOTES:
     dance-single:
     :
     Hard:
     9:
     0.550564,0.708186,0.131920,0.056537,0.287397,409.000000,395.000000,14.000000,6.000000,0.000000,0.000000,0.550564,0.708186,0.131920,0.056537,0.287397,409.000000,395.000000,14.000000,6.000000,0.000000,0.000000:
// measure 0
0000
0000
0000
0000
,  // measure 1
0000
0000
0000
0000
,  // measure 2
1000
0100
1000
0010
1000
0001
0001
1000
,  // measure 3
0010
0000
0100
0000
0010
0000
1000
0000
0010
0000
1000
0010
0000
1000
0010
1000
,  // measure 4
0010
1000
0100
1000
0001
1000
1000
1000
,  // measure 5
1001
0000
0000
0000
,  // measure 6
1000
0100
1000
0010
0100
0001
0000
0001
,  // measure 7
0010
0100
1000
0000
0001
1000
1001
0000
,  // measure 8
0100
0001
0100
0010
1000
0100
0000
0001
,  // measure 9
1000
0010
0100
0000
0001
1000
0100
0000
,  // measure 10
0010
0000
0001
0100
0010
1000
0100
1000
,  // measure 11
0001
0100
0001
0010
0100
0010
0001
0000
,  // measure 12
1000
0100
1000
0001
0100
0010
1000
0001
,  // measure 13
0010
0000
0100
0000
0010
0000
0000
0000
0010
0000
0000
0000
0010
1000
0000
0000
,  // measure 14
0000
0100
0000
0100
0000
0000
0100
0000
0010
0000
0000
0000
0110
0000
0100
0000
,  // measure 15
0010
1000
0001
1000
0010
0100
0110
0010
,  // measure 16
1000
0000
0100
0010
0100
0101
0000
1001
,  // measure 17
1000
0000
0010
0100
0110
0000
0100
0010
,  // measure 18
0100
0001
0100
0001
0100
0010
0100
0010
,  // measure 19
1000
0010
0100
0001
1000
1000
0001
0001
,  // measure 20
1000
0000
0000
0000
0100
0000
1000
0000
0100
1000
0000
0000
0100
0000
1000
0000
,  // measure 21
0010
0000
0100
0000
0010
0100
0000
0000
0010
1000
0000
1000
0010
0000
0000
0000
,  // measure 22
0001
0100
0000
0000
0001
0000
0010
0000
0001
0010
0000
0000
0001
0000
0100
0000
,  // measure 23
0001
0100
0001
0100
0001
0010
0001
0010
0001
1000
0000
0000
0010
0000
0100
0000
,  // measure 24
0010
0000
0000
0000
1000
0010
0000
0000
1000
0000
0000
0000
1000
0100
0000
0000
,  // measure 25
1000
1000
0010
0010
0100
0100
0001
0000
,  // measure 26
0001
0100
0000
0000
0001
0000
1000
0001
0000
0010
0001
0000
0010
0000
0001
0000
,  // measure 27
0100
0010
0000
0000
0100
0000
0001
0001
0000
0100
0100
0000
0010
0000
1000
0000
,  // measure 28
0001
0000
0000
0000
0000
1000
0000
0000
0000
0000
0001
0000
0000
0000
0000
1000
0000
0000
0000
0000
0010
0000
0000
0000
0100
0000
0000
0000
0010
0000
0000
0000
,  // measure 29
0000
0100
0000
0000
0000
0000
0010
0000
0000
0000
1000
0000
0000
0000
0010
0000
0000
0000
0100
0000
0000
0000
0000
0010
0000
0000
0000
1000
0000
0000
0000
0000
,  // measure 30
0100
0000
0001
1000
0010
1000
0010
1000
,  // measure 31
0001
1000
0100
0010
0001
0010
0100
0010
,  // measure 32
0001
0000
0100
0001
0100
0001
1000
0010
,  // measure 33
1000
0010
1000
1000
0001
0001
0100
0110
,  // measure 34
0000
0000
0000
0000
1000
0100
0000
1000
0100
0000
1000
0010
0000
1000
0010
0000
,  // measure 35
1000
0000
0001
0000
0001
0100
0000
0001
0100
0000
0001
1000
0001
0000
1000
0000
,  // measure 36
0010
1000
0100
1000
0100
1000
0001
0010
,  // measure 37
0001
0010
0100
0100
0010
0010
1000
1001
,  // measure 38
0000
0000
0001
0100
0001
0100
0010
1000
,  // measure 39
0010
1000
0100
1000
0100
1000
0001
0010
,  // measure 40
0001
0010
0001
0100
0010
1000
0010
1000
,  // measure 41
0001
0010
0100
1000
0010
0100
0001
0100
,  // measure 42
0001
1000
0010
1000
0010
0100
0001
0100
,  // measure 43
0001
1000
0001
0100
0010
1000
1001
0000
,  // measure 44
0000
0000
0000
0000
,  // measure 45
2002
0000
0000
0000
,  // measure 46
3003
0000
0000
0000
1000
0100
1000
0000
0100
0000
1000
0000
0001
0100
0001
0000
,  // measure 47
0100
0000
0010
0000
1000
0010
1000
0000
0001
0010
0001
0000
1000
0001
1000
0000
,  // measure 48
0001
0000
0100
0000
0001
0100
0001
0000
0001
0010
0001
0000
1000
0100
1000
0000
,  // measure 49
1000
0010
1000
0000
0001
0100
0001
0000
1000
0100
1000
0000
1000
0010
1000
0000
,  // measure 50
0001
0010
0001
0000
0100
0000
0010
0000
0100
0000
0001
0000
0010
0000
0001
0000
,  // measure 51
1000
0000
0100
0000
1000
0000
0010
0000
0100
0000
0001
0000
1000
0001
1000
0000
,  // measure 52
1001
0001
0100
0001
1000
0010
1000
0001
,  // measure 53
0100
0000
0010
0000
1000
0100
0000
0000
0001
0100
0000
0000
2002
0000
0000
0000
,  // measure 54
0000
0000
0000
0000
3003
0000
0000
0220
,  // measure 55
0000
0000
0000
0000
,  // measure 56
0000
0000
0330
0000
0000
0000
0000
0100
0000
0000
0000
0000
0010
0000
0000
0000
,  // measure 57
0000
0000
0000
0000
,  // measure 58
0000
0000
0000
0000
,  // measure 59
0000
1000
0010
0000
0000
0000
0000
0000
0000
0000
0000
0000
0000
0000
0000
0000
,  // measure 60
0000
0001
0100
0000
0000
0000
0000
0000
0000
0000
0000
0000
0000
0000
0000
0000
;
