#TITLE:I'm Too Sexy;
#SUBTITLE:;
#ARTIST:Right Said Fred;
#TITLETRANSLIT:;
#SUBTITLETRANSLIT:;
#ARTISTTRANSLIT:;
#GENRE:;
#CREDIT:;
#BANNER:[20th Century Boys] - I'm Too Sexy.png;
#BACKGROUND:[20th Century Boys] - I'm Too Sexy-bg.png;
#LYRICSPATH:;
#CDTITLE:;
#MUSIC:[20th Century Boys] - I'm Too Sexy.ogg;
#OFFSET:-7.909000;
#SAMPLESTART:55.061001;
#SAMPLELENGTH:15.000000;
#SELECTABLE:YES;
#DISPLAYBPM:122.000000;
#BPMS:0.000000=122.080009
,32.000000=122.000000
,64.000000=122.219994
,96.000000=122.019997
,128.000000=122.199997
,144.000000=122.000000
,156.000000=122.500008
,160.000000=122.000000
,196.000000=122.100006
,228.000000=122.000000
;
#STOPS:
;
#BGCHANGES:-16.000=[20th Century Boys] - I'm Too Sexy.avi=1.000=0=0=0=StretchNoLoop==CrossFade_Fastest==,
99999=-nosongbg-=1.000=0=0=0 // don't automatically add -songbackground-
;
#KEYSOUNDS:;
#ATTACKS:;

//---------------dance-single - ----------------
#NOTES:
     dance-single:
     :
     Challenge:
     7:
     0.431540,0.447433,0.154287,0.397898,0.133986,372.000000,353.000000,19.000000,49.000000,0.000000,0.000000,0.431540,0.447433,0.154287,0.397898,0.133986,372.000000,353.000000,19.000000,49.000000,0.000000,0.000000:
0000
0000
0000
0000
,
0000
0000
0000
0000
,
0000
0000
0000
0000
,
0000
0000
0000
0000
,
2000
0000
0100
0000
0000
0010
0000
0000
0100
0000
0000
0010
0000
0000
3002
0000
,
0000
0000
0100
0000
0000
0010
0000
0000
0100
0000
0000
0010
0000
0000
2003
0000
,
0000
0000
0010
0000
0000
0100
0000
0000
0010
0000
0000
0100
0000
0000
0001
0000
,
3001
1000
0000
0000
1000
0100
0000
0000
0100
0010
0000
0000
0010
0001
0000
0000
,
2001
0000
3100
0001
0100
1000
0100
0010
,
0002
0000
0103
1000
0100
0001
0100
0010
,
1000
0000
0000
1000
0100
0000
0000
0100
0010
0000
0001
0000
1000
0000
0010
0000
,
0200
0000
0001
0000
0010
0310
0100
0001
,
2000
0000
3010
0001
0010
1000
0010
0100
,
0002
0000
0013
1000
0010
0001
0010
0100
,
1000
0000
0000
1000
0010
0000
0000
0010
0100
0000
0001
0000
1000
0000
0100
0000
,
0020
0000
0031
0010
0100
1000
0001
0100
,
0010
2000
0000
3100
0010
0001
1000
0010
,
1000
0200
0000
0310
0001
1000
0200
0000
,
0310
0002
0000
0103
0010
1000
0001
0010
,
0001
0200
0000
0310
1000
0001
1000
0100
,
0020
0001
0000
0130
0010
0001
1000
0010
,
0200
0001
0000
0310
0100
0001
1000
0100
,
0020
0001
0000
0130
0010
0001
0100
1000
,
0100
0001
0000
0000
0001
1000
0000
0000
1000
0100
0000
0000
0100
0010
0000
0000
,
0010
0001
0100
0020
0000
1000
1030
0100
,
0010
0001
1000
0200
0000
0010
0310
0002
,
0000
0103
1000
0020
0000
0031
0100
0010
,
2000
0100
0000
0010
0000
3100
1000
0001
,
0200
0010
0000
1000
0000
0310
0100
0001
,
2000
0100
0000
0001
0000
3100
1000
0002
,
0000
1003
0100
0200
0000
0310
1000
0100
,
0010
0001
0000
0000
0001
0100
0000
0000
0100
0010
0000
0000
0010
1000
0000
0000
,
2100
0000
0010
0000
0100
0001
0001
0000
,
0010
0000
0100
0000
0010
0001
0001
0000
,
3002
0000
0010
0000
0100
1000
1000
0000
,
0010
0000
0100
0000
0010
1000
1003
0000
,
2001
0000
3010
0100
0001
1000
0100
0010
,
0012
0000
0103
0010
1000
0100
0010
0001
,
0201
0000
0310
1000
0001
0010
0100
1000
,
0001
0000
0100
0010
0000
0100
0000
0010
0100
0000
0001
0000
1001
0000
0000
0000
,
1000
0100
0001
0200
0000
1300
0010
0100
,
0001
0010
1000
0020
0000
0031
1000
0200
,
0000
0301
0010
2000
0000
3100
0010
0001
,
2000
0100
0000
0010
0000
3001
1000
0100
,
0020
0001
0000
0100
0000
1030
0010
0100
,
2000
0010
0000
0100
0000
3001
0100
0020
,
0000
1030
0100
0200
0000
0301
0010
0100
,
2000
0010
0000
0100
0000
0001
3001
1000
,
0001
0010
0000
0000
0010
0100
0000
0000
0100
1000
0000
0000
1000
0001
0000
0000
,
2001
0000
3010
0100
0001
0010
0100
0000
,
2010
0000
3100
0010
0001
0100
0010
0000
,
0110
0000
2001
0000
3010
0100
0102
0000
,
1003
0010
0001
0100
1000
0010
0110
0000
,
1002
0000
0013
0100
1000
0010
0100
0000
,
0012
0000
0103
0010
1000
0100
0010
0000
,
0110
0000
1002
0000
0013
0100
2100
0000
,
3001
1000
0000
0000
1000
0010
0000
0000
0010
0100
0000
0000
0100
0001
0000
0000
,
1001
0000
1000
0100
0010
0001
0100
0010
,
0110
0000
0000
0000
;

//---------------dance-single - ----------------
#NOTES:
     dance-single:
     :
     Hard:
     6:
     0.393258,0.423884,0.454741,0.000000,0.036542,339.000000,283.000000,56.000000,0.000000,0.000000,0.000000,0.393258,0.423884,0.454741,0.000000,0.036542,339.000000,283.000000,56.000000,0.000000,0.000000,0.000000:
0000
0000
0000
0000
,
0000
0000
0000
0000
,
0000
0000
0000
0000
,
0000
0000
0000
0000
,
0000
0000
1000
0000
0000
0010
0000
0000
0100
0000
0000
0001
0000
0000
0010
0000
,
0000
0000
0001
0000
0000
0100
0000
0000
0010
0000
0000
1000
0000
0000
0001
0000
,
0000
0000
1000
0000
0000
0100
0000
0000
0010
0000
0000
0001
0000
0000
1000
0000
,
0100
0010
1001
0110
,
1001
0000
1100
0000
0100
0010
0001
0000
,
1001
0000
0101
0000
0100
0010
1000
0000
,
1100
0011
0001
1000
,
0001
0100
0010
0000
1000
0100
0010
0000
,
0011
0000
1001
0000
1000
0010
0100
0000
,
1010
0000
1001
0000
0001
0010
0100
0000
,
1000
1010
0001
0011
,
1000
0001
0100
0110
,
0010
1000
0000
0100
0000
0010
0001
0000
,
0100
0010
0000
1000
0100
0010
0100
0000
,
0010
0001
0000
0100
0000
0010
1000
0000
,
0100
0010
0000
0001
0100
0010
0100
0000
,
1010
0000
1100
0000
0100
0010
0001
0000
,
0100
0001
0000
0001
0010
0100
1000
0000
,
0010
1000
0000
1000
0100
0010
0001
0000
,
1000
0001
0110
1001
,
1100
0000
0100
0001
0000
0100
1000
0000
,
0001
0100
0010
1000
0000
0100
0010
0001
,
0000
1000
0100
0001
0000
0010
0001
0100
,
1000
0010
0000
0100
0000
0001
1000
0000
,
0001
0100
0000
1000
0000
0100
0001
0000
,
1000
0010
0000
0100
0000
0001
0010
1000
,
0000
0001
0100
1000
0000
0001
0100
0010
,
1000
0100
0011
1100
,
1000
0000
0110
0000
0001
1000
0100
0000
,
0010
0000
1001
0000
0100
0010
0001
0000
,
1000
0000
0011
0000
0100
1000
0001
0000
,
0010
0000
1100
0000
0001
0010
0100
0000
,
1010
0000
0101
0000
0001
0010
0100
1000
,
0001
0000
1100
0000
1000
0010
0100
0001
,
1000
0000
0011
0000
0001
0100
0010
1000
,
0001
0000
0000
1000
0000
1000
0000
1000
0000
0000
0000
0000
1001
0000
0000
0000
,
0101
0000
0100
1000
0000
0100
0001
0000
,
1000
0100
0001
0100
0000
1000
0010
0100
,
0000
0001
0010
1000
0000
0100
0001
0010
,
0100
1000
0000
0010
0000
0100
0001
0000
,
1000
0010
0000
0001
0000
0010
0100
0000
,
0001
0010
0000
1000
0000
0010
0100
1000
,
0000
0001
0100
1000
0000
0001
0010
1000
,
0100
0010
0000
0001
0000
1000
0010
0000
,
1010
0101
0011
1100
,
1001
0000
1010
0000
1000
0001
0100
0000
,
1001
0000
0011
0000
0001
1000
0100
0000
,
1010
0000
1100
0000
0100
0010
0001
0000
,
1000
0100
0001
1000
0001
0100
1000
0000
,
1001
0000
0101
0000
0001
1000
0010
0000
,
1001
0000
1100
0000
1000
0001
0010
0000
,
0011
0101
1100
1010
,
0011
0101
1010
1100
,
1001
0000
0001
0100
0010
1000
0001
0000
,
1001
0000
0000
0000
;

//---------------dance-single - ----------------
#NOTES:
     dance-single:
     :
     Medium:
     5:
     0.315535,0.329687,0.194889,0.000000,0.000000,272.000000,248.000000,24.000000,0.000000,0.000000,0.000000,0.315535,0.329687,0.194889,0.000000,0.000000,272.000000,248.000000,24.000000,0.000000,0.000000,0.000000:
0000
0000
0000
0000
,
0000
0000
0000
0000
,
0000
0000
0000
0000
,
0000
0000
0000
0000
,
1000
1000
0100
0010
,
0001
0001
0100
0010
,
1000
1000
0010
0100
,
0001
0010
0100
1000
,
1010
0000
0010
0000
0100
0001
0100
0000
,
0011
0000
0010
0000
0100
1000
0100
0000
,
1000
0100
0001
1000
,
0001
0100
1000
0001
,
0011
0000
0010
0000
0100
1000
0100
0000
,
1010
0000
0010
0000
0100
0001
0100
0000
,
0001
0010
1000
0100
,
0001
0010
0100
1000
,
0001
0001
0000
0010
0000
0100
0000
0000
,
1000
1000
0000
0010
0100
0000
0001
0000
,
1000
1000
0000
0100
0000
0010
0000
0000
,
0001
0001
0000
0100
0010
0000
1000
0000
,
1100
0000
0100
0000
0010
0001
0010
0000
,
0101
0000
0100
0000
0010
1000
0010
0000
,
1100
0000
0100
0000
0010
0001
0010
0000
,
0100
1000
0010
0001
,
0010
0000
1000
0100
0000
0100
0010
0000
,
0001
0000
0100
0010
0000
0010
1000
0000
,
0100
0001
0010
1000
,
0100
0010
0000
0001
0000
1000
0001
0000
,
1000
0000
0010
0100
0000
0100
0001
0000
,
0100
0000
0001
0010
0000
0010
0100
0000
,
1000
0100
0010
0001
,
1000
0010
0100
0001
,
1000
0000
0100
0000
0010
0001
0010
0000
,
0001
0000
0100
0000
0010
1000
0010
0000
,
1000
0000
0010
0000
0100
0001
0100
0000
,
0001
0000
0010
0000
0100
1000
0100
0000
,
1100
1000
0010
0100
,
0101
0001
0010
0100
,
1100
1000
0010
0100
,
0101
0000
0001
1000
0001
0000
1001
0000
,
1000
0000
0100
0001
0000
0001
0100
0000
,
1000
0000
0010
0001
0000
0001
0010
0000
,
1000
0100
0001
0010
,
1000
0100
0000
0010
0000
0001
1000
0000
,
0100
0000
0010
0001
0000
0001
1000
0000
,
0010
0000
0100
0001
0000
0001
0010
0000
,
0100
1000
0010
0001
,
0100
1000
0010
0100
,
0001
1001
1000
1001
,
0011
0000
0010
0000
0100
1000
0100
0000
,
1010
0000
0010
0000
0100
0001
0100
0000
,
0011
0010
0110
0100
,
1000
0010
1000
0000
0010
0100
0010
0000
,
1010
0000
0010
0000
0100
0001
0100
0000
,
0011
0000
0010
0000
0100
1000
0100
0000
,
1000
0010
0100
0001
,
1000
1001
0001
1001
,
1100
0000
0100
0000
0010
0001
0010
0000
,
1001
0000
0000
0000
;

//---------------dance-single - ----------------
#NOTES:
     dance-single:
     :
     Easy:
     3:
     0.205330,0.259040,0.105565,0.000000,0.000000,177.000000,164.000000,13.000000,0.000000,0.000000,0.000000,0.205330,0.259040,0.105565,0.000000,0.000000,177.000000,164.000000,13.000000,0.000000,0.000000,0.000000:
// measure 0
0000
0000
0000
0000
,  // measure 1
0000
0000
0000
0000
,  // measure 2
0000
0000
0000
0000
,  // measure 3
0000
0000
0000
0000
,  // measure 4
1000
0000
1000
0010
,  // measure 5
0001
0000
0001
0010
,  // measure 6
1000
0000
1000
0100
,  // measure 7
0010
0000
0001
0000
,  // measure 8
1001
0000
0100
0010
,  // measure 9
0001
0000
1000
0100
,  // measure 10
0010
0000
0001
0000
,  // measure 11
0100
0000
0010
1000
,  // measure 12
0001
0000
0100
0010
,  // measure 13
1000
0000
0001
0100
,  // measure 14
0010
0000
1000
0000
,  // measure 15
0100
0000
0010
0001
,  // measure 16
1001
0000
1000
0100
,  // measure 17
1000
0000
0001
0000
,  // measure 18
1000
0000
0001
0100
,  // measure 19
0001
0000
1000
0000
,  // measure 20
0001
0000
0010
0100
,  // measure 21
1000
0000
0001
0010
,  // measure 22
0100
0000
1000
0010
,  // measure 23
0100
0000
0001
0000
,  // measure 24
1000
0100
0010
0000
,  // measure 25
0001
0010
0100
0000
,  // measure 26
1000
0100
0010
0001
,  // measure 27
0100
0010
1000
0000
,  // measure 28
0001
0100
0010
0000
,  // measure 29
1000
0010
0100
0000
,  // measure 30
0001
1000
0010
0100
,  // measure 31
0001
0000
1000
0000
,  // measure 32
0001
0000
0010
1000
,  // measure 33
0100
0000
1000
0010
,  // measure 34
0001
0000
0100
0010
,  // measure 35
1000
0000
0100
0010
,  // measure 36
1001
0000
0010
0100
,  // measure 37
1001
0000
0100
0010
,  // measure 38
1001
0000
0010
0100
,  // measure 39
1001
0001
1000
1001
,  // measure 40
0001
0100
0010
0000
,  // measure 41
1000
0010
0100
0000
,  // measure 42
0001
0100
0010
1000
,  // measure 43
0100
0010
0001
0000
,  // measure 44
1000
0100
0010
0000
,  // measure 45
0001
0010
0100
0000
,  // measure 46
1000
0001
0010
0100
,  // measure 47
1000
0001
0100
0010
,  // measure 48
1000
0000
0001
0000
,  // measure 49
1001
0000
0100
0010
,  // measure 50
1001
0000
0100
0010
,  // measure 51
0001
1000
0010
0100
,  // measure 52
0001
0100
0010
0000
,  // measure 53
1001
0000
0100
0010
,  // measure 54
1001
0000
0100
0010
,  // measure 55
1000
0001
0010
0100
,  // measure 56
1000
0100
0010
0001
,  // measure 57
1001
0000
0100
0010
,  // measure 58
1001
0000
0000
0000
;

//---------------dance-single - ----------------
#NOTES:
     dance-single:
     :
     Beginner:
     1:
     0.067283,0.094196,0.000000,0.000000,0.000000,58.000000,58.000000,0.000000,0.000000,0.000000,0.000000,0.067283,0.094196,0.000000,0.000000,0.000000,58.000000,58.000000,0.000000,0.000000,0.000000,0.000000:
0000
0000
0000
0000
,
0000
0000
0000
0000
,
0000
0000
0000
0000
,
0000
0000
0000
0000
,
1000
0000
0000
0000
,
0000
0000
0000
0000
,
0001
0000
0000
0000
,
0000
0000
0000
0000
,
1000
0000
0000
0000
,
1000
0000
0000
0000
,
1000
0000
1000
0000
,
1000
0000
0000
0000
,
0001
0000
0000
0000
,
0001
0000
0000
0000
,
0001
0000
0001
0000
,
0001
0000
0000
0000
,
0001
0000
0000
0000
,
0001
0000
0000
0000
,
1000
0000
0000
0000
,
1000
0000
0000
0000
,
1000
0000
0000
0000
,
1000
0000
0000
0000
,
0001
0000
0000
0000
,
0001
0000
0000
0000
,
1000
0000
0000
0000
,
1000
0000
0000
0000
,
0010
0000
0010
0000
,
0010
0000
0000
0000
,
0100
0000
0000
0000
,
0100
0000
0000
0000
,
0001
0000
0001
0000
,
0001
0000
0000
0000
,
1000
0000
0000
0000
,
0000
0000
0000
0000
,
0001
0000
0000
0000
,
0000
0000
0000
0000
,
1000
0000
0000
0000
,
1000
0000
0000
0000
,
0001
0000
0000
0000
,
0001
0000
0000
0000
,
0001
0000
0000
0000
,
0001
0000
0000
0000
,
0010
0000
0010
0000
,
0010
0000
0000
0000
,
0100
0000
0000
0000
,
0100
0000
0000
0000
,
1000
0000
1000
0000
,
1000
0000
0000
0000
,
0000
0000
0000
0000
,
0001
0000
0000
0000
,
0001
0000
0000
0000
,
0001
0000
0001
0000
,
0001
0000
0000
0000
,
1000
0000
0000
0000
,
1000
0000
0000
0000
,
1000
0000
1000
0000
,
1000
0000
0000
0000
,
0001
0000
0000
0000
,
1000
0000
0000
0000
;
