#TITLE:How Much Is The Fish?;
#SUBTITLE:;
#ARTIST:Scooter;
#TITLETRANSLIT:How Much Is The Fish;
#SUBTITLETRANSLIT:;
#ARTISTTRANSLIT:;
#CREDIT:SupremeX;
#BANNER:How Much Is The Fish.png;
#BACKGROUND:How Much Is The Fish-bg.png;
#LYRICSPATH:;
#CDTITLE:SupremeX.png;
#MUSIC:How Much Is The Fish.ogg;
#OFFSET:-1.448;
#SAMPLESTART:44.305;
#SAMPLELENGTH:12.000;
#SELECTABLE:YES;
#BPMS:0.000=140.000;
#STOPS:;
#BGCHANGES:;

//---------------dance-single - ----------------
#NOTES:
     dance-single:
     :
     Hard:
     7:
     0.383,0.428,0.011,0.099,0.011:
0000
0000
0000
0000
,
0000
0000
0000
0000
,
0000
0000
0000
0000
,
0000
0000
0000
0000
,
1000
0000
0010
0000
,
1000
0000
0001
0000
,
0100
0000
0010
0000
,
1000
0000
0000
0000
,
0001
0000
1000
0000
0010
0100
0010
0000
,
1000
0001
0100
0001
,
1000
0001
1000
0000
0010
0000
0010
0000
,
0100
0001
0100
0000
0010
0000
0010
0000
,
1000
0010
0100
0000
0001
0000
1000
0000
,
0001
0100
0010
0000
1000
0000
0001
0000
,
1000
0000
0010
0000
0100
0001
0100
0000
,
0010
1000
0010
1000
,
0001
0100
0010
0000
1000
0010
1000
0000
,
0001
0100
0010
0100
0001
1000
0010
0000
,
1000
0001
1000
0000
0010
0100
0010
1000
,
0001
0000
0000
0000
0000
0000
0000
0000
0100
0000
0000
0100
0000
0000
0000
0000
,
0010
1000
0010
0100
0001
1000
0010
0000
,
0100
0001
0100
0010
1000
0001
0100
0000
,
0010
1000
0010
0100
0001
0100
0010
1000
,
0001
0000
0000
0000
0000
0000
1000
0000
0010
0000
0000
0100
0000
0000
0001
0000
,
0002
0000
0000
0000
,
0003
0000
0000
0000
0000
1000
1000
0000
,
0010
0000
0100
0000
0001
1000
0010
0000
,
0010
1000
0001
0000
0100
0000
0001
0000
,
1000
0010
2000
0000
0000
0000
3000
0001
,
0100
0010
0000
0010
0100
0000
0001
0000
,
1000
0010
1000
0000
0001
0010
0100
0000
,
1000
0000
0010
0000
0100
0001
0200
0000
,
0000
0000
0000
0000
0000
0300
0000
0000
,
0010
1000
0010
0000
0100
0001
0010
0000
,
0010
1000
0100
0010
0001
0000
1000
0000
,
0010
0000
1000
0000
0100
0010
0001
0010
,
0100
1000
0010
0100
0010
0000
0100
0000
,
0001
1000
0002
0000
2000
0000
0000
0000
,
0000
3003
0001
0000
1000
0000
0010
0000
,
0100
0010
1000
0001
0100
0010
1000
0000
,
0010
0000
0100
0000
0001
1000
0020
0000
,
1000
0000
1030
0000
0100
0001
1000
0010
,
1000
0000
0001
0010
0100
1000
0001
0010
,
0001
1000
0100
1000
0010
0000
1001
0000
,
0010
0100
0002
0000
1000
0000
1000
0000
,
1003
0100
0010
0001
0100
0000
0010
0000
,
1000
0010
1000
0000
0010
0000
0100
0000
,
0001
1000
0010
1000
0001
0000
0100
0010
,
1000
0010
0100
0001
0100
0010
1000
0001
,
0100
0000
0100
0000
0010
1000
0002
0000
,
0100
0000
0100
0003
1000
0010
0100
0010
,
2000
0000
0000
0000
0000
3000
0000
0000
;

//---------------dance-single - ----------------
#NOTES:
     dance-single:
     :
     Challenge:
     9:
     0.505,0.485,0.055,0.287,0.094:
0000
0000
0000
0000
,
0000
0000
0000
0000
,
0000
0000
0000
0000
,
0000
0000
0000
0000
,
1000
0010
0100
0001
,
1000
0010
0100
0001
,
1000
0010
1000
0001
,
0200
0000
0000
0000
,
0301
0010
0100
1000
0010
0100
0001
1000
,
0001
0000
0100
0000
0010
0000
1000
0000
0001
0000
0000
0001
0000
0000
0001
0000
,
1000
0100
1000
0010
1000
0010
0100
0001
,
0100
0000
0010
0000
1000
0000
0001
0000
0100
0000
0000
0100
0000
0000
0100
0000
,
0010
1000
0001
1000
0001
1000
0010
0100
,
0001
0100
0010
1000
0001
1000
0010
0100
,
0010
0000
0101
0000
1000
0010
1000
0010
,
0100
0001
0000
0101
0000
1010
1000
0000
,
0001
0100
0001
0001
1000
0100
0010
0001
,
0100
0010
1000
0001
1000
0001
1001
0000
,
0100
0010
1000
0001
0100
0010
0100
0001
,
2000
0000
0000
0000
0000
0000
3000
0000
0010
0000
0000
0010
0000
0000
0000
0000
,
0100
0001
1000
0100
0010
0001
0100
0010
,
1000
0001
0100
0001
1000
0010
1000
0000
,
0001
0000
1000
0000
0001
0000
0100
0000
0010
0000
0100
0000
0001
0000
1000
0001
,
1000
0000
0000
0000
0000
0000
1000
0000
0010
0000
0000
1000
0000
0000
0001
0000
,
2002
0000
0000
0000
0000
0000
0000
0000
0000
0000
0000
0000
3003
0000
0100
0010
,
0100
0000
0010
0000
0000
0000
0000
0000
0000
0000
1000
0000
1000
0000
0010
0100
,
0020
0000
0130
0000
0100
0001
1000
0010
,
0100
0000
0001
0000
1000
0000
0010
0100
0020
0000
0000
0000
0130
0000
0000
0000
,
0100
0001
0002
0000
0000
0000
0003
1000
,
0010
0100
0000
0100
0001
0000
0001
0000
,
1000
0000
0100
0000
1000
0000
0000
0000
0001
0000
0010
0000
0100
0000
1000
0010
,
2000
0000
3010
0000
1000
0001
0200
0000
,
0000
0000
0000
0000
0000
0310
1000
0010
,
0100
0001
0100
0000
0010
1000
0001
0000
,
0001
0000
1000
0000
0100
0000
0010
0000
0001
0000
0100
0000
0100
0000
0001
1000
,
0002
0000
1003
0000
0010
1000
0100
0010
,
0001
0000
0100
0000
0010
0000
1000
0010
2000
0000
0000
0000
3001
0000
0000
0000
,
0001
0100
0002
0000
2000
0000
0000
0000
,
3003
0000
0010
0000
0010
0000
0100
0010
0200
0000
0000
0000
0310
0000
0000
0000
,
0010
0000
1000
0000
0001
0000
0100
0000
0010
0000
1000
0000
0001
0000
1000
0010
,
2000
0000
3010
0000
0010
0100
0002
0000
,
1000
0000
0000
0000
1003
0000
0000
0000
0100
0000
0001
0000
0100
0000
0010
1000
,
0020
0000
1030
0100
0010
0001
0100
0001
,
0100
0000
0010
0000
1000
0000
0010
1000
0020
0000
0000
0000
1030
0000
0000
0000
,
1000
0010
0200
0000
0001
0000
0001
0000
,
0301
0010
0100
1000
0200
0000
0320
0000
,
0031
0001
2000
0000
0010
0000
0010
0000
,
3010
0000
0100
0000
0010
0000
0100
0001
0200
0000
0000
0000
0301
0000
0010
0000
,
0100
0000
1000
0000
0100
0000
0010
0000
0001
0000
1000
0000
0001
0000
1000
0001
,
0200
0000
0000
0300
0010
1000
0002
0000
,
0100
0000
0100
0003
1000
0010
0100
0010
,
2000
0000
0000
0000
0000
3000
0000
0000
;

//---------------dance-single - ----------------
#NOTES:
     dance-single:
     :
     Medium:
     4:
     0.281,0.366,0.055,0.099,0.006:
0000
0000
0000
0000
,
0000
0000
0000
0000
,
0000
0000
0000
0000
,
0000
0000
0000
0000
,
1000
0000
1000
0000
,
0001
0000
0001
0000
,
0100
0000
0100
0000
,
0020
0000
0000
0030
,
1000
0001
0100
0010
,
1000
0001
0100
0010
,
1000
0001
0100
0010
,
1000
0001
0100
0001
,
1000
0010
1000
0001
,
0100
0010
1000
0001
,
0100
0110
0001
0001
,
1000
0001
1001
1001
,
0010
0000
0010
0000
1000
0010
1000
0000
,
0001
0001
0100
0100
,
0010
0000
0010
0000
1000
0001
1000
0000
,
0001
0000
0100
0100
,
0010
0000
1000
0000
0001
1000
0001
0000
,
1000
0010
0100
0001
,
1000
0000
0001
0000
1000
0010
1000
0001
,
0100
0000
0000
0000
0000
0000
0010
0000
1000
0000
0000
0001
0000
0000
0100
0000
,
0220
0000
0000
0000
,
0330
0000
0000
0000
,
0001
0010
0100
1000
,
0010
0100
0001
1000
,
0001
1000
0002
0000
0000
0000
0000
0000
,
0003
0000
1000
0010
,
0100
0001
1000
0010
,
1000
1000
0001
2000
,
0000
0000
0000
3000
,
0100
0010
0001
0100
,
0010
0000
1000
0001
1000
0000
0010
0000
,
0100
0001
1000
0010
,
0100
0000
0001
1000
0001
0000
0100
0000
,
0100
0002
0000
0000
,
0000
0003
1000
1000
,
0001
0000
0100
0000
0010
1000
0010
0000
,
0100
0000
0100
0000
0001
1000
0001
0000
,
1000
0001
1000
0010
,
0100
0000
0001
0000
1000
0010
1000
0000
,
0001
0100
0001
0000
1000
0000
1000
0000
,
0010
0100
0020
0000
0000
0000
0000
0000
,
0000
0030
1000
1000
,
0001
1000
0002
0000
0000
0000
0000
0000
,
0003
0000
1000
0010
,
1000
0001
0010
0100
,
1000
0000
0010
0000
1000
0010
2000
0000
,
0000
0000
0000
3000
,
1001
0000
0000
0000
;

//---------------dance-single - ----------------
#NOTES:
     dance-single:
     :
     Easy:
     3:
     0.192,0.253,0.011,0.066,0.000:
0000
0000
0000
0000
,
0000
0000
0000
0000
,
0000
0000
0000
0000
,
0000
0000
0000
0000
,
0010
0000
0000
0000
,
0100
0000
0000
0000
,
0001
0000
0000
0000
,
2000
0000
0000
0000
0000
0000
0000
3000
,
0010
0000
0100
0000
,
0001
0000
1000
0000
,
0010
0000
0100
0000
,
0001
0000
1000
0000
,
0010
0000
0100
0000
,
0001
0000
1000
0000
,
0010
0000
0100
0000
,
0001
0000
0000
1000
0000
0010
0000
0000
,
0100
0100
0001
0001
,
1000
0001
1000
0001
,
0100
0100
0010
0010
,
1000
0000
0001
0001
,
1000
0010
0100
0001
,
1000
1000
1000
1000
,
0010
0010
0100
0100
,
0001
0000
1000
0000
,
1001
0000
0000
0000
,
0010
0000
0000
0000
,
0100
0000
0000
0000
,
0001
0000
1000
0000
,
0010
0020
0000
0000
,
0030
0000
0100
0000
,
0001
0000
1000
0000
,
0001
0000
0010
0200
,
0000
0000
0000
0300
,
1000
0000
1000
0000
,
0010
0010
0100
0000
,
0001
0000
0001
0000
,
1000
0000
0010
0000
,
0100
0002
0000
0000
,
0000
0003
1000
0010
,
1000
0001
1000
0010
,
0100
0001
1000
1000
,
0010
0010
0100
0001
,
1000
1000
0010
0100
,
0001
1000
0010
0010
,
0100
0000
0001
0000
1000
0000
0000
0001
,
0000
1000
0010
0010
,
0100
0002
0000
0000
,
0000
0003
0000
0000
1000
0000
1000
0000
,
0010
0100
0001
1000
,
0001
0001
1000
0020
,
0000
0000
0000
0000
0000
0000
0000
0030
;

//---------------dance-single - Copied from ----------------
#NOTES:
     dance-single:
     Copied from:
     Beginner:
     1:
     0.069,0.084,0.000,0.000,0.000: // measure 1
0000
0000
0000
0000
,  // measure 2
0000
0000
0000
0000
,  // measure 3
0000
0000
0000
0000
,  // measure 4
0000
0000
0000
0000
,  // measure 5
1000
0000
0000
0000
,  // measure 6
1000
0000
0000
0000
,  // measure 7
1000
0000
0000
0000
,  // measure 8
1000
0000
0000
0000
,  // measure 9
0001
0000
0000
0000
,  // measure 10
0001
0000
0000
0000
,  // measure 11
0001
0000
0000
0000
,  // measure 12
0001
0000
0000
0000
,  // measure 13
0001
0000
0000
0000
,  // measure 14
0001
0000
0000
0000
,  // measure 15
0001
0000
0000
0000
,  // measure 16
0001
0000
0000
0000
,  // measure 17
0100
0000
0000
0000
,  // measure 18
0100
0000
0000
0000
,  // measure 19
0010
0000
0000
0000
,  // measure 20
0010
0000
0000
0000
,  // measure 21
0100
0000
0000
0000
,  // measure 22
0100
0000
0000
0000
,  // measure 23
0010
0000
0000
0000
,  // measure 24
0010
0000
0000
0000
,  // measure 25
1000
0000
0000
0000
,  // measure 26
1000
0000
0000
0000
,  // measure 27
0001
0000
0000
0000
,  // measure 28
0000
0000
0001
0000
,  // measure 29
0000
0000
0000
0000
,  // measure 30
0000
0000
0100
0000
,  // measure 31
0000
0000
0000
0000
,  // measure 32
0000
0100
0000
0000
,  // measure 33
0000
0000
0000
0000
,  // measure 34
0010
0000
0010
0000
,  // measure 35
0010
0000
0000
0000
,  // measure 36
1000
0000
0000
0000
,  // measure 37
0000
0000
1000
0000
,  // measure 38
0001
0000
0001
0000
,  // measure 39
0000
0000
0100
0000
,  // measure 40
0000
0000
0000
0000
,  // measure 41
0100
0000
0000
0000
,  // measure 42
0000
0000
0000
0000
,  // measure 43
0010
0000
0000
0000
,  // measure 44
0010
0000
0000
0000
,  // measure 45
0010
0000
0000
0000
,  // measure 46
0000
0000
1000
0000
,  // measure 47
0000
1000
0000
0000
,  // measure 48
0000
0000
0001
0000
,  // measure 49
0000
0000
0001
0000
,  // measure 50
0000
0000
0100
0000
,  // measure 51
0000
0000
0000
0000
,  // measure 52
0100
0000
0000
0000
;
