#TITLE:Dead Man's Party;
#SUBTITLE:;
#ARTIST:Oingo Boingo;
#TITLETRANSLIT:;
#SUBTITLETRANSLIT:;
#ARTISTTRANSLIT:;
#GENRE:;
#CREDIT:mf32892;
#BANNER:;
#BACKGROUND:;
#LYRICSPATH:;
#CDTITLE:;
#MUSIC:[20th Century Boys] - Dead Man's Party.ogg;
#OFFSET:0.527210;
#SAMPLESTART:72.379997;
#SAMPLELENGTH:10.378384;
#SELECTABLE:YES;
#BPMS:0.000000=161.266998
;
#STOPS:
;
#BGCHANGES:;
#KEYSOUNDS:;
#ATTACKS:;

//---------------dance-single - ----------------
#NOTES:
     dance-single:
     :
     Hard:
     8:
     0.601861,0.717217,0.618579,0.417959,0.004180,504.000000,430.000000,74.000000,50.000000,0.000000,0.000000,0.601861,0.717217,0.618579,0.417959,0.004180,504.000000,430.000000,74.000000,50.000000,0.000000,0.000000:
// measure 0
0000
0000
0000
0000
,  // measure 1
0000
0000
0000
0000
,  // measure 2
0000
0000
0000
0000
,  // measure 3
0000
0000
0000
0000
,  // measure 4
0000
0000
0000
0000
0100
0100
0100
0000
,  // measure 5
0010
1001
0100
1001
,  // measure 6
1000
0010
0100
0002
1000
0003
0101
0001
,  // measure 7
1000
0100
0010
0001
0010
0100
1000
0000
,  // measure 8
0001
0100
0010
0000
1002
0000
0013
0000
,  // measure 9
0001
0100
0010
1000
0001
0000
1100
0000
,  // measure 10
1000
0100
0010
0002
0000
1003
0101
0000
,  // measure 11
0200
0000
0301
0000
0010
0200
1000
1300
,  // measure 12
0010
0200
0001
0301
1000
0002
0010
0013
,  // measure 13
0110
0001
0110
1000
,  // measure 14
0001
0100
0010
2000
0001
3000
1100
1000
,  // measure 15
0001
0010
0100
1000
0100
0010
0001
0000
,  // measure 16
0100
0010
1000
0000
2001
0000
3010
0000
,  // measure 17
1000
0100
0010
0001
1000
0000
0101
0000
,  // measure 18
0001
0100
0010
2000
0000
3001
0101
0000
,  // measure 19
1000
0010
1000
0100
0010
0100
1000
0010
,  // measure 20
0000
0101
0000
0110
0000
1001
0000
0000
,  // measure 21
0011
0000
0011
0000
2000
0000
3001
0100
,  // measure 22
1000
0100
0001
0000
0001
0010
0100
0010
,  // measure 23
0001
1000
0010
0100
0000
0101
0000
1100
,  // measure 24
0000
0101
0000
0000
1010
0000
1010
0000
,  // measure 25
0002
0000
1003
0100
0001
0100
1000
0000
,  // measure 26
0001
0010
0001
0100
0010
1000
0100
0010
,  // measure 27
0000
1100
0000
0011
0000
1001
0000
0000
,  // measure 28
0101
0000
0101
0000
2000
0000
3010
1000
,  // measure 29
0100
0001
0100
0000
1000
0100
1000
0010
,  // measure 30
0100
0001
1000
0100
0000
0110
0000
1100
,  // measure 31
0000
0101
0000
0000
1100
0000
1100
0000
,  // measure 32
0002
0000
0010
0000
1003
0000
1001
1001
,  // measure 33
1001
1001
1001
0000
0001
0000
0101
0001
,  // measure 34
1000
0000
1100
0100
1000
0001
0010
0100
,  // measure 35
2000
0000
3001
1000
0010
0001
0010
1000
,  // measure 36
0001
0010
0100
0000
1000
0100
0010
0000
,  // measure 37
0002
0000
1003
0000
0001
0100
0010
0100
,  // measure 38
0001
1000
0100
0020
0000
0031
1000
0010
,  // measure 39
0200
0000
0301
1000
0100
0010
0100
0001
,  // measure 40
0100
0000
1000
0000
0100
0000
0010
0000
0001
0000
0100
0001
0100
0000
0010
0000
,  // measure 41
0000
2000
0000
3000
0001
0000
0101
0001
,  // measure 42
1000
0000
1100
1000
0010
0100
0010
0100
,  // measure 43
0002
0000
1003
0001
1000
0010
0001
0010
,  // measure 44
0100
0001
1000
0000
0100
0010
0001
0000
,  // measure 45
2000
0000
3010
0000
0100
0001
0100
0001
,  // measure 46
0010
0100
1000
0020
0000
1030
0100
0010
,  // measure 47
0002
0000
1003
0001
1000
0100
0010
0001
,  // measure 48
0010
1000
0010
0001
0110
0000
0110
0000
,  // measure 49
1002
0000
0103
0010
0000
1000
0100
0010
,  // measure 50
0000
0001
1000
0010
0200
0000
0010
0310
,  // measure 51
1000
0000
0001
0010
0000
0100
1000
0010
,  // measure 52
0000
0100
0010
1000
0200
0000
0010
0310
,  // measure 53
0002
0000
0013
0100
0000
1000
0010
0100
,  // measure 54
0000
0001
1000
0100
0000
0010
0100
0000
,  // measure 55
1100
0000
0101
0000
2001
0000
3001
0100
,  // measure 56
0010
0100
0001
0000
2001
0000
3100
0010
,  // measure 57
0000
0001
1000
0020
0000
0130
0001
1000
,  // measure 58
2010
0000
0100
3100
0020
0000
0031
0100
,  // measure 59
0000
0001
1000
0200
0000
0310
0001
1000
,  // measure 60
2010
0000
0001
3001
0020
0000
1030
0020
,  // measure 61
0000
0031
0100
0020
0000
1030
0001
0020
,  // measure 62
0000
0130
0010
0000
0012
0000
0100
0100
,  // measure 63
0000
1003
0000
2020
0000
0000
0030
0000
,  // measure 64
0100
0000
3100
0000
0012
0000
1000
1000
,  // measure 65
0000
0103
0000
0000
2010
0000
0010
0001
,  // measure 66
0000
0000
3100
0010
0100
0010
0100
0000
,  // measure 67
2001
0000
3100
0000
1002
0000
0013
0002
,  // measure 68
0100
0003
0201
0000
0310
0000
1000
0000
,  // measure 69
1001
0000
1001
0001
0100
0010
1000
0000
,  // measure 70
0001
0010
0100
0000
1002
0000
0103
0110
,  // measure 71
0000
0010
1000
0100
0010
0100
1000
0000
,  // measure 72
0001
0100
0010
0000
1002
0000
0013
0110
,  // measure 73
0000
0001
0010
0100
0001
0100
1000
0010
,  // measure 74
1010
0000
0100
1000
0100
0001
0011
0000
,  // measure 75
0100
0001
0100
1000
0010
1000
0100
0000
,  // measure 76
0110
0010
0110
0000
1002
0000
0010
0013
,  // measure 77
0100
0000
0110
0110
0110
0110
0110
0000
,  // measure 78
1001
0000
0000
0000
;

//---------------dance-single - ----------------
#NOTES:
     dance-single:
     :
     Medium:
     7:
     0.460949,0.489012,0.275853,0.309290,0.000000,386.000000,353.000000,33.000000,37.000000,0.000000,0.000000,0.460949,0.489012,0.275853,0.309290,0.000000,386.000000,353.000000,33.000000,37.000000,0.000000,0.000000:
// measure 0
0000
0000
0000
0000
,  // measure 1
0000
0000
0000
0000
,  // measure 2
0000
0000
0000
0000
,  // measure 3
0000
0000
0000
0000
,  // measure 4
0000
0000
0000
0000
,  // measure 5
1010
0001
0011
1000
,  // measure 6
0001
0100
0010
0000
1000
0000
0110
0000
,  // measure 7
1000
0100
1000
0100
1000
0000
0100
0000
,  // measure 8
0010
0001
1000
0000
0020
0000
0030
0000
,  // measure 9
0101
1000
1100
0001
,  // measure 10
1000
0010
0100
0001
1000
0000
1001
0000
,  // measure 11
0002
0000
0013
0000
0100
1000
0000
0010
,  // measure 12
1000
0000
0100
1000
0000
0010
0100
0000
,  // measure 13
0110
0001
1001
0010
,  // measure 14
0100
0010
0100
0000
0010
0000
1001
0000
,  // measure 15
0001
0100
0001
0100
0001
0000
1000
0000
,  // measure 16
0010
0100
0001
0000
2000
0000
3000
0000
,  // measure 17
0001
0010
0001
0010
0001
0000
1000
0000
,  // measure 18
0100
1000
0100
0010
0000
0001
0000
0000
,  // measure 19
1000
0010
1000
0010
0100
0000
0001
0100
,  // measure 20
0000
0001
0000
1000
0000
0001
0000
0010
,  // measure 21
0100
0000
0110
0000
2000
0000
3000
0001
,  // measure 22
0100
0001
1000
0000
0001
0010
0001
0010
,  // measure 23
0100
0000
1000
0001
0000
0100
0000
0001
,  // measure 24
0000
1000
0000
0010
0100
0000
0110
0000
,  // measure 25
0002
0000
0003
1000
0100
1000
0001
0000
,  // measure 26
0010
0100
0010
0100
1000
0000
0001
1000
,  // measure 27
0000
0010
0000
0100
0000
0001
0000
1000
,  // measure 28
0001
0000
1001
0000
0021
0000
0030
0100
,  // measure 29
0010
0100
1000
0000
0010
0100
0010
0100
,  // measure 30
0001
0000
1000
0100
0000
0010
0000
0100
,  // measure 31
0000
1000
0000
0001
1000
0000
1001
0000
,  // measure 32
0002
0000
0000
0000
0000
0000
0103
0100
,  // measure 33
0010
0010
0100
0000
0001
0000
0101
0000
,  // measure 34
1000
0000
1100
0000
0001
0010
0100
0000
,  // measure 35
2002
0000
3003
0000
1000
0010
0100
0001
,  // measure 36
0100
0000
0010
0000
1000
0001
1000
0000
,  // measure 37
0002
0003
1000
1010
,  // measure 38
0001
0000
0011
0000
1000
0100
0010
0000
,  // measure 39
2002
0000
3003
0000
0001
0100
0010
1000
,  // measure 40
0010
0000
0100
0001
0100
0000
0010
0000
,  // measure 41
1000
0001
1000
0000
0100
0000
0110
0000
,  // measure 42
1000
0000
1001
0000
1000
0100
0010
0000
,  // measure 43
0022
0000
0033
0000
0001
0100
0010
1000
,  // measure 44
0001
0100
0010
0000
1000
0010
0100
0000
,  // measure 45
0002
0000
0003
0000
1000
0100
1000
0000
,  // measure 46
0100
0000
1000
0100
0000
0010
0001
0010
,  // measure 47
0001
0000
1000
0000
1000
0010
0100
0001
,  // measure 48
1000
0010
0100
0000
0001
0100
0010
0000
,  // measure 49
2000
0000
3001
0010
0000
0100
0000
1000
,  // measure 50
0000
0010
0000
0000
0200
0000
0301
0100
,  // measure 51
0001
0000
0001
0010
0000
0010
0000
0100
,  // measure 52
0000
0000
1000
0001
2000
0000
3001
1000
,  // measure 53
0001
0000
0100
0010
0000
0010
0000
1000
,  // measure 54
0000
1000
0000
0100
0000
0100
0000
0000
,  // measure 55
0010
0010
0200
1300
,  // measure 56
0001
1000
0001
0000
0100
0000
0010
1000
,  // measure 57
0000
0001
0000
0020
0000
0130
0000
0000
,  // measure 58
0020
0000
0031
1000
0001
0000
0100
0010
,  // measure 59
0000
1000
0000
0002
0000
0000
1003
0100
,  // measure 60
2000
0000
3010
0100
0001
0000
1000
0002
,  // measure 61
0000
0023
0000
2030
0000
3002
0000
0203
,  // measure 62
0000
2300
0000
3000
0020
0000
0100
0100
,  // measure 63
0000
0130
0000
2002
0000
0000
3003
0000
,  // measure 64
0002
0000
0013
0000
0021
0000
0100
0100
,  // measure 65
0000
0130
0000
0000
1100
0000
1000
0001
,  // measure 66
0000
0000
0100
0010
0100
0010
0100
0000
,  // measure 67
1001
0000
0000
0000
0101
0000
0000
0110
,  // measure 68
0000
1010
0000
1000
,  // measure 69
0001
0000
0010
0001
0100
0000
0010
0000
,  // measure 70
1000
0010
1000
0000
0002
0000
0000
1003
,  // measure 71
0000
0000
0010
1000
0010
1000
0010
0000
,  // measure 72
0100
0001
0100
0000
0020
0000
0000
0130
,  // measure 73
0000
0000
0001
0000
0001
0100
0001
0000
,  // measure 74
0101
0000
1000
0010
1000
0000
1010
0000
,  // measure 75
0100
0010
0100
0010
0100
0001
1000
0000
,  // measure 76
0100
0010
0001
0000
0200
0000
0010
0000
,  // measure 77
0310
0000
1000
1000
0001
0001
1000
0000
,  // measure 78
1001
0000
0000
0000
;
