#TITLE:De Musica Ligera;
#SUBTITLE:;
#ARTIST:Soda Stereo;
#TITLETRANSLIT:;
#SUBTITLETRANSLIT:;
#ARTISTTRANSLIT:;
#CREDIT:;
#BANNER:De Musica Ligera.png;
#BACKGROUND:De Musica Ligera - bg.png;
#LYRICSPATH:;
#CDTITLE:cdtitle.png;
#MUSIC:De musica ligera.ogg;
#OFFSET:-0.480;
#SAMPLESTART:46.309;
#SAMPLELENGTH:14.800;
#SELECTABLE:YES;
#DISPLAYBPM:124.000;
#BPMS:0.000=124.200,271.000=496.800,335.000=62.100;
#STOPS:335.000=0.240
;
#BGCHANGES:;

//---------------dance-single - ----------------
#NOTES:
     dance-single:
     :
     Hard:
     9:
     0.606,0.778,0.265,1.000,0.288: // measure 1
0000
0000
0000
0000
,  // measure 2
0000
0000
0000
0000
0000
0000
2000
3000
,  // measure 3
0002
0000
0003
1000
0100
0000
0100
0000
0002
0000
0000
0000
0203
0000
0000
0000
,  // measure 4
2300
0000
3000
0010
0100
0000
0001
0000
0010
0000
0100
0000
2000
0000
3000
0000
,  // measure 5
0002
0000
0003
1000
0010
0000
0010
0000
0002
0000
0000
0000
0023
0000
0000
0000
,  // measure 6
2030
0000
3000
0100
0010
0000
0001
0000
0100
0000
0010
0000
2000
0000
3000
0000
,  // measure 7
0200
0000
0300
1000
0001
0000
0001
0000
0201
0000
0000
0300
0120
0000
0000
0030
,  // measure 8
2010
0000
0000
3001
0010
0000
0010
0000
0001
0100
0001
0100
0001
0000
0000
0000
,  // measure 9
1000
0000
0000
0001
0010
0000
0010
0000
0001
0000
0000
0000
1000
0000
0000
0000
,  // measure 10
0001
0000
0000
1000
0010
0000
0010
0000
1000
0000
0000
0000
0001
0000
0000
0000
,  // measure 11
0010
0000
0000
0001
0100
0000
0100
0000
0001
0000
0000
0000
0010
0000
0000
0000
,  // measure 12
0100
0000
0000
1000
0010
0000
0010
0000
1000
0000
0000
0000
0001
0000
0000
0000
,  // measure 13
1000
0000
0000
0001
0100
0000
0100
0000
0001
0000
0000
0000
1000
0000
0000
0000
,  // measure 14
0001
0000
0000
1000
0100
0000
0100
0000
1000
0000
0000
0000
0001
0000
0000
0000
,  // measure 15
0100
0000
0000
0001
0010
0000
0010
0000
0001
0000
0000
0000
0100
0000
0000
0000
,  // measure 16
0010
0000
0000
1000
0100
0000
0100
0000
1000
0000
0001
0100
0001
0000
0010
0000
,  // measure 17
0100
1000
0001
1000
2020
3030
2002
3003
,  // measure 18
2002
3003
0001
0001
0010
0000
0001
0100
,  // measure 19
0010
1000
0100
1000
2002
3003
0202
0303
,  // measure 20
0202
0303
0100
0100
0010
0000
1000
0010
,  // measure 21
0100
0001
1000
0001
0022
0033
2002
3003
,  // measure 22
2002
3003
1000
1000
0010
0000
1000
0100
,  // measure 23
0010
0000
0001
0000
0100
0000
0001
0000
2002
0000
3003
0000
1100
0000
1000
0001
,  // measure 24
1000
0001
1000
0001
0010
0001
0010
0001
0010
0001
0010
0001
0010
0000
0100
0000
,  // measure 25
1000
0000
0020
0000
0000
0000
0000
0030
0120
0000
0000
0030
2010
0000
0000
3000
,  // measure 26
1020
0130
0001
0100
1000
0100
0001
2000
,  // measure 27
0000
0000
0000
0000
0000
0000
0000
3000
2010
0000
0000
3000
1002
0000
0000
0003
,  // measure 28
0021
0000
0030
0001
1000
0000
0100
0000
0010
0000
0100
0000
1000
0000
1000
0000
,  // measure 29
0001
0000
0200
0000
0300
0020
0000
0000
2000
0000
3000
0000
0230
0000
0300
0000
,  // measure 30
0002
0003
1000
0001
0020
0000
0000
0100
,  // measure 31
0200
0000
0000
0000
0000
0000
0330
0000
0012
0000
0000
0003
2001
0000
0000
3001
,  // measure 32
0100
0000
0100
0000
0001
0000
1000
0100
1000
0100
0010
0001
0020
0000
0000
0000
,  // measure 33
0000
0230
0000
0000
0302
0000
0000
0203
,  // measure 34
0000
2300
3002
0203
,  // measure 35
0000
0000
0320
0000
0000
0000
0230
0000
0000
0000
0000
0000
0301
0010
0100
0010
,  // measure 36
0002
0000
0000
0000
0203
0000
0000
0000
0320
0000
0000
0030
2010
0000
0000
0000
,  // measure 37
3200
0000
0302
0000
0203
0000
2300
3020
,  // measure 38
0230
0000
0302
0000
0000
0000
2003
0000
3020
0000
0230
0000
0300
0000
0001
1000
,  // measure 39
0100
0000
1000
0000
0010
0000
0100
0001
0010
0000
0001
0000
1000
0000
0010
0100
,  // measure 40
0010
0000
1000
0100
1000
0000
0001
0100
0010
1000
0100
1000
0020
0000
0000
0000
,  // measure 41
0000
0032
0023
0000
0000
2030
3200
0320
,  // measure 42
0230
2300
0000
0000
3002
0203
0302
0000
,  // measure 43
0023
0000
2030
0000
3200
0000
0302
0023
,  // measure 44
0230
0000
2300
0000
0000
0000
3002
0000
0000
0000
1003
0001
2000
0000
0000
0000
,  // measure 45
0000
0000
3000
0000
0001
0010
0100
0010
0200
0000
0000
0000
0000
0000
0320
0000
,  // measure 46
0000
0000
0030
0000
0001
0100
0010
1000
0020
0000
0000
0000
0000
0000
0230
0000
,  // measure 47
0000
0000
0300
0000
0001
1000
0100
0010
0200
0000
1300
0000
0001
0100
0001
0100
,  // measure 48
0010
0100
0010
0100
0010
1000
0010
1000
0001
1000
0001
1000
0010
0000
0100
0000
,  // measure 49
0001
0000
0020
0000
0000
0000
0000
0030
0120
0000
0000
0030
0012
0000
0000
0003
,  // measure 50
0021
0130
1000
0100
0001
0100
1000
0002
,  // measure 51
0000
0000
0000
0000
0000
0000
0000
0003
0012
0000
0000
0003
2001
0000
0000
3000
,  // measure 52
1020
0000
0030
1000
0001
0000
0100
0000
0010
0000
0100
0000
0001
0000
0001
0000
,  // measure 53
1000
0000
0200
0000
0300
0020
0000
0000
0002
0000
0003
0000
0230
0000
0300
0000
,  // measure 54
2000
3000
0001
1000
0020
0000
0000
0000
,  // measure 55
0100
0000
0200
0000
0000
0000
0330
0000
2010
0000
0000
3000
1002
0000
0000
0003
,  // measure 56
0100
0000
0100
0001
1000
0000
0001
0100
0001
0010
0001
0010
0001
0000
0000
0000
,  // measure 57
1000
0010
0100
0010
0000
1000
0100
0010
0001
0100
0010
0100
0002
0000
0003
0020
,  // measure 58
0000
0030
2000
0000
3020
0000
0030
0002
0000
0003
0100
0000
0100
0000
0000
1000
,  // measure 59
0000
0100
0000
0100
0000
0000
0000
0000
0101
0000
0000
0000
0001
0010
0001
0010
,  // measure 60
0001
1000
0001
1000
0001
0100
0001
0100
0001
0010
0001
0010
0002
0000
0003
0000
,  // measure 61
2000
0000
3000
0001
0100
0000
0100
0000
2000
0000
0000
0000
3200
0000
0000
0000
,  // measure 62
0302
0000
0003
0010
0100
0000
1000
0000
0010
0000
0100
0000
0002
0000
0003
0000
,  // measure 63
2000
0000
3000
0001
0010
0000
0010
0000
2000
0000
0000
0000
3020
0000
0000
0000
,  // measure 64
0032
0000
0003
0100
0010
0000
1000
0000
0100
0000
0010
0000
0002
0000
0003
0000
,  // measure 65
0020
0000
0030
0001
0100
0000
0100
0000
0020
0000
0000
0000
2030
0000
0000
0000
,  // measure 66
3200
0000
0300
1000
0010
0000
0001
0000
0010
0000
0100
0000
0002
0000
0000
0000
,  // measure 67
0203
0000
0000
0000
2300
0000
0000
0000
3200
0000
0000
0300
0102
0000
0000
0003
,  // measure 68
0021
0000
0000
0030
0210
0000
0000
0300
2100
0000
0000
3000
2002
0000
0000
0000
,  // measure 69
0000
0000
0000
0000
,  // measure 70
0000
0000
0000
0M00
,  // measure 71
00M0
0M00
00M0
0M00
,  // measure 72
00M0
0M00
00M0
0M00
,  // measure 73
00M0
0M00
00M0
0M00
,  // measure 74
00M0
0M00
00M0
0M00
,  // measure 75
00M0
0M00
00M0
0M00
,  // measure 76
0000
00M0
0000
0M00
,  // measure 77
0000
00M0
0000
0M00
,  // measure 78
0000
00M0
0000
0M00
,  // measure 79
0000
00M0
0000
0M00
,  // measure 80
0000
00M0
0000
0M00
,  // measure 81
0000
00M0
0000
0M00
,  // measure 82
0000
0000
00M0
0000
,  // measure 83
0000
0M00
0000
0000
,  // measure 84
00M0
0000
0000
0000
0000
0000
3M03
1010
,  // measure 85
2002
0000
0000
0000
,  // measure 86
3003
0000
0000
0000
;
