#TITLE:Beautiful Ones;
#SUBTITLE:;
#ARTIST:Suede;
#TITLETRANSLIT:;
#SUBTITLETRANSLIT:;
#ARTISTTRANSLIT:;
#CREDIT:;
#BANNER:;
#BACKGROUND:;
#LYRICSPATH:;
#CDTITLE:;
#MUSIC:Beautiful Ones.mp3;
#OFFSET:-7.910;
#SAMPLESTART:58.920;
#SAMPLELENGTH:9.710;
#SELECTABLE:YES;
#DISPLAYBPM:99.000;
#BPMS:0.000=98.841;
#STOPS:;
#BGCHANGES:;

//---------------dance-single - ----------------
#NOTES:
     dance-single:
     :
     Hard:
     7:
     0.418,0.359,0.318,0.242,0.063: // measure 1
1000
0000
0100
0000
1000
0100
0000
0010
0001
0000
0000
0001
0100
0000
0010
0000
,  // measure 2
1000
0000
0100
1000
0100
0000
1000
0000
0001
0000
0100
0000
0010
0000
1000
0000
,  // measure 3
0100
0000
0010
0100
0000
0010
0100
0000
0010
0000
0001
0000
1000
0000
0001
0000
,  // measure 4
0100
0000
0001
0010
0000
0001
1000
0000
0001
0000
1000
0000
0100
0000
0001
0000
,  // measure 5
0100
0010
0001
2000
0000
0010
3010
0000
,  // measure 6
1100
0000
1001
0000
0001
0100
0010
0200
,  // measure 7
0000
0001
0301
0000
0001
0010
0100
0020
,  // measure 8
0000
0001
0031
0000
1000
0001
0100
0020
,  // measure 9
0000
1030
0100
0020
0000
0130
0110
0000
,  // measure 10
0010
0001
0100
0010
0100
0001
1000
1200
,  // measure 11
0000
1000
1300
0000
1000
0001
0100
0200
,  // measure 12
0000
0001
0301
0000
0001
0100
0010
2000
,  // measure 13
0000
3100
0010
0002
0000
0103
0101
0000
,  // measure 14
0001
0000
0100
0001
0100
0000
0010
0000
1000
0000
0100
0000
0010
0000
0200
0000
,  // measure 15
0000
1000
1300
0100
0010
0001
0100
0002
,  // measure 16
0000
1000
1003
0100
1000
0010
0100
0002
,  // measure 17
0000
0000
0010
0013
0001
1000
1010
0000
,  // measure 18
1001
0000
1100
0000
0010
0001
1000
0200
,  // measure 19
0000
0301
0100
1000
0010
0100
0001
0200
,  // measure 20
0000
1300
0100
0010
1000
0100
0010
1001
,  // measure 21
0000
1000
0010
0101
0000
0001
1100
0000
,  // measure 22
1001
0000
0000
0001
0100
0000
0010
0000
2000
0000
0010
0000
3001
0000
1000
0000
,  // measure 23
0100
0001
0100
2000
0000
0001
3001
0100
,  // measure 24
0010
0001
0010
2000
0000
0001
3001
0100
,  // measure 25
0101
0000
0011
0000
1100
0100
1010
0000
,  // measure 26
1001
0000
0000
1000
0100
0000
1000
0000
0002
0000
1000
0000
0103
0000
0001
0000
,  // measure 27
1000
0100
0001
0200
0000
1300
0001
1000
,  // measure 28
0010
0001
0010
2000
0000
3001
0010
0001
,  // measure 29
1100
0000
0000
0000
1001
0000
0000
0000
0001
0000
0100
0000
0001
0100
0001
0000
,  // measure 30
1000
0100
0010
0002
0000
0103
0001
1000
,  // measure 31
0001
0100
0010
2000
0000
3010
0100
0001
,  // measure 32
0010
0001
0202
0000
0303
0010
1000
0100
,  // measure 33
1100
0000
1001
0000
0001
0100
1001
0000
,  // measure 34
1100
0000
0001
0200
0000
0310
1000
0100
,  // measure 35
0010
0000
0100
0020
0000
0031
0100
0001
,  // measure 36
0101
0000
0010
2000
0000
3001
1000
0100
,  // measure 37
1100
0101
1100
0110
,  // measure 38
2002
0000
0000
3003
,  // measure 39
0001
0000
0100
0000
0001
0100
0000
0010
1000
0000
0001
0000
1000
0001
1000
0000
,  // measure 40
0101
0000
1010
0000
1000
0100
0010
0011
,  // measure 41
0000
0001
0100
0010
1000
0100
0010
0110
,  // measure 42
0000
0100
1000
0001
0100
0010
1000
1010
,  // measure 43
0000
0010
0100
0101
0000
0001
0011
0000
,  // measure 44
1001
0000
0000
0000
;

//---------------dance-single - ----------------
#NOTES:
     dance-single:
     :
     Beginner:
     1:
     0.092,0.108,0.050,0.000,0.000: // measure 1
0000
0000
0000
0000
,  // measure 2
1001
0000
0000
0000
,  // measure 3
0001
0000
0100
0000
,  // measure 4
0001
0000
1000
0000
,  // measure 5
0100
0000
0000
0000
,  // measure 6
1001
0000
0001
0000
,  // measure 7
0100
0000
0000
0000
,  // measure 8
0001
0000
0000
0000
,  // measure 9
1000
0000
0100
0000
,  // measure 10
0010
0000
0100
0000
,  // measure 11
0010
0000
0000
0000
,  // measure 12
0001
0000
0000
0000
,  // measure 13
1000
0000
0001
0000
,  // measure 14
1001
0000
1000
0000
,  // measure 15
0010
0000
0000
0000
,  // measure 16
1000
0000
0000
0000
,  // measure 17
0001
0000
0010
0000
,  // measure 18
0001
0000
0100
0000
,  // measure 19
0010
0000
0000
0000
,  // measure 20
0100
0000
0000
0000
,  // measure 21
0010
0000
0100
0000
,  // measure 22
1001
0000
0001
0000
,  // measure 23
0100
0000
0001
0000
,  // measure 24
1000
0000
0100
0000
,  // measure 25
0010
0000
0010
0000
,  // measure 26
0100
0000
0010
0000
,  // measure 27
0100
0000
1000
0000
,  // measure 28
0001
0000
1000
0000
,  // measure 29
1001
0000
0000
0000
,  // measure 30
1001
0000
0000
0010
,  // measure 31
0010
0000
0000
0100
,  // measure 32
0100
0000
0000
0000
,  // measure 33
0001
0000
1000
0000
,  // measure 34
0001
0000
0000
0100
,  // measure 35
0100
0000
0000
0010
,  // measure 36
0010
0000
0000
0000
,  // measure 37
1000
1000
1000
1000
,  // measure 38
1000
0000
0000
0000
,  // measure 39
0000
0000
0000
0000
,  // measure 40
1000
0000
0001
0000
,  // measure 41
1000
0000
0100
0000
,  // measure 42
0010
0000
0001
0000
,  // measure 43
1000
0000
0001
0000
,  // measure 44
0100
0000
0000
0000
;

//---------------dance-single - ----------------
#NOTES:
     dance-single:
     :
     Easy:
     2:
     0.174,0.198,0.109,0.033,0.000: // measure 1
0000
0000
0000
0000
,  // measure 2
1001
0000
0001
0100
,  // measure 3
0001
0000
1000
0100
,  // measure 4
0010
0000
0100
0010
,  // measure 5
0001
1000
0001
0100
,  // measure 6
0010
0000
0010
0100
,  // measure 7
0010
0010
0100
0000
,  // measure 8
0001
0001
1000
0000
,  // measure 9
0001
0010
0001
1000
,  // measure 10
0100
1000
0001
0000
,  // measure 11
1000
1000
0001
0000
,  // measure 12
0100
0100
0010
0000
,  // measure 13
1000
0010
0100
0001
,  // measure 14
1000
1000
1000
0000
,  // measure 15
0001
0001
0001
0000
,  // measure 16
0100
0010
0100
0010
,  // measure 17
1000
0100
0010
0001
,  // measure 18
0100
0001
0100
0000
,  // measure 19
0010
1000
0001
0000
,  // measure 20
1000
0100
0010
0001
,  // measure 21
1000
0001
1000
0010
,  // measure 22
0210
0000
0310
1000
,  // measure 23
0001
1000
0100
0000
,  // measure 24
0010
0001
1000
0000
,  // measure 25
0001
0001
1000
1000
,  // measure 26
0002
0000
1003
0000
,  // measure 27
0001
0100
0010
0000
,  // measure 28
1000
0100
0010
0000
,  // measure 29
1001
1001
1001
0000
,  // measure 30
1001
0000
0001
0100
,  // measure 31
0001
0000
1000
0100
,  // measure 32
0110
0000
0010
0000
,  // measure 33
1000
1000
1000
1000
,  // measure 34
1001
0000
0001
0100
,  // measure 35
0001
0000
1000
0100
,  // measure 36
0010
0000
0100
0000
,  // measure 37
0110
0110
0110
0110
,  // measure 38
0220
0000
0000
0000
,  // measure 39
0000
0000
0330
0000
,  // measure 40
1000
0000
0001
0000
,  // measure 41
0100
0100
0010
0000
,  // measure 42
0010
0010
1000
0000
,  // measure 43
0001
1000
0001
1000
,  // measure 44
0100
0000
0000
0000
;

//---------------dance-single - ----------------
#NOTES:
     dance-single:
     :
     Medium:
     5:
     0.314,0.270,0.251,0.109,0.004: // measure 1
1000
0000
0001
0000
0000
0001
0000
0000
0001
0000
0000
0000
1000
0000
0001
0000
,  // measure 2
1000
0001
0100
0000
0010
1000
0100
2000
,  // measure 3
0000
0001
3001
0000
0001
0100
0010
2000
,  // measure 4
0000
0100
3100
0000
0100
0010
0001
0100
,  // measure 5
0010
0000
1000
0100
0010
0001
1000
0000
,  // measure 6
1001
0000
1001
0000
0001
0100
0001
1000
,  // measure 7
0000
1000
0001
0000
1000
0000
0100
0010
,  // measure 8
0000
0010
0001
0000
1000
0000
0001
0100
,  // measure 9
0000
0100
0001
1000
0000
1000
0100
0000
,  // measure 10
1001
0000
1001
0000
1000
0100
1000
0001
,  // measure 11
0000
0001
0100
0000
0010
0000
1000
0100
,  // measure 12
0000
0010
0001
0000
1000
0000
0001
0010
,  // measure 13
0000
0010
0001
1000
0000
1000
0001
0000
,  // measure 14
0110
0000
1001
0000
1000
0100
0000
1001
,  // measure 15
0000
0001
0100
0000
0010
1000
0000
1100
,  // measure 16
0000
0100
0010
0000
0010
0001
1000
0001
,  // measure 17
0000
0100
0010
1000
0000
0001
0100
0000
,  // measure 18
0101
0000
1001
0000
1000
0100
0000
0011
,  // measure 19
0000
0001
0100
0000
0010
1000
0100
0010
,  // measure 20
0000
0100
0010
0000
0100
0010
0001
1000
,  // measure 21
0000
0001
0100
0001
0000
1000
0100
0000
,  // measure 22
1002
0000
0103
0001
0100
0000
0001
0000
,  // measure 23
1000
0100
1000
0200
0000
0000
0310
0000
,  // measure 24
0001
0100
0001
0200
0000
0000
0310
0000
,  // measure 25
1010
1100
0011
0101
,  // measure 26
1001
0000
0001
2000
0000
0000
3100
0000
,  // measure 27
1000
0100
0010
0002
0000
0000
0103
0000
,  // measure 28
0001
0100
0010
2000
0000
0000
3100
0000
,  // measure 29
1100
0000
1001
0000
0001
0100
0001
0100
,  // measure 30
0010
0000
0100
0000
0010
1000
0010
1000
,  // measure 31
0100
0000
1000
0000
0001
0010
0001
1000
,  // measure 32
0100
0000
1000
0000
0001
0100
0010
0000
,  // measure 33
0110
0000
1001
0000
0110
0000
0010
1000
,  // measure 34
0002
0000
0000
0103
0000
0000
1000
0001
,  // measure 35
2000
0000
0000
3100
0000
0000
1000
0001
,  // measure 36
0020
0000
0000
0130
0000
0000
0010
0000
,  // measure 37
0011
0000
0101
0000
0010
1000
0100
0000
,  // measure 38
2002
0000
0000
0000
,  // measure 39
0000
3003
1001
0110
,  // measure 40
1001
0000
0101
0000
0010
1000
0010
1000
,  // measure 41
0000
0001
0100
0000
0001
0010
0001
0010
,  // measure 42
0000
0100
1000
0000
0001
1000
0001
0100
,  // measure 43
0000
0010
1000
0100
0000
0010
0001
0000
,  // measure 44
1001
0000
0000
0000
;
