#TITLE:All I Want;
#SUBTITLE:;
#ARTIST:The Offspring;
#TITLETRANSLIT:;
#SUBTITLETRANSLIT:;
#ARTISTTRANSLIT:;
#GENRE:Skate Punk;
#CREDIT:;
#BANNER:All I Want-bn.png;
#BACKGROUND:All I Want-bg.png;
#LYRICSPATH:;
#CDTITLE:cdtitle.png;
#MUSIC:All I Want.ogg;
#OFFSET:-0.150000;
#SAMPLESTART:99.830002;
#SAMPLELENGTH:12.000000;
#SELECTABLE:YES;
#BPMS:0.000000=173.000000
;
#STOPS:
;
#BGCHANGES:0.750=All I Want.mp4=1.000=0=0=1=====,
99999=-nosongbg-=1.000=0=0=0 // don't automatically add -songbackground-
;
#KEYSOUNDS:;
#ATTACKS:;

//---------------dance-single - ----------------
#NOTES:
     dance-single:
     :
     Hard:
     9:
     0.684784,0.780711,0.362607,0.300699,0.075175,542.000000,501.000000,41.000000,34.000000,0.000000,0.000000,0.684784,0.780711,0.362607,0.300699,0.075175,542.000000,501.000000,41.000000,34.000000,0.000000,0.000000:
// measure 0
0000
0000
0000
0000
,  // measure 1
0000
0000
0000
0000
1001
0000
0001
0000
0000
0000
0100
0010
0100
0000
0001
0000
,  // measure 2
0000
0000
1000
0001
0100
0000
0010
0000
0000
0000
0010
0100
0010
0000
1000
0000
,  // measure 3
0000
0000
0001
1000
0010
0000
0100
0000
0000
0000
0100
0010
0100
0000
0001
0000
,  // measure 4
0000
0000
0001
1000
0010
0000
1000
0000
0000
0000
1000
0010
1000
0000
0001
0000
,  // measure 5
0100
0001
0101
1000
0001
0100
0001
0010
,  // measure 6
0001
0010
1000
0010
0001
0010
0100
1000
,  // measure 7
0001
1000
0010
0010
0100
0001
0001
1000
,  // measure 8
0010
0100
1000
0100
0010
0200
0301
0200
,  // measure 9
0310
0110
0010
1000
0001
1000
0100
0010
,  // measure 10
0001
0010
1000
0010
0001
1000
0001
0100
,  // measure 11
0001
0001
0001
0010
0100
0100
1000
0001
,  // measure 12
1000
0010
1000
0100
2000
3001
2000
3010
,  // measure 13
1010
0010
0000
1000
1000
0001
0001
0100
,  // measure 14
0001
0001
0000
0010
0010
0000
0001
1000
,  // measure 15
0010
0010
0000
0100
0100
0000
0010
0000
,  // measure 16
1000
0001
0100
0000
0001
0100
0010
0100
,  // measure 17
0001
0101
0100
0000
0001
1000
0000
1000
,  // measure 18
0010
0100
0100
0000
0001
0001
0000
0010
,  // measure 19
0100
1000
0000
0100
0000
0010
0000
0001
,  // measure 20
0000
0001
0010
0100
1000
0010
1000
0000
,  // measure 21
1000
2010
0001
0010
,  // measure 22
0100
0000
0000
0000
3010
0000
1000
0000
0001
1000
0010
0000
1000
0000
0000
0000
,  // measure 23
1000
1002
0100
0010
,  // measure 24
0100
0003
2001
0000
3010
1000
0010
0000
,  // measure 25
0100
0210
1000
0010
,  // measure 26
1000
0000
0000
0000
0310
0000
0100
0000
0001
1000
0010
0000
1000
0000
0000
0000
,  // measure 27
1000
1020
0100
1000
,  // measure 28
0100
0030
2000
0010
3000
1000
0000
0010
,  // measure 29
0000
0000
0100
0000
0000
0000
0110
0000
0100
0000
0001
0000
1000
0001
0100
0000
,  // measure 30
0001
0000
0000
0000
0001
1000
0010
0000
0100
0000
0000
0000
0100
0010
0100
0000
,  // measure 31
0001
0000
0000
0000
0001
1000
0010
0000
1000
0000
0000
0000
1000
0010
0100
0000
,  // measure 32
0001
0000
0000
0000
0001
1000
0001
0000
0100
0000
0000
0000
0100
0000
0010
0000
,  // measure 33
0100
0010
0110
0100
0001
1000
0001
0100
,  // measure 34
0001
0010
0100
0010
0001
1000
0001
0100
,  // measure 35
0010
1000
1000
1000
0001
0100
0100
0001
,  // measure 36
1000
1000
0100
0010
0010
0001
2000
3010
,  // measure 37
2000
3001
1001
0001
0100
0001
1000
0010
,  // measure 38
0100
0001
1000
0010
1000
0100
1000
0010
,  // measure 39
0100
0001
0001
1000
0010
0010
0100
0001
,  // measure 40
1000
0010
0100
0001
1000
0002
0103
0002
,  // measure 41
0013
0011
0010
0000
0001
0001
1000
1000
,  // measure 42
0010
1000
1000
0000
0100
0100
1000
0001
,  // measure 43
0100
0010
0010
0000
0100
0100
0000
0001
,  // measure 44
1000
0001
0001
0000
0100
0100
0001
1000
,  // measure 45
0010
0100
0110
0000
0001
0001
1000
0001
,  // measure 46
0100
0010
0100
0001
0000
0001
1000
0001
,  // measure 47
0000
0100
0010
0000
0100
0000
0001
0000
,  // measure 48
1000
0000
0010
1000
0010
1000
0001
0000
,  // measure 49
0001
2001
0010
0100
,  // measure 50
0010
0000
3001
1000
0010
0000
0010
0100
,  // measure 51
0000
0100
0000
0200
0010
0000
1000
0000
,  // measure 52
0010
0000
0301
0002
0100
0003
0001
0100
,  // measure 53
0000
0100
0000
0200
0010
0000
1000
0000
,  // measure 54
0010
0000
1000
0000
0310
0100
0001
1000
,  // measure 55
0000
1000
0000
2000
0001
0000
0010
0000
,  // measure 56
0100
0000
3010
0020
1000
0000
1030
0010
,  // measure 57
1000
0001
0100
0001
0101
0101
0000
0110
,  // measure 58
0110
0000
1001
0000
1001
1001
0000
1010
,  // measure 59
1010
0000
1100
0000
1100
1100
0000
0110
,  // measure 60
0110
0000
0011
0000
0001
0010
0001
0010
,  // measure 61
0001
0010
0001
0010
0100
0010
0100
0010
,  // measure 62
0100
0010
0100
1000
0100
1000
0100
1000
,  // measure 63
0100
1000
0000
2000
0000
3200
0000
0320
,  // measure 64
0000
0032
0000
0013
0001
1000
0001
0100
,  // measure 65
0001
0010
0100
0010
0001
1000
0001
0000
,  // measure 66
0100
0010
0100
0001
0100
0010
0100
0000
,  // measure 67
0001
0000
0001
1000
0010
1000
0100
1000
,  // measure 68
0010
0100
0110
0001
1000
0001
0100
0001
,  // measure 69
1000
0100
0010
0001
1000
0001
0100
0000
,  // measure 70
0100
0010
2000
0000
3200
0000
0320
0000
,  // measure 71
0032
0000
0000
0000
0023
0000
0000
0000
0031
0000
0000
1000
0001
0000
0000
0000
,  // measure 72
0010
0210
1000
0010
,  // measure 73
1000
0000
0310
0100
1000
0100
0001
0000
,  // measure 74
1000
2001
0010
0100
,  // measure 75
0010
0000
0000
0000
3002
0000
0000
0000
1003
0000
0000
0001
0100
0000
0000
0000
,  // measure 76
0001
0201
0010
0001
,  // measure 77
0010
0001
0010
0001
,  // measure 78
0010
0302
0100
1000
,  // measure 79
0103
0000
0101
0101
0000
1010
1010
0000
,  // measure 80
0110
0110
0000
0000
;
