#TITLE:A Man Without Love;
#SUBTITLE:;
#ARTIST:Englebert Humperdinck;
#TITLETRANSLIT:;
#SUBTITLETRANSLIT:;
#ARTISTTRANSLIT:;
#CREDIT:;
#BANNER:A Man Without Love.png;
#BACKGROUND:A Man Without Love-bg.png;
#LYRICSPATH:;
#CDTITLE:;
#MUSIC:A Man Without Love.ogg;
#OFFSET:-0.921;
#SAMPLESTART:60.022;
#SAMPLELENGTH:12.000;
#SELECTABLE:YES;
#BPMS:0.000=110.700,72.000=112.000,99.000=104.000,103.000=55.000,104.000=57.500,105.000=52.500,106.000=110.000,114.000=112.000,121.000=116.000,122.000=112.000,164.000=51.100,166.000=65.000,167.000=36.920,168.000=110.400,176.000=102.740,177.000=112.220,178.000=99.040,179.000=84.600;
#STOPS:;
#BGCHANGES:;

//---------------dance-single - ----------------
#NOTES:
     dance-single:
     :
     Hard:
     6:
     0.389,0.404,0.065,0.167,0.153:
0000
0000
0000
0000
,
0000
0000
0000
0000
,
0000
0000
0000
0000
,
0000
0000
0000
0000
,
1000
0001
0000
0001
0100
0001
1000
0000
,
1000
0000
0100
0000
0000
0000
0100
0000
1000
0000
0000
0001
0000
0000
0100
0000
,
0001
1000
0000
1000
0001
0100
0001
0000
,
1000
0001
0000
0001
1000
0100
1000
0001
,
0100
0000
0000
1000
0000
0000
0100
0000
0001
0000
0010
0000
1000
0000
0000
0000
,
0010
0100
0000
0100
1000
0001
1000
0100
,
0010
0001
0000
0001
1000
0010
1000
0000
,
0001
0000
1000
0000
0001
1000
0001
0100
0001
0000
0010
0000
0001
0000
1000
0000
,
0100
0000
0000
1000
0000
0000
0001
0000
1000
0000
0100
0000
1000
0000
0000
0000
,
1000
0001
0000
0001
1000
0100
1000
0000
,
1000
0001
0000
0001
0100
0001
1000
0010
,
1000
0000
0000
0001
0000
0000
1000
0000
0001
0000
1000
0000
0100
0000
0010
0000
0001
0000
1000
0000
0000
0100
0000
0000
,
0001
0000
0000
0100
0000
0000
0010
0000
0001
0000
0000
0000
0011
0000
0000
0000
,
0001
0010
0000
0010
0100
1000
0001
0000
,
1000
0000
0000
0001
0000
0000
0000
0000
0000
0001
0000
0000
0100
0000
0010
0000
1000
0000
0001
0000
0000
0000
0000
0000
,
1000
0100
0010
0100
0001
0100
0010
0001
,
0100
1000
0100
0001
0100
0010
0100
1000
,
0100
0001
0000
0100
0001
0001
0100
0010
,
1000
1000
0000
1000
0100
0100
0001
0000
,
0100
0000
0010
0001
1000
0001
0010
0000
0100
0000
0100
0000
0010
0000
0001
0000
,
1000
0000
0000
0000
0001
0000
0100
0000
1000
0000
0000
0100
0000
0000
0010
0000
,
2002
0000
0000
0000
0000
3003
2000
0000
,
3200
0000
0320
0000
0031
0100
1000
0100
,
0020
0000
0000
0030
MMMM
0000
0000
0000
1000
0000
0100
0000
0001
0000
0100
0000
,
0020
0000
0000
0000
0030
0000
MMMM
0000
0000
0000
0000
0000
0001
0000
0000
0100
0000
0000
1000
0000
0000
0100
0000
0000
,
0010
0000
0000
1000
0000
0100
0000
0000
0001
0000
0000
0000
0101
0000
0100
0000
,
0120
0000
0031
0000
0001
0100
1000
0100
,
0001
1000
MMMM
0000
0100
0001
0100
1000
,
0010
0000
0000
0100
0000
0000
MMMM
0000
0000
0000
0000
0000
0001
0000
0000
0100
0000
0000
0010
0000
1000
0000
0000
0001
,
0000
0000
0000
0000
0010
0000
0100
0000
0000
0000
0000
0000
1000
0000
0000
0100
0000
0000
0001
0000
0000
0100
0000
0000
,
1000
0000
0100
0000
0010
0000
0000
0000
0001
0100
0001
0100
0010
0000
1000
0000
,
0002
0000
0000
0003
MMMM
0000
0000
0000
1000
0100
1000
0100
0010
0000
0001
0000
,
2000
0000
0000
3000
MMMM
0000
0000
0000
0001
1000
0001
1000
0010
0000
0100
0000
,
0001
0000
0000
0010
1000
0000
0001
0000
0100
0000
0000
0000
0101
0000
0100
0000
,
0210
0000
0000
0000
1300
0000
0000
0000
1000
0010
1000
0010
0100
0000
0001
0000
,
1000
0000
0001
0000
MMMM
0000
0000
0000
0001
0010
0001
0010
0100
0000
1000
0000
,
0010
0000
0000
0100
0000
0000
MMMM
0000
0000
0000
0000
0000
0001
0000
0000
0100
0000
0000
0010
0000
1000
0000
0000
0002
,
0000
0000
0000
0000
0000
0003
0020
0000
0000
2030
0000
0000
,
3001
0000
0100
0000
1000
0000
0010
0000
0002
0000
0000
0003
MMMM
0000
0000
0000
,
0001
0000
0010
0000
1000
0000
0100
0000
0002
0000
0000
0003
MMMM
0000
0000
0000
,
0001
0100
1000
0100
0010
0001
0100
1000
,
2002
0000
0000
0000
,
3003
0000
0000
0000
;

//---------------dance-single - ----------------
#NOTES:
     dance-single:
     :
     Medium:
     6:
     0.366,0.362,0.167,0.231,0.180:
0000
0000
0000
0000
,
0000
0000
0000
0000
,
0000
0000
0000
0000
,
0000
0000
0000
0000
,
1000
0100
0000
0100
1000
0020
0000
0000
,
0032
0000
0000
0000
0000
0000
0000
0000
1003
0000
0000
0100
0000
0000
0001
0000
,
0020
1000
0230
0001
,
1000
0000
0000
0000
0000
0000
0310
0000
0000
0000
0001
0010
0000
0000
0000
0001
0000
0000
1000
0000
0000
0001
0000
0000
,
1000
0000
0000
0100
0000
0000
1000
0000
0001
0000
0100
0000
0000
0000
0020
0000
,
0000
0000
0000
0000
0000
0000
0000
0000
0000
0000
0000
0000
0030
0000
0000
0001
0000
0000
0000
0000
0010
0000
0000
0000
,
0000
1000
0000
0001
0000
1000
0000
0200
0000
0000
0000
0000
,
0001
0000
0000
0000
0000
0000
0000
0000
0000
0000
0000
0000
1300
0000
0000
0000
0000
0000
0100
0000
0000
0010
0000
0000
0000
0000
0001
0000
0000
0000
0000
0000
1000
0000
0000
0000
0001
0000
0000
0000
0000
0000
0000
0000
0010
0000
0000
0000
,
0100
0000
0000
1000
0000
0000
0001
0000
0200
0000
0000
0000
0000
0000
1300
0200
,
0000
0000
0000
0000
0000
0000
0001
0000
0000
0000
0000
0000
0310
0000
0000
1000
0000
0000
0000
0000
0100
0000
0000
0000
,
0010
0002
0000
0000
1000
0000
0103
0000
,
0001
0000
0000
0000
0000
0000
0010
0000
0001
0000
1000
0000
0010
0000
1000
0000
0001
0000
0100
0000
0000
0010
0000
0000
,
1000
0000
0000
0100
0000
0000
0001
0000
0100
0000
0000
0000
0010
0000
0000
0002
,
0000
0000
0000
0000
0000
0000
0010
0000
0000
0000
0000
0000
0103
0000
0000
0002
0000
0000
0000
0000
0000
0000
1003
0000
,
0000
0100
0000
0001
0000
0100
1000
0001
0000
1000
0000
0000
,
0100
0010
0100
1000
0001
0000
1001
0000
,
0001
0000
0100
1000
0200
0000
0000
0310
,
2000
0000
0000
0000
0000
0000
0100
0000
0000
0000
0000
0000
3001
0000
0000
0100
0000
0000
1000
0000
0000
0000
0100
0000
,
0000
0000
0020
0000
0000
0000
1000
0000
0000
0130
0000
0000
,
0001
0000
0010
0001
1000
0001
0010
0000
0100
1000
0001
0000
0100
0000
0000
0000
,
1000
0000
0000
0000
0100
0000
0010
0000
1000
0000
0000
0100
0000
0000
0010
0000
,
0002
0000
0000
0000
0000
0003
0200
0000
,
0320
0000
2030
0000
3001
0100
1000
0100
,
0010
0000
1001
0000
1000
0100
0001
0100
,
0010
0000
1001
0000
0001
0100
1000
0100
,
0010
0000
0000
1000
0000
0100
0000
0000
0001
0000
0000
0000
0101
0000
0100
0000
,
0010
0000
0001
0000
0100
1000
0100
0010
,
1000
0001
1001
0000
0001
0010
1000
0010
,
0100
0000
0000
1000
0000
0000
1001
0000
0000
0000
0000
0000
0001
0000
0000
0100
0000
0000
1000
0000
0100
0000
0000
0010
,
0000
0000
1000
0001
0000
0000
0101
0000
0000
1100
0000
0000
,
2001
0000
0100
0000
3010
1000
0100
0001
,
0100
0000
1001
0000
0001
0100
1000
0100
,
0010
0000
1001
0000
0001
0010
1000
0010
,
0001
0000
0000
0001
0100
0000
0000
0000
1000
0000
0000
0000
1100
0000
0100
0000
,
0010
0000
1000
0000
0100
0001
0100
0010
,
0001
1000
1001
0000
0001
0100
1000
0100
,
0010
0000
0000
1000
0000
0000
1001
0000
0000
0000
0000
0000
1000
0000
0000
0100
0000
0000
0010
0000
0001
0000
0000
2002
,
0000
0000
0000
0000
0000
3003
2000
0000
0000
3020
0000
0000
,
0031
0010
1000
0100
0001
0000
0101
0000
,
0001
0100
1000
0010
0001
0000
0011
0000
,
0001
0010
1000
0100
0001
0100
0010
0001
,
2002
0000
0000
0000
,
3003
0000
0000
0000
;

//---------------dance-single - ----------------
#NOTES:
     dance-single:
     :
     Easy:
     3:
     0.231,0.277,0.120,0.352,0.000:
0000
0000
0000
0000
,
0000
0000
0000
0000
,
0000
0000
0000
0000
,
0000
0000
0000
0000
,
1000
0000
0002
0003
,
0020
0000
0230
0300
,
2000
0000
3200
0000
,
0001
0000
1000
0000
,
0310
0000
0002
0003
,
0200
0000
0020
0030
,
1300
0000
0200
0001
,
1000
0000
1000
0001
,
0301
0000
0020
0100
,
2030
0000
0000
0010
,
3002
0000
0103
1000
,
0010
0000
0001
0010
,
0001
0000
0020
0030
,
2000
0000
3200
0300
,
0100
0000
0002
0003
,
0100
0000
2000
3000
,
0001
0000
0200
0300
,
2000
0000
3200
0300
,
0020
0000
2030
3100
,
0002
0000
0203
1300
,
0001
0100
1000
0100
,
0120
0000
0000
2030
,
3200
0320
0031
0010
,
1000
1010
0010
0001
,
0100
0101
0100
1000
,
0100
0010
2000
0001
,
0002
3003
1000
0100
,
0001
0101
0001
0100
,
0010
0110
0010
0001
,
0100
1000
0200
0000
,
0000
0300
0010
1000
,
0001
0011
0001
1000
,
0100
1100
1000
0001
,
0100
0010
2000
0001
,
0002
3003
1000
0001
,
0100
0101
0001
1000
,
0010
1010
1000
0001
,
1002
0000
0000
0000
0000
0003
2000
0000
0000
3020
0000
0000
,
0130
0001
0010
0110
,
0100
1000
0010
0110
,
0100
0001
0010
0100
,
2002
0000
0000
0000
,
3003
0000
0000
0000
;

//---------------dance-single - ----------------
#NOTES:
     dance-single:
     :
     Beginner:
     1:
     0.132,0.170,0.019,0.028,0.000:
0000
0000
0000
0000
,
0000
0000
0000
0000
,
0000
0000
0000
0000
,
0000
0000
0000
0000
,
1000
0000
0001
0000
,
1000
0000
0100
0000
,
0010
0000
0100
0000
,
0000
0000
0000
0000
,
1000
0000
0010
0000
,
0001
0000
0000
0010
,
1000
0000
0000
0000
,
0001
0000
0000
0000
,
1000
0000
0100
0000
,
1000
0000
0001
0000
,
0010
0000
0100
0000
,
0000
0000
0000
0000
,
0010
0000
0001
0000
,
1000
0000
0000
0010
,
0001
0000
1000
0000
,
0100
0000
0001
0000
,
1000
0000
0100
0000
,
0010
0000
0000
0000
,
0001
0000
1000
0000
,
0001
0000
0100
0000
,
0001
0000
0100
0000
,
0110
0000
0000
1000
,
0100
0010
0001
0001
,
0001
0000
1000
1000
,
1000
0000
0100
0100
,
0100
0000
0010
0001
,
0001
0000
1000
1000
,
1000
0000
0010
0010
,
0010
0000
0100
0100
,
0100
0000
0001
0000
,
1000
0000
0001
0001
,
0001
0000
0010
0010
,
0010
0000
0100
0100
,
0100
0000
1000
0000
,
0001
0000
1000
1000
,
1000
0000
0010
0010
,
0010
0000
0100
0100
,
0002
0000
1003
0010
,
0100
0100
0100
0000
,
0001
0001
0001
0000
,
1000
1000
1000
1000
,
2002
0000
0000
0000
,
3003
0000
0000
0000
;

//---------------dance-double - ----------------
#NOTES:
     dance-double:
     :
     Hard:
     7:
     0.427,0.468,0.287,0.120,0.157:
00000000
00000000
00000000
00000000
,
00000000
00000000
00000000
00000000
,
00000000
00000000
00000000
00000000
,
00000000
00000000
00000000
00000000
,
00010000
00000000
00000000
00001000
00000000
00000000
00000100
00000000
00000001
00000000
00000010
00000000
00001000
00000000
00000000
00000000
,
00010000
00000000
01000000
00000000
00000000
00000000
01000000
00000000
10000000
00000000
00000000
00100000
00000000
00000000
00010000
00000000
,
00002000
00000000
00000000
00000010
00000000
00000000
00003000
00000000
00000000
00000010
00000001
00000000
00000100
00000000
00000000
00001000
00000000
00000000
00011000
00000000
00000000
00000000
00000000
00000000
,
00010000
01000000
00000000
01000000
10000000
00100000
10100000
00000000
,
00100000
00000000
00000000
10000000
00000000
00000000
01000000
00000000
00010000
00000000
00000000
00001000
00000000
00000000
00000010
00000000
,
00000001
00000100
00000000
00000100
00001000
00010000
01000000
00010000
,
00000010
00001000
00000000
00001000
00000001
00000100
00000101
00000000
,
00000100
00000000
00001000
00000000
00010000
00001000
01000000
00010000
10000000
00000000
01000000
00000000
11000000
00000000
00000000
00000000
,
01000000
00000000
00000000
10000000
00000000
00000000
00100000
00000000
00010000
00000000
00001000
00000000
00011000
00000000
00000000
00000000
,
00001000
00000100
00000000
00000100
00000001
00000010
00000011
00000000
,
00000010
00001000
00000000
00001000
00010000
01000000
11000000
10000000
,
00010000
00000000
00000000
10000000
00000000
00000000
00100000
00000000
10000000
00000000
01000000
00000000
00010000
00000000
00001000
00000000
00000100
00000000
00000001
00000000
00000000
00000100
00000000
00000000
,
00001000
00000000
00000000
00010000
00000000
00000000
01000000
00000000
10000000
00000000
00000000
00000000
00100000
00000000
00010000
00000000
,
00001000
00010000
00000000
00010000
00000100
00001000
00001100
00001000
,
00000001
00000100
00000000
00000100
00000001
00000010
00001010
00000000
,
00000010
00001000
00000000
00001000
00010000
01000000
01010000
00000000
,
01100000
00000000
01000000
10000000
00100000
00000000
00010000
00001000
,
00000100
00000001
00000000
00000001
00000010
00001000
00010000
01000000
,
10000000
10000000
00000000
10000000
01000000
01000000
01010000
00000000
,
00010000
00001000
00000000
00001000
00000100
00000100
00000101
00000000
,
00000001
00000000
00000000
00000000
00000100
00000000
00001000
00000000
00010000
00000000
00000000
00100000
00000000
00000000
10000000
00000000
,
20020000
00000000
00000000
00000000
00000000
30030000
20000000
00000000
,
32000000
00000000
03020000
00000000
00031000
00000100
00000001
00000010
,
00001000
00010000
00011000
00000000
00010000
01000000
10000000
00100000
,
00010000
00001000
00011000
00000000
00010000
00000100
00000001
00000100
,
00000010
00000000
00000000
00000001
00000000
00000100
00000000
00000000
00001000
00000000
00000000
00000000
00001100
00000000
00001000
00000000
,
00012000
00000000
01003000
00000000
00100000
10000000
01000000
00010000
,
01000000
00100000
00110000
00000000
00010000
01000000
10000000
01000000
,
00100000
00000000
00000000
10000000
00000000
00000000
10100000
00000000
00000000
00000000
00000000
00000000
00100000
00000000
00000000
10000000
00000000
00000000
01000000
00000000
00100000
00000000
00000000
00001000
,
00000000
00000000
00000000
00000000
00010000
00000000
00000100
00000000
00000000
00000000
00000000
00000000
00000010
00000000
00000000
00000000
00000000
00000000
00000001
00000000
00000000
00000100
00000000
00000000
,
00001000
00000000
00000100
00000000
00000001
00000000
00000010
00000000
00001000
00010000
00100000
00010000
00001000
00000000
00000010
00000000
,
00001000
00010000
00100000
00000000
00110000
00000000
00000000
00000000
00100000
00010000
00001000
00010000
00100000
00000000
10000000
00000000
,
01000000
00010000
00001000
00000000
00011000
00000000
00000000
00000000
00010000
00000000
00001000
00000000
00000100
00000000
00000001
00000000
,
00000010
00000000
00000000
00001000
00010000
00000000
01000000
00000000
11000000
00000000
00000000
00000000
11000000
00000000
00010000
00000000
,
01010000
00000000
00000000
00000000
00001000
00000000
00000000
00000000
00010000
00000100
00001000
00000100
00010000
00000000
00000010
00000000
,
00000100
00000001
00001000
00000000
00001001
00000000
00000000
00000000
00001000
00000001
00000010
00000001
00001000
00000000
00000100
00000000
,
00010000
00000000
00000000
00001000
00000000
00000000
01000000
00000000
00000000
00000000
00000000
00000000
01010000
00000000
00000000
00000000
00000000
00000000
00000000
00000000
00000000
00000000
00000000
00000000
01000000
00000000
00000000
00000000
00000000
00000000
00100000
00000000
00000000
00000000
00000000
00000000
10000000
00000000
00000000
00000000
00010000
00000000
00000000
00000000
00000000
00000000
20020000
00000000
,
00000000
00000000
00000000
00000000
00000000
30030000
00020000
00000000
00000000
00230000
00000000
00000000
,
00301000
00000100
00000001
00000010
00001000
00010000
00011000
00000000
,
00010000
01000000
10000000
00100000
00010000
00001000
00011000
00000000
,
00001000
00000100
00000001
00000100
00010000
00100000
10000000
00100000
,
00022000
00000000
00000000
00000000
,
00033000
00000000
00000000
00000000
;

//---------------dance-double - ----------------
#NOTES:
     dance-double:
     :
     Medium:
     5:
     0.350,0.362,0.139,0.241,0.116: // measure 1
00000000
00000000
00000000
00000000
,  // measure 2
00000000
00000000
00000000
00000000
,  // measure 3
00000000
00000000
00000000
00000000
,  // measure 4
00000000
00000000
00000000
00000000
,  // measure 5
00010000
00000000
00000000
00001000
00000000
00000000
00000100
00000000
00000001
00000000
00001000
00000000
00000001
00000000
00000000
00000000
,  // measure 6
00000001
00000000
00000010
00000000
00000000
00000000
00000010
00000000
00000100
00000000
00000000
00010000
00000000
00000000
00001000
00000000
,  // measure 7
00100000
00010000
00000000
00010000
10000000
01000000
10000000
00000000
,  // measure 8
10000000
00010000
00000000
00010000
01000000
00100000
01000000
00000000
,  // measure 9
01000000
00000000
00000000
10000000
00000000
00000000
01000000
00000000
00010000
00000000
00000000
00001000
00000000
00000000
00000020
00000000
,  // measure 10
00000000
00000000
00000000
00000000
00000001
00000000
00000000
00000000
00000130
00000000
00000010
00000000
00000000
00001000
00000000
00000000
,  // measure 11
00000001
00000000
00000000
00000010
00000000
00000000
00000100
00000000
00010000
00000000
00000000
00000000
00011000
00000000
00000000
00000000
,  // measure 12
00010000
01000000
00000000
01000000
10000000
00000000
10010000
00000000
,  // measure 13
10000000
00000000
00000000
01000000
00000000
00000000
00100000
00000000
00001000
00000000
00000000
00000000
00010000
00000000
00000100
00000000
,  // measure 14
00001000
00000000
00000000
00000001
00000000
00000000
00000000
00000000
00000000
00000001
00000000
00000000
00000100
00000000
00000000
00001000
00000000
00000000
00000000
00000000
00000100
00000000
00000000
00000010
,  // measure 15
00000000
00000000
00002000
00000000
00000000
00000000
00000001
00000000
00000000
00003100
00000000
00000000
,  // measure 16
00001000
00000100
00001100
00010000
,  // measure 17
00001000
00000000
00000000
01000000
00000000
00000000
00010000
00000000
10000000
00000000
00000000
01000000
00000000
00000000
00020000
00000000
,  // measure 18
00000000
00000000
00031000
00000000
00010000
00000100
00000000
00000001
,  // measure 19
00000000
00000000
00000000
00001000
00000000
00000000
00000000
00000000
00000000
00000000
00000000
00000000
00000010
00000000
00000000
00000000
00000000
00000000
00000000
00000000
00000001
00000000
00000000
00000000
00000100
00000000
00000000
00000000
00000010
00000000
00000000
00000000
00000000
00000000
00000000
00000000
00001000
00000000
00000000
00000000
00000000
00000000
00000000
00000000
00000000
00000000
00000000
00000000
,  // measure 20
00000100
00010000
01000000
10000000
,  // measure 21
00100000
00000000
10000000
01000000
00020000
00000000
00030000
00001000
,  // measure 22
00000200
00000000
00000000
00000000
00000000
00000000
00000000
00000000
00000000
00000000
00000000
00000000
00000300
00000000
00000000
00000000
00000000
00000000
00000000
00000000
00000000
00000000
00000000
00000000
00000000
00000000
00000000
00000000
00000000
00000000
00000010
00000000
00000000
00000000
00000000
00000000
00000000
00000000
00000000
00001000
00000000
00000000
00000000
00000000
00000000
00000000
00000001
00000000
,  // measure 23
00000000
00000000
00000100
00001000
00010000
00000000
00011000
00000000
,  // measure 24
00010000
00000000
01000000
10000000
00010000
00000000
10010000
00000000
,  // measure 25
10000000
00000000
00000000
00000000
01000000
00000000
00010000
00000000
00001000
00000000
00000000
00000010
00000000
00000000
00000001
00000000
,  // measure 26
00002002
00000000
00000000
00000000
00000000
00003003
00000002
00000000
,  // measure 27
00002003
00000000
00203000
00000000
10300000
01000000
00010000
00001000
,  // measure 28
00000200
00000000
00000301
00000000
00000001
00000100
00001000
00010000
,  // measure 29
02000000
00000000
13000000
00000000
10000000
00100000
10000000
01000000
,  // measure 30
00010000
00000000
00000000
00000010
00000000
00000000
00001000
00000000
00000001
00000000
00000000
00000000
00000101
00000000
00000000
00000000
,  // measure 31
00002200
00000000
00003300
00000000
00001000
00000100
00000001
00000100
,  // measure 32
00000010
00000002
00000003
00000000
00000001
00000100
00001000
00000100
,  // measure 33
00000010
00000000
00000000
00002000
00000000
00000000
00003000
00000000
00000000
00000000
00000000
00000000
00000001
00000000
00000000
00000100
00000000
00000000
00001000
00000000
00000100
00000000
00000000
00000010
,  // measure 34
00000000
00000000
00010000
00001000
00000000
00000000
00010000
00000000
00000000
01000000
00000000
00000000
,  // measure 35
20020000
00000000
30030000
00000000
10000000
01000000
00010000
01000000
,  // measure 36
10000000
00100000
00010000
00000000
00001000
00000100
00000001
00000010
,  // measure 37
00001000
00000010
00000001
00000000
00000001
00000100
00001000
00010000
,  // measure 38
00100000
00000000
00000000
10000000
01000000
00000000
00000000
00000000
00010000
00000000
00000000
00000000
00011000
00000000
00000000
00000000
,  // measure 39
00002002
00000000
00003003
00000000
00000001
00000010
00001000
00010000
,  // measure 40
01000000
00100000
00010000
00000000
10000000
00100000
00010000
00001000
,  // measure 41
00000100
00000000
00000000
00000010
00000000
00000000
00001000
00000000
00000000
00000000
00000000
00000000
00001000
00000000
00000000
00000100
00000000
00000000
00000010
00000000
00000001
00000000
00000000
00002002
,  // measure 42
00000000
00000000
00000000
00000000
00000000
00003003
00000002
00000000
00000000
00000023
00000000
00000000
,  // measure 43
00000031
00000100
00001000
00010000
01000000
10000000
10010000
00000000
,  // measure 44
10000000
01000000
00010000
00001000
00000100
00000001
00001001
00000000
,  // measure 45
00000001
00000010
00000001
00000100
00001000
00010000
00100000
10000000
,  // measure 46
20020000
00000000
00000000
00000000
,  // measure 47
30030000
00000000
00000000
00000000
;

//---------------dance-double - ----------------
#NOTES:
     dance-double:
     :
     Easy:
     3:
     0.243,0.298,0.120,0.333,0.000: // measure 1
00000000
00000000
00000000
00000000
,  // measure 2
00000000
00000000
00000000
00000000
,  // measure 3
00000000
00000000
00000000
00000000
,  // measure 4
00000000
00000000
00000000
00000000
,  // measure 5
00010000
00000000
00002000
00000000
,  // measure 6
00003200
00000000
00000301
00000000
,  // measure 7
00002000
00000000
00000010
00000010
,  // measure 8
00003002
00000000
00000100
00000100
,  // measure 9
00002003
00000000
00003200
00000000
,  // measure 10
00200300
00000000
00000000
00010000
,  // measure 11
02300000
00000000
10000000
10000000
,  // measure 12
03200000
00000000
00001000
00001000
,  // measure 13
00320000
00000000
00030200
00000000
,  // measure 14
00000320
00000000
00000000
00001000
,  // measure 15
00000032
00000000
00000010
00001000
,  // measure 16
00000023
00000000
00010000
00001000
,  // measure 17
00020030
00000000
01000000
00001000
,  // measure 18
00030020
00000000
00000001
00000100
,  // measure 19
00002030
00000000
00000100
00010000
,  // measure 20
00003200
00000000
00010000
00001000
,  // measure 21
00100300
00010000
01000000
00010000
,  // measure 22
20000000
00000000
00000000
31000000
,  // measure 23
00020000
00000000
00001000
00000100
,  // measure 24
00032000
00000000
00000100
00010000
,  // measure 25
00103000
00001000
00010000
00000010
,  // measure 26
00002002
00000000
00003003
00000002
,  // measure 27
00002003
00203000
10300000
01000000
,  // measure 28
00010000
00011000
00001000
00000100
,  // measure 29
00000001
00001001
00000001
00000100
,  // measure 30
00001000
00010000
02000000
00100000
,  // measure 31
10000000
00010000
13000000
00100000
,  // measure 32
00010000
00011000
00001000
00000010
,  // measure 33
00000001
00001001
00000001
00000100
,  // measure 34
00001000
00010000
00200000
00010000
,  // measure 35
10000000
01300000
00100000
10000000
,  // measure 36
01000000
01100000
00100000
00001000
,  // measure 37
00000100
00000110
00000010
00001000
,  // measure 38
00000001
00000010
00000200
00000001
,  // measure 39
00002000
00003300
00001000
00000001
,  // measure 40
00000100
00000110
00000010
00010000
,  // measure 41
01000000
01100000
00100000
00010000
,  // measure 42
20020000
00000000
00000000
00000000
00000000
00000000
00000000
30030000
20000000
00000000
00000000
00000000
30200000
00000000
00000000
00000000
,  // measure 43
01300000
00001000
00010000
00011000
,  // measure 44
00000100
00010000
00001000
00011000
,  // measure 45
00010000
00000100
00000001
00000100
,  // measure 46
00002002
00000000
00000000
00000000
,  // measure 47
00003003
00000000
00000000
00000000
;
