#VERSION:0.83;
#TITLE:Yava!;
#SUBTITLE:;
#ARTIST:BABYMETAL;
#TITLETRANSLIT:;
#SUBTITLETRANSLIT:;
#ARTISTTRANSLIT:;
#GENRE:;
#ORIGIN:;
#CREDIT:mf32892 & Mokou98;
#BANNER:[ZIv Academy II] - Yava!-bn.png;
#BACKGROUND:[ZIv Academy II] - Yava!-bg.png;
#PREVIEWVID:;
#JACKET:[ZIv Academy II] - Yava!-jacket.png;
#CDIMAGE:;
#DISCIMAGE:;
#LYRICSPATH:;
#CDTITLE:;
#MUSIC:[ZIv Academy II] - Yava!.ogg;
#OFFSET:-0.520463;
#SAMPLESTART:49.834999;
#SAMPLELENGTH:11.000000;
#SELECTABLE:YES;
#BPMS:0.000=192.018;
#STOPS:;
#DELAYS:;
#WARPS:;
#TIMESIGNATURES:0.000=4=4;
#TICKCOUNTS:0.000=4;
#COMBOS:0.000=1;
#SPEEDS:0.000=1.000=0.000=0;
#SCROLLS:0.000=1.000;
#FAKES:;
#LABELS:0.000=Song Start;
#BGCHANGES:;
#KEYSOUNDS:;
#ATTACKS:
;

//---------------dance-single - ----------------
#NOTEDATA:;
#CHARTNAME:;
#STEPSTYPE:dance-single;
#DESCRIPTION:;
#CHARTSTYLE:;
#DIFFICULTY:Hard;
#METER:9;
#RADARVALUES:0.674370,0.929366,0.248937,0.341136,0.092199,512.000000,485.000000,27.000000,37.000000,0.000000,0.000000,0.000000,0.000000,0.000000,0.674370,0.929366,0.248937,0.341136,0.092199,512.000000,485.000000,27.000000,37.000000,0.000000,0.000000,0.000000,0.000000,0.000000;
#CREDIT:mf32892;
#NOTES:
// measure 0
0000
0000
0000
0000
,  // measure 1
0000
0000
0000
0000
,  // measure 2
0000
0000
0000
0000
,  // measure 3
0000
0000
0000
0000
,  // measure 4
0000
0000
0000
0000
,  // measure 5
0000
0000
0000
0000
,  // measure 6
0000
0000
0000
0000
,  // measure 7
1000
0000
0100
0000
0010
0001
0010
0001
1000
0000
0000
0000
0000
0000
0000
0000
,  // measure 8
1000
0000
0010
0100
0010
0100
0001
0000
,  // measure 9
0001
0010
0001
0010
0100
1000
0010
0100
,  // measure 10
0001
0000
0010
0100
0010
0100
1000
0000
,  // measure 11
1000
0010
1000
0010
0100
0001
1000
0100
,  // measure 12
0010
0000
0010
0001
0010
0001
1000
0000
,  // measure 13
1000
0010
0100
0010
1000
0100
0010
0001
,  // measure 14
1000
0000
1000
0010
1000
0010
0100
0001
,  // measure 15
0000
0010
0100
0010
0001
0100
1000
0100
,  // measure 16
0001
0000
0010
0100
1000
0000
0010
0100
,  // measure 17
0001
0000
0010
0000
0100
0000
0010
0001
,  // measure 18
1000
0000
0001
0100
0010
0000
1000
0100
,  // measure 19
0000
0010
1000
0010
0001
0000
1000
0000
,  // measure 20
0101
0000
0010
1000
0100
0000
0010
0001
,  // measure 21
0100
0000
0010
0000
1000
0000
0001
0010
,  // measure 22
0100
0000
0010
0001
1000
0000
0010
0200
,  // measure 23
0000
0000
1300
0000
0100
0000
0001
0000
0100
0010
0100
0010
0100
0000
0010
0000
,  // measure 24
1000
0100
0000
0010
0001
0100
0000
0010
,  // measure 25
1000
0100
0001
0100
1000
0010
0100
0001
,  // measure 26
0010
0100
0000
0010
0001
0100
0010
2000
,  // measure 27
0000
3100
0010
0001
1000
0001
0100
0010
,  // measure 28
1000
0100
0000
0010
0001
0100
0000
0010
,  // measure 29
1000
0100
0010
0001
0200
0000
0310
0100
,  // measure 30
0001
0010
0000
0100
1000
0010
0100
0002
,  // measure 31
0000
0000
0013
0000
0100
0000
0010
0000
0001
1000
0001
1000
0001
0000
1000
0000
,  // measure 32
1010
0000
0110
0000
0100
0001
0000
0001
,  // measure 33
1000
0000
0000
0000
0100
0000
1000
0100
1000
0000
0001
0000
1000
0001
1000
0001
,  // measure 34
1000
0000
0010
0000
0100
0000
0010
0100
0001
0000
0010
0000
0100
0010
0100
0000
,  // measure 35
0010
0000
0010
0001
1000
0000
0010
0000
1000
0010
1000
0010
1000
0000
0100
0000
,  // measure 36
0010
0000
0010
0001
0000
0001
1000
0000
,  // measure 37
1000
0010
0000
0010
0100
0000
0001
0000
,  // measure 38
0021
0000
0000
1000
0000
0000
0230
0000
,  // measure 39
2000
0000
0300
0000
3010
0100
0000
1002
,  // measure 40
0000
0013
0100
0010
0001
0010
0100
0010
,  // measure 41
0001
0100
0010
1000
0100
0010
0001
2001
,  // measure 42
0000
3010
0100
0010
1000
0010
0100
0010
,  // measure 43
1000
0100
0010
0001
0100
0010
1000
0120
,  // measure 44
0000
0130
0001
0010
0100
0010
0001
0120
,  // measure 45
0000
0130
0010
0001
0100
0010
0100
0102
,  // measure 46
0000
0013
0100
2000
0000
3010
0100
0002
,  // measure 47
0000
1003
0001
0010
0100
0010
0000
2001
,  // measure 48
0000
3100
0010
0100
1000
0100
0010
0100
,  // measure 49
1000
0100
0010
0001
0100
0010
1000
1002
,  // measure 50
0000
0103
0010
0100
0001
0100
0010
0100
,  // measure 51
0001
0100
0010
1000
0100
0010
0001
2100
,  // measure 52
0000
0000
3100
0000
0010
0000
0001
0000
0100
0010
0100
0010
0100
0000
0002
0000
,  // measure 53
0000
0000
0013
0000
0100
0000
1000
0000
0010
0100
0010
0100
0010
0000
2000
0000
,  // measure 54
0000
3010
0100
0002
0000
0013
0100
0020
,  // measure 55
0000
0031
1000
0010
0001
0010
0000
0120
,  // measure 56
0000
1030
0100
1000
0001
0010
0100
0010
,  // measure 57
0001
0100
0010
1000
0100
1000
0001
0021
,  // measure 58
0000
0130
0010
0001
1000
0100
0010
0100
,  // measure 59
1000
0010
0100
0001
0010
0100
0010
0120
,  // measure 60
0000
0130
0010
0001
0100
0010
0100
0001
,  // measure 61
0010
0100
1000
0010
0100
1000
0100
0120
,  // measure 62
0000
1030
0100
0010
0100
1000
0010
0100
,  // measure 63
0001
0010
0100
1000
0010
0100
0000
2001
,  // measure 64
0000
3001
0010
0000
0100
1000
0010
0100
,  // measure 65
0000
0100
0010
0000
1000
0001
1000
0100
,  // measure 66
0000
0100
0010
0000
0001
0100
0010
1000
,  // measure 67
0000
1100
0000
0101
0000
0011
0000
0120
,  // measure 68
0000
0130
0010
0000
0001
0100
0010
1000
,  // measure 69
0000
1000
0001
0000
0010
0100
0010
0002
,  // measure 70
0000
0103
0010
2000
0000
3100
0010
0002
,  // measure 71
0000
1003
0010
0001
0010
0000
0220
0330
,  // measure 72
1000
0000
0100
0010
0000
0010
0001
0000
,  // measure 73
1000
0010
0000
0100
0002
0000
1003
0000
,  // measure 74
0001
0000
0001
0010
0000
0010
0100
0000
,  // measure 75
1000
0001
0000
0100
0020
0000
1030
0000
,  // measure 76
0001
0000
0001
1000
0000
1000
0100
0000
,  // measure 77
0100
0010
0000
0001
2000
0000
3010
0000
,  // measure 78
0110
0000
1000
1010
0000
0001
0011
0000
,  // measure 79
1000
0000
1100
0000
0000
0000
0001
0000
0201
0000
0000
0000
0310
1000
0010
1000
,  // measure 80
0002
0000
0000
0000
,  // measure 81
0000
0000
0000
0000
,  // measure 82
0000
0000
0000
0000
,  // measure 83
0000
0000
0000
0000
,  // measure 84
0003
0000
0000
0000
;

//---------------dance-single - ----------------
#NOTEDATA:;
#CHARTNAME:;
#STEPSTYPE:dance-single;
#DESCRIPTION:;
#CHARTSTYLE:;
#DIFFICULTY:Medium;
#METER:7;
#RADARVALUES:0.483386,0.542130,0.175178,0.341136,0.000000,367.000000,348.000000,19.000000,37.000000,0.000000,0.000000,0.000000,0.000000,0.000000,0.483386,0.542130,0.175178,0.341136,0.000000,367.000000,348.000000,19.000000,37.000000,0.000000,0.000000,0.000000,0.000000,0.000000;
#CREDIT:mf32892;
#NOTES:
// measure 0
0000
0000
0000
0000
,  // measure 1
0000
0000
0000
0000
,  // measure 2
0000
0000
0000
0000
,  // measure 3
0000
0000
0000
0000
,  // measure 4
0000
0000
0000
0000
,  // measure 5
0000
0000
0000
0000
,  // measure 6
0000
0000
0000
0000
,  // measure 7
0000
0000
0000
0000
0000
0001
0010
0100
,  // measure 8
1000
0000
0010
0100
0000
0100
0001
0000
,  // measure 9
0001
1000
0000
1000
0001
0000
0010
0100
,  // measure 10
1000
0000
0010
1000
0000
1000
0001
0000
,  // measure 11
0001
0100
0000
0100
0010
0000
1000
0100
,  // measure 12
0010
0000
0010
0001
0000
0001
1000
0000
,  // measure 13
1000
0010
0000
0010
0100
0000
0001
0010
,  // measure 14
0100
0000
0100
1000
0000
1000
0010
0100
,  // measure 15
0000
0100
0010
0100
0010
0000
1000
0000
,  // measure 16
0001
0000
0000
0010
0100
0000
0000
1000
,  // measure 17
0100
0000
0010
0000
0001
0000
1000
0010
,  // measure 18
0100
0000
0000
0010
1000
0000
0001
0010
,  // measure 19
0000
0100
0010
0100
0010
0000
0000
0000
,  // measure 20
0001
0000
0000
1000
0001
0000
0000
0100
,  // measure 21
0010
0000
1000
0000
0001
0000
0010
0100
,  // measure 22
0010
0000
0000
0001
1000
0000
0010
0100
,  // measure 23
0000
0010
1000
0100
0010
0000
0000
0010
,  // measure 24
0001
0000
0000
1000
0100
0000
0000
1000
,  // measure 25
0010
0000
0100
0000
0001
0000
0000
0010
,  // measure 26
0100
0000
0000
0010
0001
0000
1000
0010
,  // measure 27
0000
0100
1000
0100
0001
0000
0000
0000
,  // measure 28
0010
0000
0000
0100
1000
0000
0000
0010
,  // measure 29
0100
0000
0001
0000
0010
0000
0000
0100
,  // measure 30
0010
0000
0000
0001
1000
0000
0010
0100
,  // measure 31
0000
0010
0100
0001
1000
0000
0000
0000
,  // measure 32
0002
0000
0013
0000
0100
1000
0000
1000
,  // measure 33
0020
0000
0130
0100
0010
0100
0002
0000
,  // measure 34
1003
0000
1000
0000
0001
0010
0100
0000
,  // measure 35
2000
3200
0320
0032
,  // measure 36
1003
0000
0010
0100
0000
0010
0100
0000
,  // measure 37
0001
1000
0000
0001
0020
0000
0130
0000
,  // measure 38
2000
0000
0000
3020
0000
0000
0130
0000
,  // measure 39
0002
0000
0000
0000
1003
0100
0000
2100
,  // measure 40
0000
3100
0010
0000
0001
0000
1000
0001
,  // measure 41
0000
0100
0000
0010
1000
0000
0000
1200
,  // measure 42
0000
1300
0001
0000
0010
0000
0100
0010
,  // measure 43
0000
0001
0000
0100
0010
0000
0000
0201
,  // measure 44
0000
0301
1000
0000
0010
0000
0000
1200
,  // measure 45
0000
1300
0001
0000
0010
0000
0000
0210
,  // measure 46
0000
0310
0001
0100
0000
0010
1000
0002
,  // measure 47
0000
0000
0003
0000
0010
0100
0000
0120
,  // measure 48
0000
0130
0010
0000
0001
0000
1000
0010
,  // measure 49
0000
0100
0000
0010
1000
0000
0000
1200
,  // measure 50
0000
1300
0001
0000
0010
0000
0100
0010
,  // measure 51
0000
0001
0000
0100
0010
0000
0000
2010
,  // measure 52
0000
3010
0100
0000
0101
0000
0000
0012
,  // measure 53
0000
0013
0100
0000
1100
0000
0000
1020
,  // measure 54
0000
0130
0001
1000
0000
0100
0010
0002
,  // measure 55
0000
0003
0000
1000
0010
0100
0000
1002
,  // measure 56
0000
0013
0100
0000
0010
0000
0001
1000
,  // measure 57
0000
1000
0010
0000
0100
0010
1000
0001
,  // measure 58
0000
0001
0010
0000
0100
0000
0010
0001
,  // measure 59
0000
1000
0000
0001
0100
0010
0000
2001
,  // measure 60
0000
3001
0010
0000
0100
0000
0010
0001
,  // measure 61
0000
0001
1000
0000
0001
0100
0010
2000
,  // measure 62
0000
3100
0010
0000
0001
0000
1000
0001
,  // measure 63
0000
0100
0000
0010
1000
0100
0000
0210
,  // measure 64
0000
0000
0310
0000
0001
0000
1000
0100
,  // measure 65
0000
0100
0000
1000
0010
0000
0000
0120
,  // measure 66
0000
0130
0001
0000
1000
0001
0010
0100
,  // measure 67
0000
0100
0000
1000
0000
0010
0000
0120
,  // measure 68
0000
0130
0010
0000
1000
0000
0001
0010
,  // measure 69
0000
0010
0100
0000
0010
0000
0001
0200
,  // measure 70
0000
0310
1000
0002
0000
0013
0100
2000
,  // measure 71
0000
3010
0100
0010
1000
0000
1100
0000
,  // measure 72
1001
0000
0001
0100
0000
0100
0010
0000
,  // measure 73
0010
1000
0000
1000
0002
0000
0013
0000
,  // measure 74
0100
0000
1000
0010
0000
0010
0100
0000
,  // measure 75
0100
0001
0000
0001
2000
0000
3001
0000
,  // measure 76
0010
0000
0010
0100
0000
0100
1000
0000
,  // measure 77
1000
0010
0000
0010
0200
0000
0301
0000
,  // measure 78
1000
0000
1000
0001
0000
0001
0010
0000
,  // measure 79
0010
0100
0000
0100
2000
0000
3001
0000
,  // measure 80
0200
0000
0000
0000
,  // measure 81
0000
0000
0000
0000
,  // measure 82
0000
0000
0000
0000
,  // measure 83
0000
0000
0000
0000
,  // measure 84
0300
0000
0000
0000
;

//---------------dance-single - ----------------
#NOTEDATA:;
#CHARTNAME:;
#STEPSTYPE:dance-single;
#DESCRIPTION:;
#CHARTSTYLE:;
#DIFFICULTY:Challenge;
#METER:8;
#RADARVALUES:0.561097,0.697025,0.958870,0.331917,0.000000,426.000000,322.000000,104.000000,36.000000,128.000000,0.000000,0.000000,0.000000,0.000000,0.561097,0.697025,0.958870,0.331917,0.000000,426.000000,322.000000,104.000000,36.000000,128.000000,0.000000,0.000000,0.000000,0.000000;
#CREDIT:mf32892;
#NOTES:
0000
0000
0000
0000
,
0000
0000
0000
0000
,
0000
0000
0000
0000
,
0000
0000
0000
0000
,
0000
0000
0000
0000
,
0000
0000
0000
0000
,
0000
0000
0000
0000
,
1000
0001
0100
0001
1000
0000
MMMM
0000
,
0011
0000
1000
0000
0001
1000
0010
0000
,
0100
0010
1000
0000
0001
0010
0100
0000
,
1100
0000
0001
0000
1000
0001
0100
0000
,
0010
0100
0001
0000
1000
0100
0010
0000
,
0011
0000
1000
0000
0001
1000
0010
0000
,
0100
0010
1000
0000
0100
1000
0001
0000
,
0020
0000
0000
0032
0000
0000
1003
0020
,
0000
0100
0100
0130
,
MMMM
0000
1000
1000
0001
0000
1000
0000
,
MMMM
0000
1000
1000
0001
0000
1000
0000
,
MMMM
0000
0010
0010
0001
0000
0010
0000
,
MMMM
0000
0010
0010
0001
0000
0010
0000
,
MMMM
0000
0001
0001
1000
0000
0001
0000
,
MMMM
0000
0001
0001
1000
0000
0001
0000
,
MMMM
0000
0100
0100
0010
0000
1000
2001
,
0000
3010
1000
0100
0010
0000
MMMM
0000
,
0001
0100
0000
0101
0000
1010
0000
1100
,
0000
1001
0000
1010
0000
1001
0000
1000
,
0100
0010
0000
0011
0000
1001
0000
0101
,
0000
1010
0000
1100
0000
0011
0000
0001
,
1000
0100
0000
0110
0000
1100
0000
1010
,
0000
0101
0000
0011
0000
1001
0000
0001
,
0100
0010
0000
1100
0000
1001
0010
0021
,
0000
0130
0010
0001
1000
0000
MMMM
0000
,
0101
0000
0101
0000
MMMM
1000
0000
1000
,
0100
0000
0100
0100
MMMM
0100
1000
0100
,
1000
0000
0010
0100
MMMM
0000
0100
0010
,
1000
0100
1000
0001
MMMM
0000
0010
0000
,
1000
0001
0101
0101
,
MMMM
1100
1100
1100
,
0100
0000
0000
0010
0000
0000
0002
0000
,
2000
0000
0000
3003
MMMM
MMMM
0000
2200
,
0000
3300
0011
0000
0101
0000
1010
0000
,
1100
0000
1001
0000
0011
0000
0001
0202
,
0000
0303
1010
0000
1100
0000
1001
0000
,
0011
0000
0101
0000
1001
0000
1000
2010
,
0000
0000
0100
0000
3001
0000
0000
0012
,
0000
0000
0100
0000
1003
0000
0000
1001
,
0000
MMMM
1000
1001
0000
MMMM
0001
2002
,
0000
0000
3003
0000
1000
0100
MMMM
0220
,
0000
0330
0011
0000
1100
0000
1010
0000
,
1100
0000
1010
0000
0110
0000
0100
0202
,
0000
0303
1010
0000
1100
0000
0101
0000
,
0011
0000
1001
0000
0101
0100
0010
2010
,
0000
0000
0001
0000
3100
0000
0000
0012
,
0000
0000
1000
0000
0103
0000
0000
1001
,
0000
MMMM
0001
1001
0000
MMMM
1000
2002
,
0000
0000
3003
1000
0001
1000
MMMM
2001
,
0000
3100
0010
0000
0011
0000
0101
0000
,
1010
0000
1001
0000
1100
0000
0001
0201
,
0000
0310
1000
0000
1010
0000
1100
0000
,
0101
0000
1100
1000
0001
1000
MMMM
0201
,
0000
0310
1000
0000
1010
0000
1001
0000
,
1100
0000
1001
0000
0011
0001
1000
1020
,
0000
0130
0001
0000
0101
0000
1001
0000
,
0011
0000
1001
0001
1000
0001
MMMM
2100
,
0000
0100
0100
0000
3001
0100
0000
0110
,
0000
0010
1000
0000
0001
1000
0001
0102
,
0000
0100
0100
0000
1003
0001
1000
0100
,
0000
0010
0000
0001
0000
1000
0000
0201
,
0000
0001
0001
0000
0310
1000
0000
0100
,
0000
0100
0000
1000
0001
1000
0000
1001
,
0000
MMMM
1000
1001
0000
MMMM
0001
1001
,
0000
0001
0010
0001
1000
0000
MMMM
0000
,
1010
0000
0010
0001
0000
0010
1000
0000
,
0100
0001
0000
0100
2000
3000
MMMM
0000
,
1100
0000
0100
0001
0000
0100
1000
0000
,
0010
0001
0000
0010
2000
3000
MMMM
0000
,
0011
0000
0010
1000
0000
0010
0001
0000
,
0100
1000
0000
0100
0002
0003
MMMM
0000
,
0101
0000
0100
1000
0000
0100
0001
0000
,
0010
1000
0000
0010
0002
0003
MMMM
0000
,
2002
0000
0000
0000
,
0000
0000
0000
0000
,
0000
0000
0000
0000
,
0000
0000
0000
0000
,
3003
0000
0000
0000
;

//---------------dance-single - ----------------
#NOTEDATA:;
#CHARTNAME:;
#STEPSTYPE:dance-single;
#DESCRIPTION:;
#CHARTSTYLE:;
#DIFFICULTY:Easy;
#METER:5;
#RADARVALUES:0.372748,0.503407,0.092199,0.138299,0.000000,283.000000,273.000000,10.000000,15.000000,0.000000,0.000000,0.000000,0.000000,0.000000,0.372748,0.503407,0.092199,0.138299,0.000000,283.000000,273.000000,10.000000,15.000000,0.000000,0.000000,0.000000,0.000000,0.000000;
#CREDIT:Mokou98;
#NOTES:
// measure 0
0000
0000
0000
0000
,  // measure 1
0000
0000
0000
0000
,  // measure 2
0000
0000
0000
0000
,  // measure 3
0000
0000
0000
0000
,  // measure 4
0000
0000
0000
0000
,  // measure 5
0000
0000
0000
0000
,  // measure 6
0000
0000
0000
0000
,  // measure 7
0000
0000
0000
0000
,  // measure 8
1000
1000
0010
0010
,  // measure 9
0100
0100
0010
1000
,  // measure 10
0001
0001
0010
0010
,  // measure 11
0100
0100
0010
0001
,  // measure 12
1000
1000
0100
0100
,  // measure 13
0010
0010
0100
1000
,  // measure 14
0001
0100
0000
0001
0100
0000
0000
0000
,  // measure 15
0001
1000
1000
0100
,  // measure 16
0010
0000
0010
0000
,  // measure 17
0001
0100
0010
1000
,  // measure 18
0100
0000
0100
1000
,  // measure 19
0010
1000
0010
0100
,  // measure 20
0001
0000
0001
0000
,  // measure 21
1000
0100
0010
0001
,  // measure 22
1000
0000
0000
0000
1000
0000
0010
0100
,  // measure 23
0000
0010
0100
0000
0200
0000
0300
0000
,  // measure 24
0001
0100
0001
0100
,  // measure 25
0001
0010
0100
0000
,  // measure 26
1000
0000
0100
0000
1000
0000
0001
0100
,  // measure 27
0000
0001
0100
0000
0020
0000
0030
0000
,  // measure 28
1000
0010
1000
0010
,  // measure 29
0100
0000
0001
0000
0010
0001
0010
0000
,  // measure 30
0001
0000
0100
0000
0001
0000
1000
0001
,  // measure 31
0000
1000
0001
1000
0002
0000
0003
0000
,  // measure 32
0101
0000
0001
0000
0001
1000
0000
1000
,  // measure 33
0100
0100
1100
1010
,  // measure 34
0010
0010
0100
0100
,  // measure 35
0002
0000
2003
0000
,  // measure 36
3001
0000
0001
0010
0000
0010
0001
0000
,  // measure 37
0001
0100
0000
0100
0010
0000
1000
0000
,  // measure 38
1010
0000
0000
0010
0000
0000
1000
0000
,  // measure 39
2002
0000
0000
0000
3003
0000
0000
0001
,  // measure 40
0000
0001
0010
0001
,  // measure 41
0010
0000
0100
0000
1000
0000
0010
1000
,  // measure 42
0000
1000
0010
1000
,  // measure 43
0010
0000
0100
0000
0001
0000
1000
0001
,  // measure 44
0000
0000
0001
0000
0100
0000
0001
1000
,  // measure 45
0000
0000
1000
0000
0100
0000
1000
0010
,  // measure 46
0000
0000
1000
0100
0000
0000
1000
0002
,  // measure 47
0000
0000
1003
0000
0010
0000
0000
0100
,  // measure 48
0000
0100
0001
0100
,  // measure 49
0001
0000
1000
0000
0100
0000
0010
0001
,  // measure 50
0000
1000
0010
1000
,  // measure 51
0010
0000
0100
0000
0001
0000
1000
0100
,  // measure 52
0000
0000
1000
0000
0010
0000
0100
0001
,  // measure 53
0000
0000
1000
0000
0100
0000
1000
0010
,  // measure 54
0000
0000
1000
0100
0000
0000
1000
0002
,  // measure 55
0000
0000
0003
0000
0100
0000
0000
0100
,  // measure 56
0000
0100
0001
0100
,  // measure 57
0001
0000
1000
0000
0001
0000
1000
1000
,  // measure 58
0000
0100
1000
0100
,  // measure 59
0010
0000
0001
0000
0010
0000
0001
0001
,  // measure 60
0000
1000
0010
1000
,  // measure 61
0010
0000
0100
0000
0010
0000
0100
0100
,  // measure 62
0000
0001
1000
0001
,  // measure 63
0010
0000
0100
0000
1000
0100
0000
0000
,  // measure 64
1000
1000
1010
0000
,  // measure 65
0001
0001
0101
0000
,  // measure 66
1000
1000
1100
0000
,  // measure 67
0001
0010
0100
0010
,  // measure 68
0001
0001
0011
0000
,  // measure 69
0100
0000
0100
0000
0110
0000
0000
0010
,  // measure 70
0000
0000
1000
0010
0000
0000
1000
0001
,  // measure 71
0000
0001
1000
0000
2000
0000
3000
0000
,  // measure 72
0010
1000
0100
1000
,  // measure 73
0010
1000
0002
0003
,  // measure 74
0010
0001
0100
0001
,  // measure 75
0010
0001
2000
3010
,  // measure 76
1000
0100
1000
0010
,  // measure 77
1000
0100
0020
0030
,  // measure 78
0001
0000
0001
0100
0000
0100
0001
0000
,  // measure 79
0001
0010
0000
0010
0200
0000
1300
0000
,  // measure 80
0020
0000
0000
0000
,  // measure 81
0000
0000
0000
0000
,  // measure 82
0000
0000
0000
0000
,  // measure 83
0000
0000
0000
0000
,  // measure 84
0030
0000
0000
0000
;
