#TITLE:WILDFIRE!!;
#SUBTITLE:;
#ARTIST:CIRCRUSH feat. あらき;
#TITLETRANSLIT:;
#SUBTITLETRANSLIT:;
#ARTISTTRANSLIT:CIRCRUSH feat. Araki;
#GENRE:;
#CREDIT:ddrstepper x Lisek;
#BANNER:[ZIv Academy II] - WILDFIRE!!.png;
#BACKGROUND:[ZIv Academy II] - WILDFIRE!!-bg.png;
#LYRICSPATH:;
#CDTITLE:cdtitle.png;
#MUSIC:[ZIv Academy II] - WILDFIRE!!.ogg;
#OFFSET:-0.020109;
#SAMPLESTART:49.790943;
#SAMPLELENGTH:13.674286;
#SELECTABLE:YES;
#BPMS:0.000000=140.000000
;
#STOPS:
;
#BGCHANGES:0.000=[ZIv Academy II] - WILDFIRE!!.avi=1.000=1=0=0=StretchNoLoop==CrossFade==,
264.000=[ZIv Academy II] - WILDFIRE!!-bg.png=1.000=1=0=1===CrossFade==,
99999=-nosongbg-=1.000=0=0=0 // don't automatically add -songbackground-
;
#KEYSOUNDS:;
#ATTACKS:;

//---------------dance-single - ddrstepper----------------
#NOTES:
     dance-single:
     ddrstepper:
     Challenge:
     9:
     0.592147,0.640898,0.466107,0.249700,0.120689,498.000000,442.000000,56.000000,30.000000,0.000000,0.000000,0.592147,0.640898,0.466107,0.249700,0.120689,498.000000,442.000000,56.000000,30.000000,0.000000,0.000000:
0000
0000
0000
0000
,
0000
0000
0000
0000
,
0000
0000
0000
0000
,
0000
0000
0000
0000
,
1000
0100
1000
0100
1000
0000
0000
0000
0001
0000
0001
0000
1000
0000
0000
0000
,
0001
0100
0010
1000
0001
0010
0100
1000
,
0001
0100
0001
0100
0001
0000
0000
0000
1000
0000
1000
0000
0001
0000
0000
0000
,
1000
0100
0010
0010
0001
0100
0010
0010
,
1000
0010
1000
0010
1000
0000
0000
0000
0100
0000
0100
0000
1000
0000
0000
0000
,
0001
0010
0100
1000
0001
0100
0010
1000
,
0001
0010
0001
0010
0001
0000
0000
0000
0100
0000
0100
0000
0001
0000
0000
0000
,
1000
0010
0100
0001
1000
0100
0010
0001
,
1000
0000
0010
0100
0002
0000
0000
0000
1003
0000
0010
0000
0001
0000
0010
0000
,
1000
0000
0100
0010
0002
0000
0000
0000
1003
0000
0100
0000
0001
0000
0100
0000
,
1000
0100
1000
0001
1000
0000
0010
0100
0010
0000
0100
0000
0001
0000
1000
0001
,
1000
0000
0000
1010
0000
0000
0010
0000
2000
0000
0000
0000
3001
0000
1001
0000
,
0001
0000
0010
0100
2000
0000
0000
0000
3001
0000
0010
0000
1000
0000
0010
0000
,
0001
0000
1000
0010
0200
0000
0000
0000
0301
0000
0100
0000
1000
0000
0100
0000
,
0101
0101
0001
1001
1001
1000
1001
0000
,
0021
0130
1000
0000
1020
0130
0001
0000
,
1000
0010
0100
0001
1000
0000
0001
0010
0100
1000
0001
0010
0100
0000
0100
0000
,
1000
0000
1100
0000
2002
0000
3003
0001
,
0100
0000
0101
0000
0210
0000
0310
0100
,
0010
0010
1010
0000
2001
0000
3001
0010
,
0100
0100
0110
0010
0110
0100
0000
0100
,
1000
0000
1100
0000
2002
0000
3003
0001
,
0100
0000
0110
0000
2020
0000
3030
1000
,
0010
0010
1010
1000
2002
0000
3003
0001
,
0011
0000
0110
0000
0100
1000
1001
1001
,
0002
0000
1003
0100
0010
0100
0001
0100
,
0010
0000
0011
0001
1001
1000
0020
0000
,
0230
0000
0301
0100
0010
0100
1000
0100
,
0010
0000
1010
1000
1001
0001
0010
0010
,
0002
0000
1003
0010
0001
0010
1000
0010
,
0100
0000
0110
0010
1010
1000
0002
0000
,
1003
0000
0001
0010
1000
0010
0001
0010
,
0100
0000
0110
0100
0110
0010
0001
1000
,
0010
0100
0001
0001
0100
0001
1000
1000
,
0001
1000
0100
0100
1000
0100
0010
0010
,
0100
0010
0011
0001
1000
0010
1010
0010
,
0100
0010
0110
0100
0001
1000
1000
1000
,
0001
0000
0000
0000
0010
0000
0000
0000
0100
0000
0000
0100
1000
0000
0000
0000
,
0001
0010
1000
0010
0001
0000
1000
0001
,
1000
1000
0010
0000
0100
0000
0001
1000
,
0001
0000
0010
0000
0100
0100
0000
0000
,
1000
0000
0100
1000
0001
0000
0010
0000
0001
0000
0001
0100
0000
0000
0010
0000
,
1000
0000
0010
0000
0001
0000
0010
0000
1000
0000
0000
1000
0000
0000
0001
0000
,
1000
0100
0010
0010
0001
0000
1001
0000
,
1000
0010
0100
0100
0001
0010
0100
0100
,
0000
0000
0000
0000
0000
0000
1000
0001
1000
0001
1000
0001
1000
0000
1000
0000
,
0001
0100
0010
1000
0001
0010
0100
1000
,
0001
0000
0011
0001
1001
1000
0002
0000
,
0103
0000
0001
0100
0010
1000
0001
0010
,
0100
0000
1100
1000
1001
0001
1000
1000
,
0001
1000
0001
0010
1000
0001
0100
1000
,
0001
0100
0101
0001
1001
1000
0002
0000
,
1003
0001
1000
0010
0001
1000
0100
0001
,
1000
0010
1010
1000
1001
0001
0010
0100
,
1000
0100
0001
0100
1000
0000
1100
0000
,
0001
0010
0100
0100
1000
0010
0100
0100
,
0001
0100
1000
0100
0001
0000
0101
0000
,
0001
0100
0010
1000
0001
0010
0100
1000
,
1100
1000
0001
0100
0201
0000
0310
0000
,
2010
0000
3001
0001
1000
1000
0001
1000
,
0011
0010
0100
1000
1020
0000
0130
0000
,
0012
0000
0013
0010
0100
0100
1000
0001
,
2002
0000
0000
0000
,
0000
0000
0000
0000
,
0000
0000
0000
0000
,
0000
0000
0000
0000
,
3003
0000
0000
0000
;

//---------------dance-single - ddrstepper----------------
#NOTES:
     dance-single:
     ddrstepper:
     Medium:
     6:
     0.317476,0.384539,0.291317,0.274670,0.000000,267.000000,232.000000,35.000000,33.000000,0.000000,0.000000,0.317476,0.384539,0.291317,0.274670,0.000000,267.000000,232.000000,35.000000,33.000000,0.000000,0.000000:
// measure 0
0000
0000
0000
0000
,  // measure 1
0000
0000
0000
0000
,  // measure 2
0000
0000
0000
0000
,  // measure 3
0000
0000
0000
0000
,  // measure 4
1000
0000
0100
0000
,  // measure 5
0010
0001
1000
0010
,  // measure 6
0100
0000
0001
0000
,  // measure 7
1000
0010
0100
0000
0001
0010
0100
0000
,  // measure 8
1000
0100
0010
0000
,  // measure 9
0001
1000
0001
0000
,  // measure 10
0100
0010
1000
0000
,  // measure 11
0001
0010
0001
0000
1000
0010
1000
0000
,  // measure 12
0001
1000
2002
3003
,  // measure 13
0001
0010
0220
0330
,  // measure 14
0100
0100
1000
1000
,  // measure 15
0002
0000
0103
0010
2000
0000
3100
0010
,  // measure 16
0001
0100
0202
0303
,  // measure 17
0001
1000
2200
3300
,  // measure 18
0100
0100
0000
0010
0010
0000
0001
0000
,  // measure 19
2002
3003
0220
0330
,  // measure 20
2002
3003
0000
0001
,  // measure 21
0100
0100
0100
0000
,  // measure 22
0010
0010
0010
0000
,  // measure 23
1000
1000
1000
0000
,  // measure 24
0001
0001
0001
0000
,  // measure 25
0010
0001
0011
0000
,  // measure 26
1000
0010
1010
0000
,  // measure 27
1000
0001
1001
0000
,  // measure 28
0001
0010
0100
1000
,  // measure 29
1001
0001
0010
1000
,  // measure 30
0010
0011
1001
2100
,  // measure 31
3001
1000
0010
0001
,  // measure 32
0010
0000
1010
0000
1001
0000
1000
0002
,  // measure 33
0000
1003
0100
0010
,  // measure 34
0001
0011
1001
1020
,  // measure 35
0130
0001
0100
0010
,  // measure 36
1000
0000
1100
0000
1001
0000
1000
0001
,  // measure 37
0010
0010
0001
0001
,  // measure 38
1000
1000
0010
0010
,  // measure 39
0200
0301
0002
1003
,  // measure 40
2000
0000
3100
0000
0100
0010
0100
1000
,  // measure 41
0001
0001
0001
0000
,  // measure 42
0010
0000
0010
0100
0010
0000
0100
0000
,  // measure 43
1000
1000
1000
0000
,  // measure 44
0001
0000
0001
1000
0001
0000
1000
0000
,  // measure 45
0010
0000
0100
0001
0100
0000
0001
0000
,  // measure 46
1000
0000
0001
0000
2002
0000
3003
0001
,  // measure 47
1000
0000
0010
0010
0100
0000
0001
0000
,  // measure 48
0101
0110
1010
1001
,  // measure 49
0000
0000
0000
0000
,  // measure 50
0001
1000
0100
0001
,  // measure 51
0100
1000
1000
1001
,  // measure 52
1001
0001
0100
1000
,  // measure 53
0100
0000
0001
0000
0001
0000
0001
0200
,  // measure 54
0000
0301
1000
0100
,  // measure 55
0010
0001
1000
1001
,  // measure 56
1001
0001
0100
0010
,  // measure 57
1000
0000
0001
0000
1000
0000
0001
1000
,  // measure 58
0100
0100
0010
0010
,  // measure 59
0001
1001
2002
3003
,  // measure 60
0001
0100
0010
0010
,  // measure 61
1000
1001
2002
3003
,  // measure 62
0001
0001
0010
0010
,  // measure 63
0100
2000
0002
3003
,  // measure 64
1000
1000
0010
0010
,  // measure 65
0100
0002
2000
3003
,  // measure 66
1001
0000
0000
0000
;

//---------------dance-single - Lisek----------------
#NOTES:
     dance-single:
     Lisek:
     Hard:
     7:
     0.434003,0.516880,0.474431,0.091557,0.020808,365.000000,308.000000,57.000000,11.000000,24.000000,0.000000,0.434003,0.516880,0.474431,0.091557,0.020808,365.000000,308.000000,57.000000,11.000000,24.000000,0.000000:
0000
0000
0000
0000
,
0000
0000
0000
0000
,
0000
0000
0000
0000
,
0000
0000
0000
0000
,
0000
0000
1000
0000
0000
1000
0010
0000
,
0100
1000
0100
0010
1000
0100
0000
0010
,
0000
0000
0001
0000
0000
0001
0010
0000
,
0100
0010
0001
0100
0010
1000
0000
0010
,
0000
0000
1000
0000
0000
1000
0010
0000
,
0100
0001
0010
0100
0010
0001
0000
1000
,
0000
0000
0001
0000
0000
0001
0010
0000
,
0001
1000
0000
0000
0010
0100
0001
0000
,
0101
1010
1100
0011
,
0101
1010
1100
0011
,
1000
0100
0001
0100
1000
0010
0001
0010
,
1000
0000
0000
0100
0000
0000
0010
0000
0001
0000
0000
0000
1000
0000
0001
0000
,
0011
1100
0101
1010
,
0011
1100
0101
1010
,
1000
0010
0000
0100
0001
0000
1000
0000
,
2002
3003
0220
0330
,
2002
3003
0000
0001
,
0101
0110
1010
0000
,
1000
0100
0010
0001
0100
0000
0001
0100
,
0001
0101
1001
0000
,
0001
0010
0100
1000
0010
0100
0000
0001
,
0000
0001
0010
0100
0010
0001
0100
0010
,
0000
0010
0100
1000
0100
0010
1000
0001
,
0010
0001
1000
0010
0000
1000
0001
0000
,
0100
0010
1000
0001
0010
0100
1000
0001
,
0000
0011
0110
1100
,
1001
0000
1000
0100
0001
0100
0000
MMMM
,
0000
1100
0110
0011
,
1001
0000
0001
0010
1000
0010
0000
MMMM
,
0000
0011
0101
1010
,
1001
0000
1000
0010
0001
0010
0000
MMMM
,
0000
1010
0110
0101
,
1001
0000
0001
0100
1000
0100
0000
0000
,
0001
0001
1000
1000
0000
0010
0000
0100
,
0010
0010
0100
0100
0000
0001
0000
1000
,
0100
0100
0000
0010
0001
0001
0000
0100
,
0010
0010
0000
1000
0000
0001
1000
0001
,
0100
0010
0100
0000
,
0001
0100
0001
1000
0010
0000
1000
0100
,
0010
0000
0001
0000
1000
0000
0000
0001
,
0100
0000
0010
1000
0010
0100
0000
0000
,
0000
0000
0001
0100
0001
0000
0100
0000
0010
0000
0000
1000
0000
0000
0100
0000
,
0010
0000
0001
0000
1000
0000
0010
0000
0100
0010
0000
1000
0000
0000
0001
0000
,
0100
0001
1000
0010
0000
0000
0000
0000
,
1000
0100
0010
0001
0100
1000
0100
0010
,
0000
0000
0000
0000
,
0000
1010
0110
0101
,
1001
0000
0001
0100
1000
0100
0000
MMMM
,
0000
0101
0110
1010
,
1001
0000
1000
0100
0001
0100
0000
MMMM
,
0000
1100
0110
0011
,
1001
0000
0001
0100
1000
0100
0000
MMMM
,
0000
0101
0110
1010
,
1001
0000
1000
0010
0001
0010
0000
0000
,
1000
1000
0001
0001
0100
0010
0100
0010
,
1000
1000
0100
0100
0010
0001
0010
0001
,
0100
0100
0010
0010
1000
0001
1000
0001
,
0200
1000
0010
0301
,
0100
0001
1000
0001
0200
0000
0310
0000
,
1000
0100
0010
0001
2000
0000
3001
0000
,
1000
0010
0001
0100
,
1000
0001
1000
0001
,
2002
0000
0000
0000
,
0000
0000
0000
0000
,
0000
0000
0000
0000
,
3003
0000
0000
0000
;

//---------------dance-single - Lisek----------------
#NOTES:
     dance-single:
     Lisek:
     Easy:
     3:
     0.153387,0.201009,0.116527,0.016647,0.000000,129.000000,115.000000,14.000000,2.000000,0.000000,0.000000,0.153387,0.201009,0.116527,0.016647,0.000000,129.000000,115.000000,14.000000,2.000000,0.000000,0.000000:
0000
0000
0000
0000
,
0000
0000
0000
0000
,
0000
0000
0000
0000
,
0000
0000
0000
0000
,
0000
1000
0000
1000
,
0000
0000
0000
0000
,
0000
0001
0000
0001
,
0000
0000
0000
0000
,
0000
0100
0000
0100
,
0000
0000
0000
0000
,
0000
0010
0000
0010
,
0000
0000
0000
0000
,
1000
0000
0010
0000
,
0100
0000
0001
0000
,
1000
0000
0001
0000
,
1000
0000
0001
0000
,
1000
0000
0100
0000
,
0010
0000
0001
0000
,
1000
0000
0001
0000
,
1000
0000
0001
0000
,
1001
0000
0000
0000
,
0001
1000
0001
0000
,
1000
0000
0010
0000
,
0100
0010
0100
0000
,
0001
0000
1000
0000
,
0001
1000
0001
0000
,
1000
0001
1000
0000
,
0010
0000
0100
0000
,
0001
0000
1000
0000
,
0001
0000
0100
0000
,
0010
0000
0110
0000
,
0010
0000
1000
0000
,
0001
0000
1001
0000
,
1000
0000
0010
0000
,
0100
0000
0110
0000
,
0100
0000
0001
0000
,
1000
0000
1001
0000
,
0001
0000
0000
0000
,
1000
0000
0000
0000
,
0001
0000
0100
0000
,
0010
0000
0000
0000
,
1000
0000
0100
0000
,
0010
0000
0001
0000
,
1000
0000
0010
0000
,
0100
0000
0001
0000
,
1000
0000
0010
0000
,
0100
0000
0010
0000
,
1000
0000
0001
0000
,
0100
0000
0001
0000
,
0000
0000
0000
0000
,
1000
0000
0001
0000
,
0100
0000
0110
0000
,
0010
0000
1000
0000
,
0001
0000
1001
0000
,
1000
0000
0010
0000
,
0100
0000
0110
0000
,
0100
0000
0001
0000
,
1000
0000
1001
0000
,
0001
0000
0100
0000
,
0001
0000
0101
0000
,
0100
0000
0010
0000
,
1000
0000
1010
0000
,
1000
0000
0001
0000
,
0100
0000
0101
0000
,
0001
0000
1000
0000
,
0010
0000
1010
0000
,
2002
0000
0000
0000
,
0000
0000
0000
0000
,
0000
0000
0000
0000
,
3003
0000
0000
0000
;

//---------------dance-single - Lisek----------------
#NOTES:
     dance-single:
     Lisek:
     Beginner:
     1:
     0.064209,0.109868,0.000000,0.000000,0.000000,54.000000,54.000000,0.000000,0.000000,0.000000,0.000000,0.064209,0.109868,0.000000,0.000000,0.000000,54.000000,54.000000,0.000000,0.000000,0.000000,0.000000:
0000
0000
0000
0000
,
0000
0000
0000
0000
,
0000
0000
0000
0000
,
0000
0000
0000
0000
,
1000
0000
0000
0000
,
0000
0000
0000
0000
,
0001
0000
0000
0000
,
0000
0000
0000
0000
,
0100
0000
0000
0000
,
0000
0000
0000
0000
,
0010
0000
0000
0000
,
0000
0000
0000
0000
,
1000
0000
0000
0000
,
0010
0000
0000
0000
,
0100
0000
0000
0000
,
0001
0000
0000
0000
,
1000
0000
0000
0000
,
0100
0000
0000
0000
,
0010
0000
0000
0000
,
0001
0000
0000
0000
,
0000
0000
0000
0000
,
1000
0000
0000
0000
,
0001
0000
0000
0000
,
1000
0000
0000
0000
,
0001
0000
0000
0000
,
0100
0000
0000
0000
,
0010
0000
0000
0000
,
0100
0000
0000
0000
,
0010
0000
0000
0000
,
1000
0000
0000
0000
,
0001
0000
0000
0000
,
0100
0000
0000
0000
,
0010
0000
0000
0000
,
1000
0000
0000
0000
,
0100
0000
0000
0000
,
0010
0000
0000
0000
,
0001
0000
0000
0000
,
1000
0000
0000
0000
,
0001
0000
0000
0000
,
1000
0000
0001
0000
,
1000
0000
0000
0000
,
0001
0000
0000
0000
,
0000
0000
0000
0000
,
1000
0000
0000
0000
,
0000
0000
0000
0000
,
0010
0000
0000
0000
,
0000
0000
0000
0000
,
0100
0000
0000
0000
,
0000
0000
0000
0000
,
0000
0000
0000
0000
,
0001
0000
0000
0000
,
0100
0000
0000
0000
,
0010
0000
0000
0000
,
1000
0000
0000
0000
,
0001
0000
0000
0000
,
0010
0000
0000
0000
,
0100
0000
0000
0000
,
1000
0000
0000
0000
,
0001
0000
0000
0000
,
0100
0000
0000
0000
,
0001
0000
0000
0000
,
1000
0000
0000
0000
,
0010
0000
0000
0000
,
1000
0000
0000
0000
,
0001
0000
0000
0000
,
0100
0000
0000
0000
,
0001
0000
0000
0000
;
