#VERSION:0.83;
#TITLE:Spectrum;
#SUBTITLE:;
#ARTIST:Zedd ft. Matthew Koma;
#TITLETRANSLIT:;
#SUBTITLETRANSLIT:;
#ARTISTTRANSLIT:;
#GENRE:;
#ORIGIN:;
#CREDIT:;
#BANNER:spectrum-bn.png;
#BACKGROUND:spectrum-bg.png;
#PREVIEWVID:;
#JACKET:spectrum-jacket.png;
#CDIMAGE:;
#DISCIMAGE:;
#LYRICSPATH:;
#CDTITLE:cdtitle.png;
#MUSIC:spectrum.mp3;
#OFFSET:-0.226000;
#SAMPLESTART:76.379997;
#SAMPLELENGTH:12.000000;
#SELECTABLE:YES;
#BPMS:0.000=65.000,
51.000=130.000,
83.000=65.000,
91.000=130.000,
99.000=260.000,
107.000=75.000,
109.000=130.000,
173.000=65.000;
#STOPS:108.750=0.250;
#DELAYS:;
#WARPS:;
#TIMESIGNATURES:0.000=4=4;
#TICKCOUNTS:0.000=4;
#COMBOS:0.000=1;
#SPEEDS:0.000=1.000=0.000=0;
#SCROLLS:0.000=1.000;
#FAKES:;
#LABELS:0.000=Song Start;
#BGCHANGES:;
#KEYSOUNDS:;
#ATTACKS:
;

//---------------dance-single - ----------------
#NOTEDATA:;
#CHARTNAME:;
#STEPSTYPE:dance-single;
#DESCRIPTION:;
#CHARTSTYLE:;
#DIFFICULTY:Hard;
#METER:8;
#RADARVALUES:0.399905,0.433358,0.143556,0.191407,0.231284,351.000000,333.000000,18.000000,24.000000,0.000000,0.000000,0.000000,0.000000,0.000000,0.399905,0.433358,0.143556,0.191407,0.231284,351.000000,333.000000,18.000000,24.000000,0.000000,0.000000,0.000000,0.000000,0.000000;
#CREDIT:;
#NOTES:
// measure 0
0000
0000
0000
0000
0000
0000
1000
0100
,  // measure 1
1000
1000
1000
0000
0100
0000
0010
0100
0010
0000
0100
0000
1000
0000
0010
0000
,  // measure 2
0001
0001
0001
0000
1000
0000
1000
0100
0010
0000
0010
0000
0001
0000
0010
0000
,  // measure 3
0010
0010
0010
0000
0100
0000
1000
0000
0100
0000
0010
0010
0000
0100
0000
0010
,  // measure 4
0000
0100
0000
2000
0000
0000
3000
0100
0100
0010
0010
0001
0010
0000
1000
0000
,  // measure 5
0100
0100
0100
0000
0001
0000
0010
0001
0010
0000
0010
0000
0100
0000
0100
0000
,  // measure 6
1000
1000
1000
0000
0010
0000
0010
0100
0010
0000
0001
0000
0010
0000
1000
0000
,  // measure 7
0010
0010
0010
0000
0100
0000
0010
0000
1000
0000
0010
0100
0000
0100
0000
0010
,  // measure 8
0000
1000
0000
0002
0000
0000
0003
0010
0100
0010
0001
0010
0110
0000
0000
0000
,  // measure 9
0100
0010
0100
0200
0000
0000
0300
0020
0000
0000
0000
0030
1100
0000
0000
0100
,  // measure 10
0100
0010
0100
0010
0000
0001
0000
0200
0000
0000
0000
0300
1100
0000
0000
1000
,  // measure 11
0100
0010
0001
0020
0000
0000
0130
0200
0000
0000
0000
0300
0110
0000
0000
0001
,  // measure 12
0010
0001
0100
0010
0000
0010
0000
1000
0000
0100
0100
0000
1100
0000
0100
0000
,  // measure 13
1000
0100
0010
0100
0001
0100
1000
0010
,  // measure 14
0100
0010
1000
0010
0100
0010
0110
0100
,  // measure 15
0010
0100
0001
0100
0001
0010
1000
0010
,  // measure 16
0100
0010
1000
0010
0001
0100
0101
0100
,  // measure 17
0010
0100
0010
0100
1000
0200
0000
0320
,  // measure 18
0000
0032
0000
0023
0000
0230
1000
0000
,  // measure 19
1000
0300
2000
0000
3100
0020
0000
0000
,  // measure 20
0130
0020
0000
0000
0001
0030
0110
0010
,  // measure 21
0100
0010
1000
0010
0100
0010
1000
0100
,  // measure 22
0010
0100
0001
0100
0010
0100
0110
0010
,  // measure 23
0100
0010
0001
0100
0010
0100
0100
0010
,  // measure 24
0001
0010
0100
1000
0100
1000
0100
0000
,  // measure 25
1000
0010
0001
0100
,  // measure 26
0001
0010
1000
2020
,  // measure 27
0000
0000
0000
3030
0110
0000
0000
0000
0001
0000
0000
0000
0010
0000
0001
0000
,  // measure 28
0010
0100
0000
0010
0000
0100
1000
0000
,  // measure 29
0100
0000
0101
0001
0100
0001
0020
0000
,  // measure 30
0030
0100
0000
0010
0000
0100
1000
0000
,  // measure 31
1000
0000
1100
0000
0100
0010
0001
0010
,  // measure 32
0100
0010
0010
0000
0010
0200
1000
0000
,  // measure 33
1000
0300
1000
0100
1000
0010
0100
0001
,  // measure 34
0100
0010
0000
0100
0001
0200
1000
0000
,  // measure 35
0001
0300
0101
0000
0100
0000
0100
0010
,  // measure 36
1000
1000
0000
1000
0000
1000
0100
0000
,  // measure 37
0010
0000
0011
0010
0001
0010
0200
0000
,  // measure 38
0300
0100
0000
0100
0000
1000
0100
0000
,  // measure 39
0100
0000
0101
0000
0001
0010
0100
1000
,  // measure 40
0100
1000
0010
0000
1000
0002
0100
0000
,  // measure 41
0010
0003
1100
0100
1000
0010
0100
0010
,  // measure 42
0001
0010
0000
0100
1000
0200
0010
0000
,  // measure 43
0010
0000
0000
0000
1300
0000
0100
0000
1000
0100
0001
0000
0001
0000
0010
0100
,  // measure 44
0010
0000
0001
0000
0010
0000
0100
0000
1000
0100
0001
0000
0010
0000
0001
0010
,  // measure 45
0100
0000
0010
0000
0100
0000
1000
0000
0100
0010
0100
0000
0001
0000
0010
0000
,  // measure 46
0100
0100
0000
0010
0000
0100
0000
1000
0000
0100
0000
0200
0000
0000
0300
1000
,  // measure 47
1000
0100
0010
0010
0110
0000
0000
0000
0000
0000
0000
0000
0000
0000
0000
0000
;

//---------------dance-single - ----------------
#NOTEDATA:;
#CHARTNAME:;
#STEPSTYPE:dance-single;
#DESCRIPTION:;
#CHARTSTYLE:;
#DIFFICULTY:Beginner;
#METER:2;
#RADARVALUES:0.165203,0.207258,0.127605,0.183432,0.059815,145.000000,129.000000,16.000000,23.000000,0.000000,0.000000,0.000000,0.000000,0.000000,0.165203,0.207258,0.127605,0.183432,0.059815,145.000000,129.000000,16.000000,23.000000,0.000000,0.000000,0.000000,0.000000,0.000000;
#CREDIT:;
#NOTES:
0000
0000
0000
2000
,
0000
3000
0100
0000
0001
0000
0001
0000
,
0010
1000
0100
0001
,
0010
0100
0001
0010
,
0100
0010
1000
0010
,
0100
0001
1000
1000
,
0100
0010
0001
0001
,
0010
0100
0010
1000
,
0010
0100
0100
0220
,
0330
0000
0000
0100
0000
0000
0000
0010
0000
0000
0000
0000
2002
0000
0000
0000
,
3003
0000
0000
0010
0000
0010
0000
0010
0000
0000
0000
0000
0220
0000
0000
0000
,
0330
0000
0000
0010
0000
0000
0000
0001
0000
0000
0000
0000
2002
0000
0000
0000
,
3003
0000
0000
0010
0000
0010
0000
0010
0000
0000
0000
0000
1010
0000
0000
0000
,
0000
0100
0000
0010
,
0000
0010
0000
0101
,
0000
0001
0000
0100
,
0000
1000
0000
0011
,
0000
0010
0000
0100
,
0000
0000
0010
0000
0000
0200
0000
0000
,
0000
0000
0300
0000
2000
0000
0000
0000
0000
3000
0200
0000
0000
0000
0000
0000
,
0000
0320
0000
0000
0000
0030
1001
0000
,
0100
1000
0100
0001
,
0100
1000
0100
0110
,
0100
0001
0010
0100
,
0001
0100
0100
2002
,
0000
0000
0000
0000
,
0000
0000
0000
3003
,
0000
0110
0000
0010
,
0000
0100
0000
1000
,
0000
0011
0000
0020
,
0000
0030
0100
0000
0000
0000
1000
0000
,
0000
1100
0000
0001
,
0000
0001
0000
0100
0000
0010
0000
1000
,
0000
0200
0000
0000
0000
0300
0010
0000
,
0000
0220
0000
0000
,
0000
0330
0000
0010
,
0000
0100
0000
0001
,
0000
0011
0000
0020
,
0000
0030
0100
0000
0000
0000
0001
0000
,
0000
0110
0000
0010
,
0000
0010
0000
0100
0000
0001
0000
1000
,
0000
0020
0000
0000
0000
0030
0100
0000
,
0000
0000
0010
0000
0000
0200
0000
0000
,
0000
0301
0100
0001
,
0010
0010
1000
0100
,
0001
0100
0010
0001
,
0010
0000
0000
0010
0000
0100
0000
0100
0000
0100
0000
0020
0000
0000
0000
0000
,
0000
0030
0000
0000
;

//---------------dance-single - ----------------
#NOTEDATA:;
#CHARTNAME:;
#STEPSTYPE:dance-single;
#DESCRIPTION:;
#CHARTSTYLE:;
#DIFFICULTY:Easy;
#METER:4;
#RADARVALUES:0.238120,0.244942,0.143556,0.191407,0.099691,209.000000,191.000000,18.000000,24.000000,0.000000,0.000000,0.000000,0.000000,0.000000,0.238120,0.244942,0.143556,0.191407,0.099691,209.000000,191.000000,18.000000,24.000000,0.000000,0.000000,0.000000,0.000000,0.000000;
#CREDIT:;
#NOTES:
0000
0000
0000
1000
,
0100
0000
0010
0000
0001
0001
0001
0000
,
0010
0000
1000
0000
0100
0100
0100
0000
,
0010
0000
0000
0000
0100
0000
0000
0000
0001
0000
0000
1000
0000
0100
0000
0100
,
0000
0100
0000
0020
0000
0000
0000
0030
0000
0000
0000
0000
0100
0000
0010
0000
,
0100
0000
0010
0000
1000
1000
1000
0000
,
0100
0000
0010
0000
0001
0001
0001
0000
,
0010
0000
0000
0000
0100
0000
0000
0000
0010
0000
0000
0001
0000
0010
0000
0010
,
0000
0010
0000
0200
0000
0000
0000
0000
0300
0000
0100
0000
0220
0000
0000
0000
,
0330
0000
0000
0200
0000
0000
0300
2000
0000
0000
0000
3000
2002
0000
0000
0000
,
3003
0000
0000
0010
0000
0010
0000
0020
0000
0000
0000
0030
2200
0000
0000
0000
,
3300
0000
0000
0010
0000
0000
0000
0020
0000
0000
0000
0030
2200
0000
0000
0000
,
3300
0000
0000
1000
0000
0100
0000
0020
0000
0000
0000
0030
1100
0000
0000
0000
,
0100
0010
0001
0010
,
0001
0010
0100
1001
,
0001
0010
0100
0100
,
1000
0100
0010
0110
,
0100
0010
0001
0100
,
0010
0001
0010
0100
,
0100
0000
0020
0000
0000
0230
0000
0000
,
0000
0320
0000
0000
0000
0030
1010
0000
,
1000
0100
0010
0100
,
0010
0001
0100
1001
,
0100
0010
0001
0010
,
0001
0010
0100
2001
,
0000
0000
0000
0001
,
0000
0000
0000
0000
0000
3000
1010
0000
,
0000
0110
0010
0100
,
1000
0100
0010
0100
,
0100
1100
0001
0020
,
0000
0030
0100
0000
1000
0000
0100
0000
,
0100
1100
0010
0100
,
0010
0000
0100
0000
0100
0020
0000
0000
,
1000
0030
1000
0100
1000
0000
0010
0001
,
0010
0100
0010
1000
,
0100
0101
0100
0010
,
0100
0010
0001
0010
,
0001
0011
0010
0020
,
0000
0030
0100
0000
0010
0000
0001
0000
,
0010
0110
0100
0010
,
0001
0000
0010
0000
0001
0002
0000
0000
,
0010
0003
0010
0001
0010
0000
0100
1000
,
0100
0010
0100
0010
,
1000
0000
1100
0100
0100
0000
0100
0000
,
0010
0100
0010
0000
1000
0000
0100
0000
,
0100
1000
0100
0000
0010
0000
0001
0000
,
0010
0000
0000
0001
0000
0100
0000
0100
0000
0100
0000
0020
0000
0000
0000
0000
,
0100
0100
0130
0000
0000
0000
0000
0000
;

//---------------dance-single - ----------------
#NOTEDATA:;
#CHARTNAME:;
#STEPSTYPE:dance-single;
#DESCRIPTION:;
#CHARTSTYLE:;
#DIFFICULTY:Challenge;
#METER:9;
#RADARVALUES:0.445478,0.471042,0.398765,0.366864,0.239259,391.000000,341.000000,50.000000,46.000000,6.000000,0.000000,0.000000,0.000000,0.000000,0.445478,0.471042,0.398765,0.366864,0.239259,391.000000,341.000000,50.000000,46.000000,6.000000,0.000000,0.000000,0.000000,0.000000;
#CREDIT:;
#NOTES:
0000
0000
0000
0000
0000
0000
1000
0010
,
1000
0100
1000
0000
0100
0000
1000
0010
0100
0000
0100
0000
1010
0000
1000
0000
,
0001
0010
0001
0000
0010
0000
0100
0010
0100
0000
0100
0000
0011
0000
1000
0000
,
0010
0100
0001
0000
0010
0000
1000
0000
0010
0000
0001
2000
0000
3020
0000
0230
,
0000
0320
0000
2030
0000
0000
0000
3000
0000
0000
0000
0000
1000
0000
0001
0000
,
0010
0001
0010
0000
1000
0000
0010
1000
0010
0000
1000
0000
0002
0000
0000
0003
,
0100
0001
0100
0000
0001
0000
1000
0100
1000
0000
0100
0000
0020
0000
0000
0030
,
0001
1000
0010
0000
0100
0000
0001
0000
0010
0000
0001
0200
0000
0302
0000
2003
,
0000
3002
0000
0023
0000
0000
0000
0030
0000
0000
0010
0000
2001
0000
0000
0000
,
3010
0000
0000
2000
0000
0000
0000
0002
3000
0000
0000
0000
0023
0000
0000
0030
,
0001
0010
0100
0010
0001
0000
0011
0000
0000
0000
1010
0000
0000
0000
0120
0000
0000
0000
0000
0000
0000
0000
0000
0000
2030
0000
0000
0000
0000
0000
0000
0000
,
0000
3000
0001
1002
0000
0000
0003
1020
0000
0000
0000
0030
2100
0000
0000
3001
,
0100
0010
1000
1100
0000
0101
0000
0110
0000
1000
1000
0000
010M
0000
1000
0000
,
0001
1000
0100
1000
0001
0100
0001
1000
,
0001
0100
0001
1000
0010
0100
0001
0010
,
0001
0100
0001
0010
0001
0100
0010
1000
,
0100
1000
0010
1000
0100
0010
0001
0010
,
0100
0010
0001
1000
0010
0100
0010
1000
,
0001
0100
0010
0100
0001
1000
0100
0010
,
0100
1000
0100
0001
0100
1000
0001
0010
,
1000
0010
0001
0010
0100
1000
110M
0000
,
0011
0000
0101
0000
1010
0000
0202
0303
,
2020
3030
2200
3300
0022
0033
M001
0010
,
0100
0000
0010
0000
0001
0000
0100
0000
0010
0000
0100
0000
0001
1000
0001
1000
,
0010
0100
0010
0100
0001
1000
0001
1000
0010
0100
0010
0100
M001
0000
0010
0000
,
0100
1000
0010
0100
0010
1000
0100
0010
,
0001
0100
0010
1000
0010
0100
0220
0000
,
0000
0000
0000
033M
1010
0000
0000
0000
0011
0000
0000
0000
1010
0000
0000
0000
,
1000
0001
0021
0000
0100
0000
0001
0000
,
0130
0000
0000
0000
2001
0000
0000
0000
3100
0000
0000
0000
0001
0010
0100
1000
,
0100
1001
0000
1010
0000
0120
0000
2000
,
0000
3030
0011
0000
1010
0000
0011
0000
,
0001
0201
0000
0310
0000
2010
0000
3100
,
0000
0220
0000
0000
0330
0000
0001
0100
,
0010
1000
0100
0010
0100
0020
0000
0000
,
0030
0000
0100
1000
1010
1000
0100
1000
,
1010
1000
0001
0100
0110
0100
0001
0100
,
0110
0000
0100
0000
0001
0000
0100
0000
0110
0000
0010
0000
1000
0010
0100
0001
,
0100
0001
0010
0001
0101
0001
0010
0001
,
0101
0001
0100
0001
1001
0001
0100
0001
,
1001
0001
0100
0001
1001
1000
0001
1000
,
1010
1000
0001
1000
1010
1000
0100
0010
,
0001
0100
0001
0010
0100
0020
0000
0000
,
0030
0000
0000
0000
010M
0000
0000
0000
1000
0010
1000
0000
0010
0000
1000
0100
,
0010
0000
0010
0000
1100
0000
1000
0000
0001
0100
0001
0000
0100
0000
0010
0100
,
0010
0000
0010
0000
0101
0000
1000
0000
0100
0010
0001
0000
0100
0000
1000
0000
,
0100
0000
0001
2000
0000
3200
0000
0320
0000
0230
0000
2300
0000
0000
3000
0000
,
0000
0000
0000
0001
1001
0000
0000
0000
0000
0000
0000
0000
0000
0000
0000
0000
;

//---------------dance-single - ----------------
#NOTEDATA:;
#CHARTNAME:;
#STEPSTYPE:dance-single;
#DESCRIPTION:;
#CHARTSTYLE:;
#DIFFICULTY:Medium;
#METER:7;
#RADARVALUES:0.330406,0.395675,0.151531,0.207358,0.111654,290.000000,271.000000,19.000000,26.000000,0.000000,0.000000,0.000000,0.000000,0.000000,0.330406,0.395675,0.151531,0.207358,0.111654,290.000000,271.000000,19.000000,26.000000,0.000000,0.000000,0.000000,0.000000,0.000000;
#CREDIT:;
#NOTES:
0000
0000
0000
0000
0000
0000
0010
0010
,
0010
1000
0010
0000
0010
0000
0010
1000
0100
0000
0100
0000
0010
0000
0010
0000
,
0010
0001
0010
0000
0010
0000
0010
0001
0100
0000
0100
0000
0010
0000
0010
0000
,
0010
0100
0010
0000
1000
0000
0010
0000
0100
0000
0001
1000
0001
0000
0100
0000
,
0010
1000
0100
0010
0001
0100
0010
0000
,
1000
0010
1000
0000
1000
0000
0001
0010
0001
0000
0010
0000
0200
0000
0300
0000
,
1000
0100
1000
0000
1000
0000
0001
0100
0001
0000
0100
0000
0020
0000
0030
0000
,
0010
1000
0100
0000
0100
0000
1000
0000
1000
0000
0010
0100
0010
0000
1000
0000
,
0010
0100
0001
0010
0100
1000
0002
0000
,
1003
0000
0000
0022
0000
0033
0000
0202
0000
0303
0000
0000
0120
0000
0000
0000
,
1030
0000
0000
0110
0000
1001
0000
0220
0000
0330
0000
0000
2001
0000
0000
0000
,
0000
0000
0100
0200
0000
3300
0000
0002
0000
0000
0000
0000
0200
0000
0303
0000
,
1000
0000
0000
1100
0000
1100
0000
0022
0000
0033
0000
0000
2001
0000
0000
0000
,
0100
0000
0100
0000
3100
0010
0001
0000
,
0001
1000
1000
0120
,
1000
0000
1000
0000
1030
0010
0100
0000
,
0100
0010
0010
1002
,
0010
0000
0010
0000
0013
0100
1000
0000
,
1000
0001
0001
0210
,
0001
0000
0001
0000
0301
0100
0010
0000
,
0010
0100
0100
0001
,
1000
0001
1000
0010
,
0100
0010
0100
0001
,
1000
0000
0001
0000
1000
0000
0010
0100
,
0010
0100
0010
0100
0010
0100
0002
0000
,
0000
0000
0000
0000
,
0000
0000
0000
2000
,
0000
3003
1002
0000
0010
0000
1000
0000
,
0013
0100
1000
0000
0001
0000
1000
0000
,
0001
0210
0001
0010
,
0301
0100
0010
0000
0100
0000
0010
0000
,
0100
2001
0100
0001
,
3100
0010
0001
0000
1000
0000
0001
0000
,
1000
0120
0001
0100
,
0031
0010
0100
0000
0010
0000
0100
0000
,
0010
0000
0001
0010
0001
0000
0001
0100
,
0001
0000
0001
0010
0001
0000
0001
0100
,
0001
0000
1000
0010
1000
0000
1000
0100
,
1000
0000
1000
0010
1000
0000
1000
0100
,
1000
0000
0001
0010
0100
0000
1000
0010
,
0100
0000
0001
0010
0100
0000
1000
0010
,
0100
0000
0001
0100
0010
0000
1000
0100
,
0010
0000
0001
0100
0010
0000
1000
0100
,
0010
0000
0000
0000
1001
0000
0000
0000
0001
0010
0001
0000
0001
0000
0001
0010
,
1000
0000
1000
0000
0001
0000
0001
0000
0001
0100
0001
0000
0001
0000
0001
0100
,
1000
0000
1000
0000
0001
0000
0001
0000
0001
1000
0001
0000
0010
0000
0001
0000
,
1000
0000
0100
0010
0100
0000
1000
0000
0001
0000
0010
0000
1000
0000
0100
0000
,
0001
0010
1000
0000
0000
0000
0000
0000
;
