#TITLE:Panama;
#SUBTITLE:;
#ARTIST:Van Halen;
#TITLETRANSLIT:;
#SUBTITLETRANSLIT:;
#ARTISTTRANSLIT:;
#CREDIT:;
#BANNER:;
#BACKGROUND:;
#LYRICSPATH:;
#CDTITLE:;
#MUSIC:Panama.ogg;
#OFFSET:-0.080;
#SAMPLESTART:29.660;
#SAMPLELENGTH:12.000;
#SELECTABLE:YES;
#BPMS:0.000=100.000,1.000=144.880,32.000=142.000,40.000=144.800,45.000=142.000,53.000=145.000,58.000=146.000,63.000=140.700,75.000=140.680,82.000=142.000,88.000=141.000,129.000=143.500,135.000=139.000,138.000=141.500,149.000=152.000,150.000=145.000,152.000=140.000,155.000=136.500,158.000=140.800,193.000=144.000,207.000=141.000;
#STOPS:;
#BGCHANGES:;

//---------------dance-double - ----------------
#NOTES:
     dance-double:
     :
     Hard:
     9:
     0.578,0.550,0.313,0.270,0.059:
00000000
00000000
00000000
00000000
,
00000000
00000000
00000000
00000000
,
00000000
00000000
00000000
00000000
,
20010000
00000000
01000000
00000000
32000000
00000000
10000000
10000000
,
13000000
10000000
01000000
00000000
01000000
00010000
00000000
00010000
,
01000000
00000000
10000000
01000000
10000000
01000000
10000000
00100000
,
00000000
00010000
00000100
00000000
00000010
00000001
00000100
00000010
,
00002000
00000000
00000000
00000000
01003000
10000000
11000000
00000000
,
10100000
00000000
00100000
01000000
00010000
00000000
01000000
00000000
,
10100000
00000000
10000000
01000000
00001000
00000100
00000100
00000000
,
00010100
00000000
00000100
00001000
00000010
000002M0
00000000
00000310
,
00000010
00000010
00000010
00000010
00000010
00000000
00002010
00000000
,
00003001
00000000
00000100
00001000
00100000
01000000
10000000
01000000
,
00010000
01000000
00100000
10000000
00010000
01000000
10000000
00010000
,
01000000
00001000
00010000
00022000
00000000
00000000
00000000
00000000
,
00033000
00000000
00000100
00001000
01000000
11000000
00000000
10000000
,
01000000
00010000
10000000
00100000
00010000
10000000
01000000
00010000
,
00001000
00000100
00000001
00000001
00000001
MMMM1001
00000000
00000001
,
00000010
00000000
00000010
00000000
00000010
00001000
00000000
00001000
,
00010000
00000000
01000000
00000000
10000000
00010000
20000000
00000000
0001MMMM
00000000
30010000
00000000
0000MMMM
00000000
00010000
00000000
,
10000000
00000000
01000000
00000000
10000000
00100000
00000000
01000000
,
00001000
00000000
00000000
00000000
00000100
00001000
00000200
00000000
00000000
00000000
00001300
00000000
00000000
00000000
00000001
00000000
,
00000010
00000000
00001000
00000000
00100000
00010000
00100000
10000000
,
00100000
00000000
00000000
00000000
10000000
00100000
20000000
00000000
00000000
00000000
30010000
00000000
00000000
00000000
10000000
00000000
,
00010000
00000000
00100000
00000000
00100000
00001000
01000000
00001000
,
00010000
00000000
00000000
00000000
00000100
00001000
00000200
00000000
00000000
00000000
00010300
00000000
00000000
00000000
00011000
00000000
,
00010000
00001000
00010000
00001000
00010000
01000000
10000000
00010000
,
10000000
00010000
10000000
11000000
00000000
01010000
00000000
00011000
,
00001000
00010000
00001000
00010000
00001000
00000100
00000001
00001000
,
00000001
00001000
00000001
00000100
00001000
00011000
00000000
01100000
,
00100000
01000000
10000000
00010000
00100000
01000000
10000000
00010000
,
00100000
00001000
00010000
00000100
00001000
00000001
00000000
00000101
,
00000001
00000100
00001000
00010000
01000000
10000000
00100000
01000000
,
00010000
00100000
01000000
00000000
10000000
00000000
01010000
00000000
,
00010000
00100000
00010000
00100000
00010000
00100000
00002000
00000000
,
00013000
00000100
00000000
00000100
00000000
00001100
00001100
00001000
,
00000100
00000010
00000001
00000000
00000010
00000200
00000000
00000000
,
00010300
00000000
00000000
00000000
00001000
00000000
00010000
00000000
01000000
10000000
00010000
00100000
01000000
00000000
11000000
00000000
,
00100000
02020000
03030000
00000000
00001000
00010100
00010000
00002200
,
00003300
00000000
00001000
00000000
00000001
00000010
00000000
00000001
,
00000100
00001000
00000001
00000010
00001000
00000001
00000100
00001000
,
00010000
01000000
10000000
10000000
10000000
20020000
00000000
30030000
,
01100000
00000000
11000000
00000000
00010000
01000000
00000000
00100000
,
10000000
00000000
00000000
00000000
01000000
00100000
00020000
00000000
00000000
00000000
00031000
00000000
00000000
00000000
00001000
00000000
,
00000100
00000100
00000010
00000000
00000001
00000010
00000000
00000100
,
00001000
01000000
10000000
00010000
01010000
01010000
00000000
00010000
,
01000000
00000000
00010000
00000000
00000010
00000001
00000000
00000001
,
00000010
00000000
00000100
00000000
00001000
00010000
00002000
00000000
00000000
00000000
00013000
00000000
00100000
00000000
00010000
00000000
,
01000000
00000000
00001000
00000000
01000000
00010000
00000000
10000000
,
00100000
00000000
01000000
00000000
00010000
00000000
00100000
00000000
00001000
00010000
00000010
00001000
00000200
00000000
00000000
00000000
,
00001300
00001000
00000010
00000000
00000010
00000100
00000000
00000100
,
00000001
00000000
00000000
00000000
00000010
00000100
00002000
00000000
00000000
00000000
01003000
00000000
10000000
00000000
00100000
00000000
,
01000000
00000000
00100000
00100000
10000000
01000000
00000000
00010000
,
00001000
00000000
00000000
00000000
00000000
00000000
00000000
00000000
00000000
00000000
00000000
00000000
00000000
00000000
00000000
00000000
MMM10MMM
00000000
00000000
00000000
00000000
00000000
00000000
00000000
00001000
00000000
00000000
00000000
00000000
00000000
00000000
00000000
00010000
00000000
00000000
00000000
00000000
00000000
00000000
00000000
MMM22MMM
00033000
00000000
00000000
00000000
00000000
00000000
00000000
00000000
00000000
00000000
00000000
00000000
00000000
00000000
00000000
00000000
00000000
00000000
00000000
00000000
00000000
00000000
00000000
;

//---------------dance-single - ----------------
#NOTES:
     dance-single:
     :
     Beginner:
     3:
     0.200,0.260,0.065,0.043,0.000: // measure 1
0000
0000
0000
0000
,  // measure 2
0000
0000
0000
0000
,  // measure 3
0000
0000
0000
0000
,  // measure 4
0000
0000
0000
0000
,  // measure 5
0000
0000
0000
0000
,  // measure 6
0000
0000
0000
0000
,  // measure 7
0000
0000
0000
0000
,  // measure 8
0000
0000
0000
1000
,  // measure 9
0000
1000
0000
0001
,  // measure 10
0000
0001
0001
0010
,  // measure 11
0000
0010
0000
0100
,  // measure 12
0000
0100
0100
1000
,  // measure 13
0000
1000
0000
0001
,  // measure 14
0000
0100
0100
0010
,  // measure 15
0000
0010
0000
1000
,  // measure 16
0000
0000
0001
0000
0000
1000
0000
0000
,  // measure 17
0000
0000
0000
0000
,  // measure 18
0000
0000
0000
0000
0000
1001
0000
0000
,  // measure 19
0000
0001
0000
0010
,  // measure 20
0000
0001
0000
0110
,  // measure 21
0000
1000
0000
0100
,  // measure 22
0000
1000
0000
0110
,  // measure 23
0000
0001
0000
0100
,  // measure 24
0000
0001
0000
1001
,  // measure 25
0000
1000
0000
0010
,  // measure 26
0000
0000
1000
0000
0000
1001
0000
0002
,  // measure 27
0000
0000
0000
0000
,  // measure 28
0003
0000
0000
0001
0000
0001
0000
0002
,  // measure 29
0000
0000
0000
0000
,  // measure 30
0003
0000
0000
1000
0000
1000
0000
2000
,  // measure 31
0000
0000
0000
0000
,  // measure 32
3000
0000
0000
1000
0000
1000
0000
2000
,  // measure 33
0000
0000
0000
3000
0000
0000
1000
0000
,  // measure 34
1000
1000
1000
0001
,  // measure 35
0000
0001
0000
1000
,  // measure 36
0001
1000
0001
0010
,  // measure 37
0000
0100
0000
0100
,  // measure 38
0010
0100
0010
0100
,  // measure 39
1000
0001
1000
0010
,  // measure 40
1000
0000
0001
0000
0000
0001
0000
0000
,  // measure 41
0000
0000
0000
0000
,  // measure 42
0000
0000
0000
0000
0000
1001
0000
0000
,  // measure 43
0001
0001
0001
1000
,  // measure 44
1000
0001
1000
0001
,  // measure 45
0001
0001
0001
1000
,  // measure 46
1000
0001
1000
0010
,  // measure 47
0010
0010
0010
0100
,  // measure 48
0100
0010
0100
0010
,  // measure 49
0010
0010
0010
0100
,  // measure 50
0100
0010
0100
0001
,  // measure 51
1000
0001
1000
0001
,  // measure 52
1000
0010
0100
0001
,  // measure 53
0010
0100
1000
0001
,  // measure 54
0010
0000
0100
0000
0010
0010
0000
0000
;

//---------------dance-single - ----------------
#NOTES:
     dance-single:
     :
     Medium:
     6:
     0.429,0.521,0.130,0.432,0.000:
0000
0000
0000
0000
,
0000
0000
0000
0000
,
0000
0000
0000
0000
,
0002
0000
0000
1003
,
0001
1000
0100
0001
,
0100
1000
0010
0100
,
0001
0000
0010
0000
0100
0000
1000
0010
,
0200
0000
0000
0000
0000
0010
0310
0000
,
1000
0000
0010
0100
0001
0000
0001
0010
,
0100
0000
0010
0100
1000
0000
0010
0000
,
0100
0000
0000
0000
0001
0000
0000
0000
0100
0000
0002
0003
0000
0000
1000
0000
,
0002
0000
0000
0000
0000
1000
1003
0000
,
0010
0000
0100
0010
1000
0000
0010
0001
,
0010
0000
1000
0010
1000
0100
1000
0001
,
0000
0010
0000
0202
0000
0000
0000
0000
,
0000
0000
0303
0000
0001
0101
0000
0001
,
00M0
0M00
0001
00M0
0M00
0001
00M0
0M00
,
0001
00M0
1000
0001
1000
0001
0000
0001
,
1000
0000
0100
0000
0010
0001
0000
0010
,
0100
0000
0010
0002
0000
0013
0000
0010
,
0100
0000
1000
0000
0000
0001
0000
1000
,
0010
0000
0100
0020
0000
1030
0000
1000
,
0010
0000
0100
0000
0100
0001
0000
0010
,
0100
0000
1000
0002
0000
1003
0000
0010
,
0100
0000
0001
0000
0010
0100
0000
1000
,
0100
0000
1000
0000
0001
0000
2000
0000
0000
0000
3002
0003
0000
0000
0202
0000
,
0303
0001
0010
0100
,
0010
0000
0000
0000
0001
0000
2000
3000
0000
0000
0020
0030
0000
0000
0220
0000
,
0330
1000
0010
0100
,
0001
0000
0000
0000
0100
0000
0020
0030
0000
0000
2000
3000
0000
0000
2200
0000
,
3300
1000
0100
0010
,
0001
0000
0000
0000
1000
0000
0002
0003
0000
0000
0020
0030
0000
0000
0022
0000
,
0033
0000
0001
0000
0010
0000
0001
1000
,
0010
0000
1000
0100
1000
0010
0100
0000
,
0010
0000
1000
0100
0010
0001
0010
0000
,
0010
0100
0000
1000
0000
1001
0000
0001
,
1000
0010
0100
0000
0001
0000
0010
0000
,
0100
0000
1000
0010
0200
0000
0000
0310
,
1000
0200
0000
0000
0300
0100
0010
0002
,
0000
0000
0000
0000
0000
0000
0000
0000
0003
0000
0000
0000
0000
0000
0000
0000
0001
0000
0000
0000
0000
0000
0000
0000
0000
0000
0000
0000
0000
0000
0000
0000
2000
0000
0000
0000
0000
0000
0000
0000
0002
3003
0000
0000
0000
0000
0000
0000
0000
0000
0000
0000
0000
0000
0000
0000
0000
0000
0000
0000
0000
0000
0000
0000
,
0000
0000
0000
0000
0000
0000
0000
MMMM
,
0000
0000
MMMM
0000
0000
0000
MMMM
0000
0000
0000
2002
3003
0000
0000
0000
0000
,
0001
0000
1000
0000
0020
0100
0000
0130
,
0010
0000
0100
0010
0100
0001
0000
0000
,
0001
0000
1000
0000
2000
0100
3000
0100
,
0000
0000
1000
0100
0010
0001
0000
0000
,
0010
0000
0100
0000
2000
0010
0000
3010
,
0100
0000
1000
0010
0000
0100
0000
0001
,
0010
0000
0100
0000
1000
0010
0000
0010
,
0100
0000
0001
0020
0000
0001
0031
0000
,
1002
1003
2001
3001
,
1002
0000
1003
0000
2001
0000
3001
0010
,
0100
0000
0100
1000
0010
0100
0000
0001
,
0100
0000
0010
0100
0010
M10M
0000
0000
;

//---------------dance-double - ----------------
#NOTES:
     dance-double:
     :
     Easy:
     4:
     0.298,0.405,0.065,0.205,0.000:
00000000
00000000
00000000
00000000
,
00000000
00000000
00000000
00000000
,
00000000
00000000
00000000
00000000
,
00000000
00000000
00000000
00000000
,
00000000
00000000
00000000
00000000
,
00000000
00000000
00000000
00000000
,
00000000
00000000
00000000
00000000
,
00000000
00000000
00000000
00001000
,
00010000
00000100
00001000
00000010
,
00000100
00000001
00000010
00000100
,
00001000
00000100
00010000
00001000
,
00100000
00010000
10000000
01000000
,
00010000
00001000
00100000
00001000
,
00010000
00000100
00001000
01000000
,
10000000
00010000
00100000
00001000
,
00010000
00000000
00000000
00000000
00000000
00000000
00001000
00000000
00000000
00000000
00000000
00000000
00020000
00000000
00000000
00002000
00033000
00000000
00000000
00000000
00000000
00000000
00000000
00000000
,
00000000
00000000
00000000
00000000
,
00000000
00000000
00000000
00000000
00000000
00110000
00000000
00000000
,
01000000
10000000
00100000
01000000
,
00010000
00000000
00100000
00002000
00000000
00003000
00010000
00000000
,
00000100
00001000
00000010
00000100
,
00001000
00000000
00100000
00020000
00000000
00030000
10000000
00000000
,
01000000
00100000
00001000
00010000
,
00000100
00000000
00001000
00000200
00000000
00000300
00000010
00000000
,
00000100
00010000
01000000
10000000
,
00010000
00000000
10000000
00010000
00000000
10000000
00000000
00200000
,
00000000
00300000
00000000
01000000
,
00010000
00000000
00100000
00001000
00000000
00010000
00000000
00002000
,
00000000
00003000
00000000
00010000
,
00000100
00000000
00001000
00000000
00000010
00000100
00000000
00000002
,
00000000
00000003
00000000
00000001
,
00000010
00000000
00000100
00010000
00000000
00001000
00000000
02000000
,
00000000
03000000
00000000
00100000
,
10000000
00010000
10010000
00010000
,
00100000
00001000
00010000
00000100
,
00001000
00000000
00000001
00000001
00000010
00000000
00000100
00000000
,
00010000
00001000
01000000
00010000
,
10000000
00000000
00010000
00010000
01000000
00000000
00000000
10000000
,
01000000
00000000
00100000
00000000
00000000
00010000
00100000
00000000
,
00010000
00000000
00001000
00000000
00010000
00001000
00000000
00000000
,
00000000
00000000
00000000
00000000
00000000
00000000
00000000
00011000
,
00000000
00011000
00000000
00011000
00000000
00010000
00000000
00000000
,
00001000
00010000
00000100
00001000
,
01000000
10000000
00010000
01000000
,
00001000
00010000
00000010
00000100
,
00000001
00000010
00000100
00010000
,
01000000
10000000
00010000
00100000
,
00001000
00010000
00000100
00001000
,
00000010
00000100
00000001
00000010
,
00000100
00000000
00001000
00000000
00010000
00000000
00200000
00300000
,
02000000
13000000
00020000
01030000
,
00200000
10300000
00010000
02000000
,
03001000
00010000
00002000
00013000
,
00001000
00000000
00000000
00000000
00000000
00000000
00000000
00000000
00000000
00000000
00000000
00000000
00000000
00000000
00000000
00000000
00002000
00000000
00000000
00000000
00000000
00000000
00000000
00000000
00020000
00000000
00000000
00000000
00000000
00000000
00000000
00000000
00033000
00000000
00000000
00000000
00000000
00000000
00000000
00000000
00022000
00033000
00000000
00000000
00000000
00000000
00000000
00000000
00000000
00000000
00000000
00000000
00000000
00000000
00000000
00000000
00000000
00000000
00000000
00000000
00000000
00000000
00000000
00000000
;

//---------------dance-double - ----------------
#NOTES:
     dance-double:
     :
     Beginner:
     2:
     0.143,0.262,0.065,0.108,0.000:
00000000
00000000
00000000
00000000
,
00000000
00000000
00000000
00000000
,
00000000
00000000
00000000
00000000
,
00000000
00000000
00000000
00000000
,
00000000
00000000
00000000
00000000
,
00000000
00000000
00000000
00000000
,
00000000
00000000
00000000
00000000
,
00000000
00000000
00000000
10000000
,
10000000
00000000
00000000
00000000
,
00000000
01000000
00000000
02000000
,
00000000
03000000
00000000
00000000
00000000
00000000
00000000
00000000
,
00020000
00000000
00000000
00032000
,
00000000
00000000
00003000
00000000
,
00000000
00000100
00000000
00000200
,
00000000
00000300
00000000
00000000
00000000
00000000
00000000
00000000
,
00000001
00000000
00000000
00000000
00000002
00000003
00000000
00000000
,
00000000
00000000
00000000
00000000
,
00000000
00000000
00000000
00000000
00000000
00001001
00000000
00000000
,
00000001
00000000
00000100
00000000
,
00001000
00001000
00000000
00000000
,
00010000
00000000
01000000
00000000
,
10000000
10000000
00000000
00000000
,
00100000
00000000
00010000
00000000
,
00001000
00001000
00000000
00000000
,
00000100
00000000
00000001
00000000
,
00000010
00000010
00000000
00000100
,
00000100
00000000
00000000
00000000
,
00000000
00000000
00000000
00000000
,
00010000
00010000
00000000
00000000
,
00000000
00000000
00000000
00000000
,
01000000
01000000
00000000
00000000
,
00000000
00000000
00000000
00000000
,
10000000
10000000
10000000
00000000
,
01000000
01000000
01000000
00000000
,
00010000
00000000
00001000
00000000
,
00000010
00000000
00000001
00000000
,
00001000
00001000
00001000
00002000
,
00000000
00000000
00003100
00020000
,
00000000
00030000
00000000
00001000
,
00000000
00000000
02000000
00000000
00000000
03000000
00000000
00000000
,
00000000
00000000
00000000
00000000
,
00000000
00000000
00000000
00000000
,
10000000
00000000
01000000
00000000
,
10000000
00000000
01000000
00000000
,
00010000
00000000
01000000
00000000
,
00010000
00000000
00001000
00000000
,
00010000
00000000
00001000
00000000
,
00000100
00000000
00000001
00000000
,
00001000
00001000
00001000
00001000
,
00001000
00001000
00000000
00000000
,
00001001
00000000
00011000
00000000
,
10010000
00000000
00001000
00011000
,
00000000
00000000
00010010
00000000
,
00000000
00000000
00020000
00000000
00000000
00002000
00000000
00033000
;

//---------------dance-single - ----------------
#NOTES:
     dance-single:
     :
     Hard:
     8:
     0.580,0.581,0.399,0.011,0.065:
0000
0000
0000
0000
,
0000
0000
0000
0000
,
0000
0000
0000
0000
,
0000
0000
0000
0000
0000
0000
1000
0001
,
0000
1000
0010
0000
1000
0100
0000
1000
,
0001
0000
1000
0010
0000
0100
0000
0001
,
0000
0010
0001
0000
0010
1000
0000
0010
,
0100
1000
0010
0100
0001
0010
0011
0000
,
1001
0000
0001
1000
0100
0010
0100
1000
,
0010
0100
0001
1000
0001
0000
1000
0100
,
0010
0100
1000
0010
0100
0001
1000
0001
,
0010
0100
1000
0001
1000
1000
0010
0000
,
0010
0000
1000
0010
1000
0100
0010
0001
,
0010
0100
1000
0010
0100
0101
0000
1100
,
0000
1001
0000
0110
0000
1000
1001
0000
,
1000
0100
0001
0100
1000
0010
0000
0010
,
1000
0100
0010
0001
0100
0010
1000
0100
,
0010
0001
0001
0001
0001
1001
0000
1000
,
0001
0000
0011
0000
0010
0100
0000
0010
,
0001
0000
0000
0000
0001
0010
0001
0000
0010
0000
0100
0000
1000
0000
0001
0000
,
1000
0000
1010
0000
0010
0100
0000
0010
,
1000
0000
0000
0000
0010
1000
0010
0000
0100
0000
0001
0000
1000
0000
0100
0000
,
0010
0000
1001
0000
0001
0100
0000
0010
,
1000
0000
0000
0000
0001
1000
0001
0000
0100
0000
1000
0000
0100
0000
0001
0000
,
1000
0000
1001
0000
1000
0100
0000
0010
,
0001
0000
0000
0000
1000
0001
1000
0000
0100
0000
1100
0000
1000
0000
1001
0000
,
0001
0000
0100
0000
0101
0000
0001
0100
,
0010
1000
0001
0010
0000
0010
0000
0010
,
0100
1000
0001
1000
0100
0000
0100
1000
,
0010
1000
0100
0010
0001
0000
0100
0000
,
0001
0010
1100
0000
1001
0000
1000
0010
,
0001
0010
1000
1000
0001
0000
0100
0000
,
0001
1000
0100
0100
0100
0000
1000
0000
,
0001
1000
0010
0010
0010
0000
1010
0000
,
1000
0010
0100
0010
1000
0100
0010
0001
,
0100
1000
0100
0001
1000
0001
1001
1000
,
0010
0000
0100
0000
0010
0000
0000
1000
0000
0000
0001
0000
0010
0000
1000
0000
,
0010
0000
0001
0000
0100
0000
0010
0000
1000
0100
0010
0001
1000
0000
1001
0000
,
1000
1001
0000
1000
0010
0100
0101
0101
,
0000
1000
1100
0000
1000
0010
0000
1000
,
0010
0001
1000
0100
0001
1000
0010
0001
,
1000
0100
0001
0001
0001
1001
0000
1000
,
0100
0010
0001
0000
0001
1000
0010
0100
,
0001
0000
0000
0000
0001
0100
0010
0000
1000
0000
1001
0000
0000
0000
1000
0000
,
0010
0100
0001
0000
0001
0100
1000
0100
,
0010
0000
0000
0000
0010
1000
0001
0000
1000
0000
0100
0000
1100
0000
1000
0000
,
0100
0010
0001
0000
0001
0010
0001
0100
,
0010
0000
0000
0000
0010
0100
0001
0000
1000
0000
1001
0000
1001
0000
0000
0000
,
1000
0100
0001
0100
1000
0010
0001
0010
,
1000
0000
0001
0000
1000
0000
0100
0000
0010
0100
1000
0001
1000
0000
0001
0000
,
0101
0000
0001
1000
1100
0000
1001
0001
,
0101
0000
1001
1000
1100
0000
1100
1000
,
0001
0000
0001
1000
1100
0000
1000
0100
,
0010
0001
1000
0010
0100
0002
0000
0003
;

//---------------dance-double - ----------------
#NOTES:
     dance-double:
     :
     Medium:
     7:
     0.507,0.611,0.281,0.227,0.005: // measure 1
00000000
00000000
00000000
00000000
,  // measure 2
00000000
00000000
00000000
00000000
,  // measure 3
00000000
00000000
00000000
00000000
,  // measure 4
00000000
00000000
00000000
00000000
00000000
00000000
00000000
00011000
,  // measure 5
00000000
00010000
00000010
00000000
00000010
00000100
00000000
00000100
,  // measure 6
00000001
00000000
00000000
00000011
00000000
00001001
00000000
00001100
,  // measure 7
00000000
00000100
00010000
00000000
00010000
00001000
00000000
00001000
,  // measure 8
01000000
00010000
10000000
01000000
10000000
00010000
10000000
00000000
,  // measure 9
00010000
00000000
10000000
01000000
00010000
00000000
00001000
00000100
,  // measure 10
00000001
00000000
00000001
00000100
00001000
00000000
00010000
01000000
,  // measure 11
00010000
00000000
00001000
00000100
00001000
00000000
00010000
00100000
,  // measure 12
00010000
00000000
00001000
00000010
00001000
00000000
00011000
00000000
,  // measure 13
00110000
00000000
00100000
00010000
00001000
00000000
00000010
00001000
,  // measure 14
00010000
00000000
01000000
00010000
00001000
00000000
00000100
00001000
,  // measure 15
00010000
01000000
00000000
01010000
00000000
01000000
10000000
00000000
,  // measure 16
10000000
00010000
00001000
00000010
00000100
00000001
00000000
00000100
,  // measure 17
00000002
00000100
00000103
00002000
00010000
00013000
02000000
13000000
,  // measure 18
10000000
00200000
01000000
01000000
01300000
01100000
00000000
01000000
,  // measure 19
00100000
00000000
10010000
00000000
10000000
01000000
00000000
00100000
,  // measure 20
00001000
00000000
00001000
00010000
00000000
00010100
00000000
00010000
,  // measure 21
00000100
00000000
00000010
00000000
00000001
00000100
00000000
00000010
,  // measure 22
00000100
00000000
00000001
00001000
00000000
00001100
00000000
00000100
,  // measure 23
00010000
00000000
00001000
00000000
01000000
00010000
00000000
10000000
,  // measure 24
00010000
00000000
00100000
01000000
00000000
10000000
01000000
00000000
,  // measure 25
01100000
00000000
00101000
00000000
00100000
00001000
00000000
00001000
,  // measure 26
00010000
00000000
00010000
00000100
00000000
00000100
00001000
00000100
,  // measure 27
00000020
00000000
00000000
00000030
00000000
00000000
00000010
00000001
,  // measure 28
00000000
00000200
00000000
00001300
00000000
00010000
00000000
01000000
,  // measure 29
10000000
01000000
00010000
00000000
00001000
00000000
00010000
00000100
,  // measure 30
00001000
00000000
00001000
00000001
00000010
00000000
00000100
00000000
,  // measure 31
00011000
00000000
00200000
00000000
00300000
00000000
00010000
00100000
,  // measure 32
00010000
10000000
01000000
10000000
00020000
00000000
00030000
00000000
,  // measure 33
10000000
01000000
00100000
01000000
10000000
00000000
00000000
00000000
,  // measure 34
00010000
01000000
00100000
01000000
00010000
00000000
10010000
00000000
,  // measure 35
10000000
01000000
00010000
01000000
10000000
01000000
00010000
00001000
,  // measure 36
00000100
00000002
00000000
00001003
00000000
00001000
00000010
00000100
,  // measure 37
00000001
00000000
00000010
00000000
00001000
00000000
00000000
00000010
00000000
00000000
00000001
00000000
00001000
00000000
00000100
00000000
,  // measure 38
00020000
00000000
00000000
00000000
00031000
00100000
02000000
10000000
,  // measure 39
00000000
20000000
00000000
00000000
33000000
00010000
01000000
02000000
,  // measure 40
00000000
00000000
03002000
00000000
00013000
00001000
00000000
00020000
,  // measure 41
00001000
00031000
00000020
00000001
00000031
00000200
00001000
00001300
,  // measure 42
00100000
01000000
01000000
01000000
01000000
01100000
00000000
01000000
,  // measure 43
10000000
00000000
00010000
00000000
01000000
00010000
00000000
00100000
,  // measure 44
01000000
00000000
10000000
00010000
10000000
01000000
00010000
00000000
,  // measure 45
00001000
00000000
00011000
00000000
00010000
00000100
00000000
00000100
,  // measure 46
00000010
00000000
00000010
00000001
00001000
00000010
00001000
00000001
,  // measure 47
00001000
00000000
00001001
00000000
00000001
00000100
00000000
00000100
,  // measure 48
00000010
00000000
00000010
00010000
00001000
00100000
00010000
10000000
,  // measure 49
00000000
20010000
00000000
31000000
00000000
10020000
00000000
00130000
,  // measure 50
00000000
00011000
00010000
00000100
00000010
00001000
00000010
00000001
,  // measure 51
00001001
00000000
00000001
00001000
00001100
00000000
00000100
00010000
,  // measure 52
00011000
00000000
00001000
01000000
10000000
00000000
11000000
10000000
,  // measure 53
01000000
00000000
01000000
00001000
00011000
00000000
00010000
00000100
,  // measure 54
00000010
00000001
00000100
00001000
00020000
00002000
00000000
00033000
;

//---------------dance-single - ----------------
#NOTES:
     dance-single:
     :
     Easy:
     4:
     0.248,0.378,0.097,0.162,0.000:
0000
0000
0000
0000
,
0000
0000
0000
0000
,
0000
0000
0000
0000
,
0000
0000
0000
0000
0000
0000
0000
1000
,
0000
0000
0010
0000
0000
0100
0000
0000
,
0001
0000
0000
1000
0000
0010
0000
1000
,
0000
0000
0001
0000
0000
0200
0000
0000
,
0000
0000
0000
0301
,
0002
0003
0100
0000
,
0010
0000
1000
0100
,
0000
0010
0000
0020
0000
0000
0000
0030
,
0002
0000
0000
1003
,
0000
0010
0000
0100
,
0000
0001
0010
0100
,
0000
1000
0000
1000
0000
0000
1000
0000
,
0001
0000
1000
0000
0002
0003
0000
M000
,
0000
0000
000M
0000
0000
0M00
0000
0000
,
00M0
0000
0M00
00M0
0M00
1001
0000
0000
,
1000
0000
0010
0000
0000
1000
0000
0000
,
1000
0000
0002
0000
0000
0003
0000
0000
,
0001
0000
0010
0000
0000
0010
0000
0000
,
0001
0000
2000
0000
0000
3000
0000
0000
,
0001
0000
1000
0000
0000
0100
0000
0000
,
0100
0000
2000
0000
0000
3000
0000
0000
,
1000
0000
0001
0000
0000
0100
0000
0000
,
0100
0000
0002
0000
0000
0003
1000
0000
,
0020
0000
0030
1000
,
0001
1000
0000
1000
,
0100
0010
0000
0001
,
0100
0010
0000
0010
,
0100
0001
0000
0010
,
0100
1000
0001
1000
,
0100
0001
1000
0001
,
0100
1000
0001
1000
,
0010
1000
0010
0001
,
0010
0100
0001
1000
,
0010
1000
0001
0200
,
0000
0000
0310
0020
,
0000
0030
1000
2000
,
0000
0000
0001
0000
0000
3001
0000
M000
,
0000
0000
000M
0000
0000
00M0
0000
0000
,
0M00
0000
M000
000M
M000
0110
0000
0000
,
0001
0000
1000
0000
0000
0100
0000
1000
,
0000
0000
0001
0000
0000
1001
0000
0000
,
1000
0000
0010
0000
0000
1000
0000
0001
,
0000
0000
0100
0000
0000
0101
0000
0000
,
0001
0000
1000
0000
0000
0001
0000
0010
,
0000
0000
0100
0000
0000
1000
0000
0001
,
0000
0100
0000
1000
0000
0100
0000
0010
,
0000
0000
1000
0000
0000
0001
0000
0000
,
1001
1000
1001
0001
,
1001
1000
0100
1100
,
0100
0010
0011
0001
,
1000
0000
0002
0000
0000
2000
0000
3003
;
