#VERSION:0.83;
#TITLE:Nightmare before oversleep;
#SUBTITLE:;
#ARTIST:猫叉Master;
#TITLETRANSLIT:;
#SUBTITLETRANSLIT:;
#ARTISTTRANSLIT:Nekomata Master;
#GENRE:;
#ORIGIN:;
#CREDIT:;
#BANNER:nightmarebeforeoversleep-banner.png;
#BACKGROUND:nightmarebeforeoversleep-background.png;
#PREVIEWVID:;
#JACKET:nightmarebeforeoversleep-jacket.png;
#CDIMAGE:;
#DISCIMAGE:;
#LYRICSPATH:;
#CDTITLE:cdtitle.png;
#MUSIC:[ZIv Academy II] - Nightmare before oversleep.ogg;
#OFFSET:0.000000;
#SAMPLESTART:76.099998;
#SAMPLELENGTH:12.000000;
#SELECTABLE:YES;
#BPMS:0.000=95.000,
34.000=47.500,
36.000=190.000,
287.500=95.000;
#STOPS:194.000=1.575,
287.500=1.102;
#DELAYS:;
#WARPS:;
#TIMESIGNATURES:0.000=4=4;
#TICKCOUNTS:0.000=4;
#COMBOS:0.000=1;
#SPEEDS:0.000=1.000=0.000=0;
#SCROLLS:0.000=1.000;
#FAKES:;
#LABELS:0.000=Song Start;
#BGCHANGES:;
#KEYSOUNDS:;
#ATTACKS:
;

//---------------dance-single - ----------------
#NOTEDATA:;
#CHARTNAME:;
#STEPSTYPE:dance-single;
#DESCRIPTION:;
#CHARTSTYLE:;
#DIFFICULTY:Beginner;
#METER:1;
#RADARVALUES:0.164758,0.228845,0.063568,0.072649,0.000000,127.000000,120.000000,7.000000,8.000000,0.000000,0.000000,0.000000,0.000000,0.000000,0.164758,0.228845,0.063568,0.072649,0.000000,127.000000,120.000000,7.000000,8.000000,0.000000,0.000000,0.000000,0.000000,0.000000;
#CREDIT:;
#NOTES:
// measure 0
0000
0000
0000
0000
,  // measure 1
0000
0000
0000
0000
,  // measure 2
1000
0000
0001
0000
,  // measure 3
0010
0000
0010
0000
,  // measure 4
0001
0000
1000
0000
,  // measure 5
0100
0100
0100
0000
,  // measure 6
1000
0000
0001
0000
,  // measure 7
0010
0000
0001
0000
,  // measure 8
1000
0000
0010
0000
,  // measure 9
0100
0000
0100
0000
,  // measure 10
0000
0000
0001
0000
,  // measure 11
1000
0000
1000
0000
,  // measure 12
0000
0000
0100
0000
,  // measure 13
0010
0000
0010
0000
,  // measure 14
0000
0000
0001
0000
,  // measure 15
1000
0000
0000
0001
,  // measure 16
0000
0000
1001
0000
,  // measure 17
1000
0000
0100
0000
,  // measure 18
0010
0000
0001
0000
,  // measure 19
0010
0000
0001
0000
,  // measure 20
0100
0000
0010
0000
,  // measure 21
1000
0000
0010
0000
,  // measure 22
0100
0000
0001
0000
,  // measure 23
1000
0000
0001
0000
,  // measure 24
1001
0000
0110
0000
,  // measure 25
1000
0000
0001
0000
,  // measure 26
0010
0000
0010
0000
,  // measure 27
0001
0000
1000
0000
,  // measure 28
0100
0000
0100
0000
,  // measure 29
1000
0000
0010
0000
,  // measure 30
0100
0000
0100
0000
,  // measure 31
0001
0000
0010
0000
,  // measure 32
0100
0000
1000
0000
,  // measure 33
0001
0000
0000
0100
,  // measure 34
0000
0000
0010
0000
,  // measure 35
0000
1000
0000
0000
,  // measure 36
0100
0000
0000
1000
,  // measure 37
0000
0000
0002
0000
,  // measure 38
0000
1003
0000
0000
,  // measure 39
0010
0000
0000
0100
,  // measure 40
0000
0000
0001
0000
,  // measure 41
0000
0010
0000
0000
,  // measure 42
0001
0000
0000
1000
,  // measure 43
0000
0000
0001
0000
,  // measure 44
0000
0100
0000
0000
,  // measure 45
0010
0000
0000
0110
,  // measure 46
0000
0000
0110
0000
,  // measure 47
0000
1001
0000
0000
,  // measure 48
1001
0000
0000
0000
,  // measure 49
0010
0000
1000
0000
,  // measure 50
0010
0000
0100
0000
,  // measure 51
0001
0000
0010
0000
,  // measure 52
0100
0000
1000
0000
,  // measure 53
0002
0000
0003
0000
,  // measure 54
2000
0000
3000
0000
,  // measure 55
0010
0000
0100
0000
,  // measure 56
0100
0000
0001
0000
,  // measure 57
0010
0000
0001
0000
,  // measure 58
1000
0000
0010
0000
,  // measure 59
0100
0000
0001
0000
,  // measure 60
2000
0000
3000
0000
,  // measure 61
0002
0000
0003
0000
,  // measure 62
0020
0000
0030
0000
,  // measure 63
0200
0000
0300
0000
,  // measure 64
1000
0000
1000
0000
,  // measure 65
0001
0000
0001
0000
,  // measure 66
0100
0000
0100
0000
,  // measure 67
0010
0000
0010
0000
,  // measure 68
1000
0000
0100
0000
,  // measure 69
0010
0000
0010
0000
,  // measure 70
0001
0000
0010
0000
,  // measure 71
0100
0000
0200
0000
,  // measure 72
0300
0000
0000
0000
;

//---------------dance-single - ----------------
#NOTEDATA:;
#CHARTNAME:;
#STEPSTYPE:dance-single;
#DESCRIPTION:;
#CHARTSTYLE:;
#DIFFICULTY:Medium;
#METER:7;
#RADARVALUES:0.534492,0.592546,0.254273,0.408653,0.000000,412.000000,384.000000,28.000000,45.000000,0.000000,0.000000,0.000000,0.000000,0.000000,0.534492,0.592546,0.254273,0.408653,0.000000,412.000000,384.000000,28.000000,45.000000,0.000000,0.000000,0.000000,0.000000,0.000000;
#CREDIT:;
#NOTES:
0000
0000
0000
0000
,
0000
0000
0000
0000
,
2000
3020
0032
0023
,
2030
0000
3200
0000
0320
0000
0031
1000
,
0002
0000
0103
0001
1000
0010
1000
0100
,
1000
0000
1001
0000
0100
0001
0020
0000
,
0130
1000
0020
0000
1030
0010
0200
0000
,
0320
0000
0031
0010
2000
0000
3100
1000
,
0001
0010
0001
0100
0002
0000
2000
3003
,
1000
0000
0010
0100
0000
0000
0101
0000
,
0001
0010
0000
0100
1000
0000
1001
0000
,
0001
0000
0010
0100
0000
0000
1100
0000
,
1000
0001
0000
0100
0010
0000
0110
0000
,
0200
0001
0320
0001
,
2030
0100
3002
0010
,
0013
0100
0000
1000
0100
0000
0001
0100
,
0000
1000
0001
0000
0100
0001
0100
0001
,
0010
0000
0100
1000
0000
0001
0010
0000
,
0001
0100
0000
0001
1000
0001
1000
0000
,
0010
0000
0100
0001
0000
1000
0010
0000
,
1000
0100
0000
1000
0001
1000
0001
0000
,
0010
0000
0100
1000
0000
0001
0100
0000
,
0010
1000
0000
0001
0010
0100
0010
0000
,
0020
0000
0000
0032
0000
0000
2003
0000
,
0000
3010
0100
0001
1000
0100
1000
0001
,
0010
0000
0100
1000
0000
0001
0010
0000
,
0001
1000
0000
0100
1000
0010
0100
0000
,
0010
0000
0100
0001
0000
1000
0010
0000
,
1000
0001
0000
0100
0001
0010
0100
0000
,
0010
0000
0001
1000
0000
0100
0010
0000
,
0001
0100
0000
0010
1000
0001
0100
0000
,
2000
0000
0000
3200
0000
0000
0302
0000
,
0000
0023
0000
0000
0130
0010
0100
0000
,
0021
0000
0000
0032
0000
0000
2003
0000
,
0000
3020
0000
0000
0230
0000
0000
0302
,
0000
0023
0032
2003
,
3020
0230
0302
2003
,
3010
1000
0001
0010
0100
0000
1100
0000
,
0101
0000
0001
0100
0001
0010
0000
0100
,
1000
0100
1000
0010
0000
0010
1000
0001
,
0010
0100
0000
0100
0010
0000
0011
0000
,
1100
1001
0200
0302
,
2003
0000
3010
1000
0001
0010
0100
0000
,
0100
1000
0000
1000
0001
0000
0001
0100
,
0000
0100
0001
0000
0001
1000
0000
0010
,
1000
0000
1000
0001
0000
0010
0001
0100
,
0001
1000
0100
1000
0001
0100
0001
1000
,
0100
1000
0001
0010
0001
1000
0010
1000
,
0010
0100
0010
0100
0020
0030
0000
0000
,
1000
0100
0001
0100
1000
0000
0011
0000
,
1010
0000
0001
0100
1000
0100
0001
0000
,
1000
0010
0001
0010
1000
0000
0001
0010
,
0100
1000
0001
1000
0001
0000
1001
0000
,
0001
0000
0010
0100
0000
1000
0100
0000
,
1000
0000
0010
0100
0000
0001
0100
0000
,
0001
1000
0010
0100
0001
1000
0001
0000
,
0001
0100
1000
0100
0001
0000
1010
0000
,
0011
0000
1000
0100
0001
0100
1000
0000
,
0001
0010
1000
0010
0001
0000
1000
0010
,
0100
0001
1000
0001
1000
0000
0110
0000
,
0010
0000
0010
1000
0000
0100
0001
0000
,
0100
0000
0100
1000
0000
0010
0001
0000
,
0010
0000
0100
0001
0000
1000
0100
0000
,
0010
0001
1000
0010
0100
0001
1000
0100
,
0010
0000
0011
0000
0001
0100
0010
1000
,
0100
0000
1100
0000
1000
0010
0100
0001
,
0010
0000
0110
0000
0100
1000
0010
0100
,
0001
0101
1001
1010
,
0110
0000
1001
0000
1000
0010
0100
0001
,
1001
0000
0110
0000
0010
1000
0001
0100
,
0001
0010
0100
0000
1000
0010
0100
0000
,
0001
1000
0100
0010
0001
1000
0010
0100
,
2002
0000
3003
0000
;

//---------------dance-single - ----------------
#NOTEDATA:;
#CHARTNAME:;
#STEPSTYPE:dance-single;
#DESCRIPTION:;
#CHARTSTYLE:;
#DIFFICULTY:Hard;
#METER:11;
#RADARVALUES:0.755034,0.961242,0.281516,0.099893,0.522167,582.000000,551.000000,31.000000,11.000000,0.000000,0.000000,0.000000,0.000000,0.000000,0.755034,0.961242,0.281516,0.099893,0.522167,582.000000,551.000000,31.000000,11.000000,0.000000,0.000000,0.000000,0.000000,0.000000;
#CREDIT:;
#NOTES:
0000
0000
0000
0000
,
0000
0000
0000
0000
,
0000
0000
0000
0000
,
0000
0000
0000
0000
,
0000
0000
0000
0000
,
0000
1001
0002
0023
,
0230
0000
2300
0000
3001
0100
0010
1000
,
0001
0000
0010
0000
0100
0000
1000
0000
0010
1000
0100
0010
0001
0100
0001
1000
,
0100
1000
0010
0100
0001
0010
0001
1000
0200
0000
0000
0000
0320
0000
0000
0000
,
0031
0000
1000
0100
0010
0100
1000
0000
,
1000
0000
1002
0000
0000
0103
0010
0000
,
1000
0000
0001
0100
0010
0100
0001
0000
,
0001
0000
0210
0000
0000
0301
1000
0000
,
1000
0000
0100
0000
0000
0001
0100
0000
,
0010
0000
1000
0000
0000
0001
0100
0000
,
1000
0000
0100
0010
0000
0001
0010
0000
,
0001
1000
0100
0000
0010
1000
0010
0100
,
1000
0000
0000
0000
1000
0000
0010
0000
0000
0010
0100
0000
0001
0000
1000
0000
,
0001
1000
0001
0010
0100
0000
1000
0100
,
0010
0000
0000
0000
0001
0000
0100
0000
0000
0100
0010
0000
1000
0000
0001
0000
,
1000
0001
0100
0001
0200
0000
0301
0010
,
0001
0000
0000
0000
0010
0000
0100
0000
0000
1000
0001
0000
1000
0000
0010
0000
,
0100
0001
0010
0100
1000
0010
1000
0001
,
0010
0001
0010
0100
0000
1000
0010
0100
,
0001
0000
1000
0010
1000
0010
1000
0000
0010
0100
0010
0100
0010
0000
1000
0001
,
1000
0000
1000
0001
0100
0010
1000
0001
,
1000
0000
0001
0000
1000
0000
0010
0000
0100
0001
0100
0001
0100
0000
0010
0000
,
0100
0000
0001
0100
0001
0010
0100
1000
,
0100
0000
1000
0000
0001
0000
0010
0000
0001
1000
0001
1000
0010
1000
0010
1000
,
0010
0000
0100
0001
1000
0010
1000
0100
,
1000
0000
0010
0000
0100
0000
0001
0000
1000
0100
1000
0100
1000
0000
0000
0000
,
0010
1000
0100
0010
0001
0100
0001
1000
,
0010
0000
1000
0000
0001
0000
0010
0000
0001
0000
1000
0000
0001
0000
0100
0001
,
0010
1001
0110
1001
,
0110
1001
1100
0011
,
1100
0011
0101
1100
,
1010
1100
0110
0011
,
1001
1010
0101
1100
,
0011
0000
0000
0000
1001
0000
0000
0000
1000
0100
1000
0000
0000
0000
0100
0010
,
0100
0000
0000
0000
0010
0001
0010
0000
0001
0010
0100
1000
0001
0000
0000
0000
,
1000
0100
1000
0000
0000
0000
0010
0100
0001
0000
0000
0000
1001
0000
0000
0000
,
0110
0000
0000
0000
0100
0000
0000
0000
0010
0000
0000
0000
1000
0001
0100
0001
,
1000
0000
0000
0000
0010
0000
0000
0000
0100
0001
0010
0100
1000
0100
0010
0001
,
1000
0100
0001
0100
0010
0001
0100
0010
,
0100
0000
0001
0000
0001
0010
0100
1000
0001
0000
0100
0000
0010
0000
1000
0000
,
0010
0000
0100
0000
0001
0000
1000
0000
0010
0000
0100
0000
0001
0000
1000
0100
,
1000
0000
0010
0000
0100
0001
0100
0000
0010
0000
0100
1000
0100
0000
0010
0000
,
0100
0001
0100
0000
0010
0000
1000
0001
1000
0000
0100
0000
0010
0100
0010
0000
,
0001
0100
0010
1000
0001
0000
0000
0000
,
1000
0000
0001
0010
0001
0000
1000
0000
0010
0000
0000
0000
1010
0000
0000
0000
,
0011
0000
0000
0000
0001
0000
1000
0000
0010
0000
0100
0001
0100
0000
0001
0000
,
1000
0000
0100
1000
0010
0000
0000
0000
0100
0000
0001
0000
0100
0000
0001
0000
,
0010
0000
0100
0000
1000
0000
0001
0000
0001
0010
0100
1000
0001
0010
0100
1000
,
0010
0100
0001
1000
0001
0000
0000
0000
1000
0000
0001
0010
0100
1000
0001
0000
,
1000
0100
0010
0001
1000
0000
0000
0000
0001
0000
1000
0100
0010
0001
1000
0000
,
0001
0000
1000
0000
0010
0000
0100
0000
0001
0000
1000
0000
0100
0010
0000
0001
,
1000
0000
0100
0000
1000
0000
0010
0100
0001
0000
0000
0000
0011
0000
0000
0000
,
1010
0000
0000
0000
0001
0000
0010
0000
0100
0000
1000
0010
1000
0000
0001
0000
,
0100
0000
0001
0000
1000
0000
0001
1000
0010
0000
0000
0000
0100
0000
0010
0000
,
1000
0000
0001
0000
0010
0000
0100
0000
1000
0010
0100
0001
0100
0010
1000
0100
,
1000
0010
0100
0001
0010
0000
0000
0000
0000
0000
0001
0100
0010
1000
0100
1000
,
0100
1000
0001
0100
0010
0000
0000
0000
0000
0000
0010
0100
0001
1000
0100
0000
,
1000
0100
0010
0001
0100
0000
0000
0000
0000
0000
0100
0010
1000
0100
1000
0001
,
0010
0001
0100
0001
0010
0100
1000
0001
0100
0001
1000
0100
1000
0010
0100
0010
,
1000
1000
0100
1000
0001
0010
0001
1000
,
0100
1000
0010
0100
0001
0010
0001
1000
,
0100
1000
0010
0100
0010
1000
0010
0100
,
0001
0010
0100
1000
0001
0100
0001
0100
,
0001
0010
0100
1000
0001
0010
0001
0010
0100
1000
0001
0100
0010
0000
0000
0000
,
1000
0010
0100
0001
1000
0100
0010
0001
1000
0001
0100
0001
0010
0000
0000
0000
,
0001
0100
0010
0000
1000
0100
0010
0000
0001
0010
0100
0000
1000
0010
0100
0000
,
0001
0100
0010
1000
0001
0100
0001
1000
0010
0100
0001
1000
0100
0010
0001
0000
,
2002
0000
0000
0000
,
3003
0000
0000
0000
;

//---------------dance-single - ----------------
#NOTEDATA:;
#CHARTNAME:;
#STEPSTYPE:dance-single;
#DESCRIPTION:;
#CHARTSTYLE:;
#DIFFICULTY:Easy;
#METER:5;
#RADARVALUES:0.435896,0.563486,0.236110,0.099893,0.000000,336.000000,310.000000,26.000000,11.000000,0.000000,0.000000,0.000000,0.000000,0.000000,0.435896,0.563486,0.236110,0.099893,0.000000,336.000000,310.000000,26.000000,11.000000,0.000000,0.000000,0.000000,0.000000,0.000000;
#CREDIT:;
#NOTES:
0000
0000
0000
0000
,
0000
0000
0000
0000
,
0000
0000
0000
0000
,
0000
0000
0000
0000
,
0000
0000
0000
0000
,
0000
0000
0001
0010
,
0100
1000
0010
0100
,
0010
0100
0001
0010
,
0001
0010
0001
1001
,
1000
0010
1000
0010
,
1000
0010
1000
1010
,
0001
0100
0001
0100
,
0001
0100
0001
0101
,
2000
0100
3020
0100
,
0230
0010
0302
2003
,
3010
0000
0100
0010
0000
1000
0001
0000
,
0101
0001
1000
0001
,
0020
0100
0000
0100
,
0031
1000
0001
1000
,
2000
0010
0000
3010
,
0100
0000
0010
0000
0100
0010
0100
0000
,
0020
1000
0000
1030
,
0001
0010
0100
1000
,
0001
0000
1000
0010
0000
0100
0001
0000
,
0100
0001
1000
0010
,
1000
0001
1000
0001
,
1000
0001
1000
1001
,
0100
1000
0100
1000
,
0100
0000
1000
0000
0100
0010
0001
0000
,
0100
0001
0100
0001
,
0100
0001
0010
0110
,
1100
0100
1000
0101
,
0100
0001
1000
0010
,
1001
0001
0001
0001
,
1000
1000
1000
0100
,
0100
0010
0010
0010
,
0100
0100
0100
1000
,
0010
0100
0010
0100
0010
0000
1000
0000
,
0001
0100
0001
1000
,
1100
0001
0100
0101
,
0001
1000
1010
1000
,
0001
0011
1100
0110
,
0011
0001
0010
0100
,
1000
0010
0100
0001
,
0010
0100
1000
0010
,
0100
0000
0010
0000
0100
0000
0010
0100
,
0010
0100
0010
0100
0010
0100
0010
0100
,
0010
0100
0001
1000
0001
1000
0001
1000
,
0001
0110
1002
0000
,
0103
0001
0010
1100
,
0011
1000
0001
1000
,
0001
0100
0010
1000
,
0100
0000
1000
0000
0100
1000
0100
1000
,
0100
0010
0001
0000
0001
0000
1000
0001
,
1000
0001
1000
0000
0010
0000
0100
0001
,
1000
0001
1000
0001
1000
0001
1000
0000
,
1001
1000
0010
0101
,
1010
0000
0001
0000
1000
0001
1000
0000
,
0001
1000
0010
0100
,
0001
0000
0010
0000
0001
1000
0010
0100
,
0010
0100
0010
0000
0000
0000
1000
0010
,
1000
0010
1000
0000
0000
0000
1000
0100
,
0010
0001
0100
0000
0000
0000
0001
0000
,
0001
1000
0001
1000
0001
0000
1001
0000
,
0010
1000
0010
1000
0010
1000
0010
0000
,
0100
0001
0100
0001
0100
0000
1001
0000
,
0001
1000
0001
1000
0001
1000
0010
0100
,
0001
0010
0100
1000
,
0001
0010
0001
0000
1000
0000
0010
0000
,
0010
0100
0010
0000
0010
0000
1000
0000
,
0001
0100
0001
0000
0010
0000
0100
0000
,
1000
0100
1000
0001
0010
0001
1000
0001
,
2002
0000
0000
0000
,
3003
0000
0000
0000
;
