#VERSION:0.83;
#TITLE:Night Landscape;
#SUBTITLE:;
#ARTIST:Rhodz;
#TITLETRANSLIT:;
#SUBTITLETRANSLIT:;
#ARTISTTRANSLIT:;
#GENRE:EDM;
#ORIGIN:;
#CREDIT:;
#BANNER:Rhodz_Banner.png;
#BACKGROUND:Rhodz_Background.png;
#PREVIEWVID:;
#JACKET:;
#CDIMAGE:Bengatr-cd.png;
#DISCIMAGE:;
#LYRICSPATH:;
#CDTITLE:Bengatr-cd.png;
#MUSIC:Night_Landscape.ogg;
#OFFSET:0.472000;
#SAMPLESTART:49.265999;
#SAMPLELENGTH:16.410999;
#SELECTABLE:YES;
#DISPLAYBPM:117.000000;
#BPMS:0.000=117.000,
36.000=175.500,
37.125=117.000,
44.000=175.500,
45.125=117.000,
52.000=175.500,
53.125=117.000,
60.000=175.500,
61.125=117.000,
96.000=175.500,
96.750=58.500,
97.000=117.000;
#STOPS:36.000=0.021,
36.125=0.021,
36.250=0.021,
36.375=0.022,
36.500=0.021,
36.625=0.021,
36.750=0.021,
36.875=0.022,
37.000=0.021,
44.000=0.021,
44.125=0.021,
44.250=0.021,
44.375=0.022,
44.500=0.021,
44.625=0.021,
44.750=0.021,
44.875=0.022,
45.000=0.021,
52.000=0.021,
52.125=0.021,
52.250=0.021,
52.375=0.022,
52.500=0.021,
52.625=0.021,
52.750=0.021,
52.875=0.022,
53.000=0.021,
60.000=0.021,
60.125=0.021,
60.250=0.021,
60.375=0.022,
60.500=0.021,
60.625=0.021,
60.750=0.021,
60.875=0.022,
61.000=0.021;
#DELAYS:;
#WARPS:;
#TIMESIGNATURES:0.000=4=4;
#TICKCOUNTS:0.000=4;
#COMBOS:0.000=1;
#SPEEDS:0.000=1.000=0.000=0;
#SCROLLS:0.000=1.000;
#FAKES:;
#LABELS:0.000=Song Start;
#BGCHANGES:;
#KEYSOUNDS:;
#ATTACKS:
;

//---------------dance-single - Benpai x Feraligatr----------------
#NOTEDATA:;
#CHARTNAME:Benpai x Feraligatr;
#STEPSTYPE:dance-single;
#DESCRIPTION:Benpai x Feraligatr;
#CHARTSTYLE:;
#DIFFICULTY:Challenge;
#METER:11;
#RADARVALUES:0.677945,1.071934,0.128527,0.781049,1.127084,480.000000,467.000000,13.000000,79.000000,23.000000,0.000000,2.000000,0.000000,0.000000,0.677945,1.071934,0.128527,0.781049,1.127084,480.000000,467.000000,13.000000,79.000000,23.000000,0.000000,2.000000,0.000000,0.000000;
#CREDIT:Benpai x Feraligatr;
#DISPLAYBPM:117.000000;
#NOTES:
0000
0000
0000
0000
,
0000
0000
0000
0000
,
0000
0000
0000
0000
,
0000
0000
0000
0000
,
0000
0000
0000
0000
0001
0000
0000
0000
0100
0000
0010
0000
0100
0001
0000
0001
,
1000
0100
0000
0000
0000
0000
0000
0000
,
0000
0000
0000
0000
1000
0000
0000
0000
0010
0000
0100
0000
0001
0010
0000
0010
,
0001
0000
1000
0000
0010
0000
0010
0000
0010
0000
0010
0000
0010
0000
0000
0100
,
0000
0001
2001
0000
3000
0000
0000
0000
,
0001
1M00
0001
10M0
0001
0M00
1000
00M0
0001
0000
0000
0000
0000
0000
0001
0000
0000
0000
0000
0000
0012
0000
0000
0000
0000
0000
0000
0000
0000
0000
0000
0000
,
0003
0010
0210
0000
0300
0000
0000
0000
,
0010
M100
0010
010M
0010
M000
0100
000M
0010
0000
0000
0000
0000
0000
0010
0000
0000
0000
0000
0000
0021
0000
0000
0000
0000
0000
0000
0000
0000
0000
0000
0000
,
0000
0000
0000
0030
1002
0000
0000
0000
1003
0000
0001
0000
0100
0010
0000
1000
,
0010
100M
0010
1M00
0010
000M
1000
0000
0010
0000
0000
0000
0000
0000
0010
0000
0000
0000
0000
0000
0120
0000
0000
0000
0000
0000
0000
0000
0000
0000
0000
0000
,
0030
0000
1000
0000
2001
0000
0000
0000
3001
0000
1000
0000
0001
0010
0000
0100
,
1000
010M
1000
01M0
1000
000M
0100
0000
1000
0000
0000
0000
0000
0000
1000
0000
0000
0000
0000
0000
2001
0000
0000
0000
0000
0000
0000
0000
0000
0000
0000
0000
,
3002
0000
0000
0000
0000
0000
1003
0000
0100
0000
0010
0000
0002
0000
0000
0000
0000
0000
0000
0000
0000
0000
0000
0000
0003
0000
0000
1000
0000
0000
0000
0000
0000
0010
0000
0000
0200
0000
0000
0000
0000
0000
0300
0000
0000
0001
0000
0000
,
0000
0000
1000
0001
2000
0000
0000
0000
3004
0000
0000
0000
0013
0000
0100
1000
0100
1000
0001
0000
0100
0000
0010
0000
1000
0000
0100
0000
0010
0000
0001
0000
,
1000
0010
0200
0000
0302
0000
0000
0000
1003
0010
0000
0100
0002
0000
0003
1000
,
0000
0000
0001
1000
0002
0000
0000
0000
1003
0000
0001
0000
0100
0000
0010
0000
4000
0000
0000
0000
3001
0000
0100
0000
0001
0000
0010
0000
1000
0000
0010
0000
,
0100
1000
0010
0100
0002
0000
0000
0003
1001
0001
0000
1000
0020
0000
0030
0100
,
0001
0000
1000
0001
2000
0000
0000
0000
3200
0000
0000
0000
0000
0000
0310
0001
0010
0000
0001
0000
1000
0000
0010
0000
1000
0000
0100
0000
1000
0000
0001
0000
,
0100
0001
0020
0000
0230
0000
0000
0300
0110
0100
0000
0010
0002
0000
0003
1000
,
0001
0000
0100
0010
0200
0000
0000
0000
0301
0000
1000
0000
0100
0000
0010
0000
0001
0000
0010
0000
0100
0000
1000
0000
0001
0000
0100
0000
0010
0000
1000
0000
,
00M2
0000
0000
0000
1003
0000
0002
0000
0013
0100
0000
0100
1000
0001
0100
0010
,
0100
0001
1000
0100
2000
0000
3001
1000
0100
0000
0020
0000
0031
0010
M01M
0000
,
1000
0000
0001
0000
0101
0000
0200
0000
0310
1000
0000
1000
0001
0010
0100
1000
,
0002
0003
1002
0000
0100
0000
2003
0000
,
3200
0000
0010
0300
0011
0000
0002
0000
1003
0010
0000
0010
0100
0001
1000
0100
,
0010
0100
1000
0001
0200
0000
0310
1000
0001
0000
0200
0000
0301
0100
M10M
0000
,
1000
0000
0000
0001
0000
0000
0200
0000
0000
0000
0000
0000
0301
0000
0100
0000
0001
0000
1000
0000
0001
0000
0100
0000
0001
0000
0000
0010
0000
0000
0100
0000
0000
0010
0000
0000
0001
0000
0000
0100
0000
0000
0010
0000
0000
1000
0000
0000
,
0100
1000
0100
1000
0100
0010
0001
0010
0100
1000
0100
0010
0001
1000
0100
1000
0001
1000
0001
0100
0001
1000
0100
0010
,
0001
0000
0010
0000
0100
0000
1000
0000
0001
0000
1000
0000
0020
0000
0000
0000
0000
0000
0000
0000
0000
0000
0000
0000
1030
0000
0000
0001
0000
0000
0000
0000
0000
0010
0000
0000
0002
0000
0000
0000
0000
0000
0003
0000
0000
0200
0000
0000
,
0000
0000
0310
1000
0020
0000
0000
0000
2030
0000
0000
0000
3001
0000
0010
0000
0001
0000
0100
0000
0001
0000
1000
0000
0001
0000
0100
0000
0010
0000
1000
0000
,
0100
0010
0002
0000
0203
0000
0000
0000
0310
1000
0000
0001
0020
0000
0030
2000
,
0000
0000
3010
0100
0020
0000
0000
0000
0230
0000
0000
0000
1300
0000
0001
0000
0100
0000
0010
0000
1000
0000
0001
0000
0010
0000
0100
0000
0001
0000
0100
0000
,
0010
0001
0100
0010
2000
0000
0000
0000
3001
1000
0000
0001
0020
0000
0030
0200
,
0000
0000
0310
0100
0020
0000
0000
0000
0032
0000
0000
0000
1003
0000
0010
0000
1000
0000
0001
0000
0100
0000
0001
0000
1000
0000
0100
0000
0010
0000
0001
0000
,
0010
0100
2000
0000
3002
0000
0000
0000
1003
0001
0000
1000
0020
0000
0030
0002
,
0000
0000
0013
0100
0020
0000
0000
0000
0130
0000
0001
0000
1000
0000
0001
0000
0100
0000
M10M
0000
1000
0000
0001
0000
1000
0000
0100
0000
0010
0000
0100
0000
,
0001
0100
0010
0001
2000
0000
0000
0000
3100
0010
0000
0010
0002
0000
0003
2000
,
0000
0000
3010
0100
0020
0000
0000
0000
2030
0000
0000
0000
3010
0000
1000
0000
0000
0000
0100
0000
1000
0000
0001
0000
0100
0000
0010
0000
1000
0000
0001
0000
,
0010
0100
2000
0000
3002
0000
0000
0000
0013
0001
0000
0001
0200
0000
0300
2000
,
0000
0000
3100
0010
0200
0000
0000
0000
0320
0000
0000
0000
0130
0000
0001
0000
0000
0000
1000
0000
0001
0000
0010
0000
0001
0000
0100
0000
1000
0000
0100
0000
,
0010
1000
0001
0010
0200
0000
0000
0000
1300
0001
0000
0001
0200
0000
0300
0020
,
0000
0000
0130
0001
0200
0000
0000
0000
0320
0000
0000
0000
0130
0000
0010
0000
0000
0000
0100
0000
0001
0000
1000
0000
0001
0000
0010
0000
0100
0000
1000
0000
,
0010
0100
0002
0000
0023
0000
0000
0000
0031
1000
0000
1000
0020
0000
0030
0002
,
0000
0000
0013
0100
0020
0000
0000
0000
0130
0000
0001
0000
1000
0000
0001
0000
0100
0000
M10M
0000
1000
0000
0001
0000
0010
0000
0100
0000
1000
0000
0010
0000
,
0001
0010
0100
0001
0000
0000
0000
0000
0000
0000
0000
0000
0000
0000
0000
0000
;

//---------------dance-single - ----------------
#NOTEDATA:;
#CHARTNAME:;
#STEPSTYPE:dance-single;
#DESCRIPTION:;
#CHARTSTYLE:;
#DIFFICULTY:Hard;
#METER:9;
#RADARVALUES:0.471737,0.547878,0.098867,0.731616,0.652522,334.000000,324.000000,10.000000,74.000000,23.000000,0.000000,0.000000,0.000000,0.000000,0.471737,0.547878,0.098867,0.731616,0.652522,334.000000,324.000000,10.000000,74.000000,23.000000,0.000000,0.000000,0.000000,0.000000;
#CREDIT:Benpai x Feraligatr;
#DISPLAYBPM:117.000000;
#NOTES:
0000
0000
0000
0000
,
0000
0000
0000
0000
,
0000
0000
0000
0000
,
0000
0000
0000
0000
,
0000
0000
0000
0000
,
0000
0000
0000
0000
,
0000
0000
0000
0000
,
0000
0000
0000
0000
1000
0000
1000
0000
0001
0000
0001
0000
0010
0000
0000
0010
,
0000
0100
2100
0000
3000
0000
0000
0000
,
1000
0M00
0001
00M0
1000
0M00
0001
00M0
1000
0000
0000
0000
0000
0000
1000
0000
0000
0000
0000
0000
2000
0000
0000
0000
0000
0000
0000
0000
0000
0000
0000
0000
,
3000
0010
0210
0000
0300
0000
0000
0000
,
0010
M000
0100
000M
0010
M000
0100
000M
0010
0000
0000
0000
0000
0000
0010
0000
0000
0000
0000
0000
0020
0000
0000
0000
0000
0000
0000
0000
0000
0000
0000
0000
,
0000
0000
0000
0030
2010
0000
0000
0000
3000
0000
0001
0000
0010
0100
0000
1000
,
0010
000M
1000
0M00
0010
000M
1000
0000
0100
0000
0000
0000
0000
0000
0100
0000
0000
0000
0000
0000
0200
0000
0000
0000
0000
0000
0000
0000
0000
0000
0000
0000
,
0300
0000
0010
0000
0012
0000
0000
0000
0003
0000
1000
0000
0010
0100
0000
0010
,
0100
M000
0001
00M0
0100
M000
0001
0000
0010
0000
0000
0000
0000
0000
0010
0000
0000
0000
0000
0000
0020
0000
0000
0000
0000
0000
0000
0000
0000
0000
0030
0000
,
0002
0000
0000
0003
2000
0000
0000
0000
3000
0000
0000
0000
0020
0000
0030
0100
,
0000
0000
0000
0000
0000
0000
0002
0000
0000
0000
0000
0000
0023
0000
0000
0000
0000
0000
0M00
0000
M000
0000
0M00
0000
M000
0000
0M00
0000
M000
0000
0M00
0000
M000
0030
0000
0000
0100
0000
0000
0010
0000
0000
0100
0000
0000
1000
0000
0000
,
0010
0100
0002
0000
2003
0000
0000
0000
3001
1000
0000
0000
0200
0000
0300
0010
,
0000
0000
0002
0000
1003
1000
0000
0010
0100
0000
0001
0000
1000
0100
0010
0100
,
1000
0001
0100
0010
2000
0000
0000
3000
1001
0000
0000
0001
0020
0000
0030
0100
,
0000
0000
2000
0000
3002
0000
0000
0013
0100
0000
0010
0000
0001
1000
0010
0100
,
0001
1000
0200
0000
0320
0000
0000
0030
0110
0000
0000
1000
0002
0000
0003
0010
,
0000
0000
0200
0000
1300
0001
0100
0010
1000
0100
0010
0100
1000
0001
0100
0001
,
20M0
0000
0000
0000
3100
0000
0020
0000
0031
1000
0000
1000
0001
0000
0100
0000
,
0010
1000
0000
0000
0020
0000
0030
0020
0000
0030
2000
0000
3100
1000
0100
0000
,
1000
0000
0010
0000
0100
0000
0002
0000
1003
0001
0000
0001
0020
0000
0030
0000
,
0210
0300
2100
0000
0001
0000
3020
0000
,
0230
0000
0001
0000
0301
0000
0200
0000
0310
0100
0000
0100
0001
0000
1000
0000
,
0001
1000
0000
0000
0002
0000
0003
0002
0000
0003
0020
0000
0130
1000
0100
0000
,
0010
0100
2000
0000
3001
0000
0020
0000
0130
1000
0000
1000
0020
0000
0030
0000
,
0100
0102
1000
0010
,
1000
0000
0000
0003
2100
0000
0000
0000
3001
1000
0000
1000
0002
0000
0003
0010
,
0000
0000
0200
0000
2300
0000
3001
0100
0001
0000
1000
0000
0001
0010
0200
0000
,
0310
0100
2000
0000
3002
0000
0000
0000
1003
0001
0000
0001
0200
0000
0300
0010
,
0000
0000
0200
0000
0302
0000
0013
0100
0010
0000
0001
0000
1000
0010
0200
0000
,
0310
0100
0002
0000
2003
0000
0000
0000
3100
0010
0000
0010
0002
0000
0003
1000
,
0000
0000
0020
0000
0230
0000
0301
1000
0001
0000
0100
0000
0010
1000
0002
0000
,
1003
0001
0020
0000
0230
0000
0000
0000
0310
0001
0000
0001
2000
0000
3000
0020
,
0000
0030
0200
0000
0302
0000
1003
0001
0020
0030
0001
0100
0010
1000
0001
0100
,
0001
0010
0001
1000
0010
0000
0100
0000
0001
0000
0100
0000
0010
0000
0000
1000
,
0000
0000
0001
0000
0010
0000
0100
1000
0000
0001
0000
0000
1000
0010
0200
0000
,
0310
0100
0002
0000
1003
0001
0000
0010
0000
0000
0001
0000
0100
0000
0000
1000
,
0000
0000
0100
0000
0010
0000
1000
0001
0000
0100
0000
0000
0001
0100
0020
0000
,
0130
0001
2000
0000
3100
0000
0010
0000
0001
0000
0010
0000
0100
0000
0000
1000
,
0000
0000
0010
0000
0100
0000
0001
1000
0000
0100
0000
0000
0010
0001
2000
0000
,
3001
1000
0020
0000
0130
0001
0000
1000
0000
0000
0100
0000
0010
0000
0000
1000
,
0000
0000
0010
0000
0100
1000
0001
1000
0010
1000
0001
0010
0100
1000
0100
0010
,
0001
0100
0010
1000
0000
0000
0000
0000
0000
0000
0000
0000
0000
0000
0000
0000
;

//---------------dance-single - ----------------
#NOTEDATA:;
#CHARTNAME:;
#STEPSTYPE:dance-single;
#DESCRIPTION:;
#CHARTSTYLE:;
#DIFFICULTY:Medium;
#METER:6;
#RADARVALUES:0.309312,0.381132,0.148300,0.464675,0.088980,219.000000,204.000000,15.000000,47.000000,0.000000,0.000000,1.000000,0.000000,0.000000,0.309312,0.381132,0.148300,0.464675,0.088980,219.000000,204.000000,15.000000,47.000000,0.000000,0.000000,1.000000,0.000000,0.000000;
#CREDIT:Benpai x Feraligatr;
#DISPLAYBPM:117.000000;
#NOTES:
0000
0000
0000
0000
,
0000
0000
0000
0000
,
0000
0000
0000
0000
,
0000
0000
0000
0000
,
0000
0000
0000
0000
,
0000
0000
0000
0000
,
0000
0000
0000
0000
,
0000
0000
0000
0000
1000
0000
1000
0000
1000
0000
1000
0000
1000
0000
0000
0001
,
0000
1000
1002
0000
0003
0000
0000
0000
,
0002
0000
0000
0000
0013
0000
0000
0010
0000
0000
0020
0000
0000
0000
0000
0000
,
0030
0100
2000
0000
3000
0000
0000
0000
,
0020
0000
0000
0000
1030
0000
0000
0010
0000
0000
0020
0000
0000
0000
0000
0000
,
0000
0000
0000
0030
0201
0000
0000
0000
0300
0000
0000
0000
0000
0000
0000
0000
,
0200
0000
0000
0000
0301
0000
0000
0001
0000
0000
0002
0000
0000
0000
0000
0000
,
0003
1000
1200
0000
0300
0000
0000
0000
,
0200
0000
0000
0000
0310
0000
0000
0010
0000
0000
0020
0000
0000
0000
0000
0000
,
0032
0000
0000
0000
2003
0000
0000
0000
3000
0000
0000
0000
0002
0000
0003
0100
,
0000
0000
0002
0000
2003
0000
0000
0000
3020
0000
0000
0030
1000
0000
0100
0000
,
0010
0000
0100
0000
2000
0000
0000
0000
3001
0000
0000
0000
2000
0000
3000
0010
,
0000
0200
0301
0000
0010
0000
0100
1000
,
0001
0000
0100
0000
0002
0000
0000
0003
0101
0000
0000
0000
2000
0000
3000
0001
,
0000
2000
3040
0030
0110
0000
0001
0010
,
0100
0000
0010
0000
0002
0000
0000
0003
1001
0000
0000
0000
2000
0000
3000
0010
,
0000
2000
3001
0010
0100
1000
0001
0100
,
0020
0000
0000
0000
2030
0000
0000
0000
0000
3000
0001
0000
0010
0000
0100
0000
,
0010
0000
0100
0000
1000
0000
0000
1000
0000
0000
0010
0000
1000
0000
0001
0000
,
0010
0100
2000
3000
0200
0300
0020
0030
,
0012
0003
0002
0000
0000
0000
0023
0000
,
0230
1000
1300
0000
0001
0100
0010
1000
,
0001
0010
0100
0010
0001
1000
0001
0100
,
0010
1000
0001
0000
0010
0001
2000
0000
,
3010
0000
0210
0300
1002
0003
0021
0030
,
1200
0000
0300
0000
2001
0000
0000
0000
3010
0000
0000
0000
1000
0000
0000
0001
,
0000
0010
0100
0000
1100
0000
0001
1000
,
0010
0000
0100
0000
0002
0000
0000
0000
1003
0000
0000
0000
0001
0000
0000
0010
,
0000
0100
1000
0000
1001
0000
1000
0010
,
0100
0000
0010
0000
2000
0000
0000
0000
3001
0000
0000
0000
1000
0000
0000
0100
,
0000
0010
0001
0000
1001
0000
1000
0010
,
0100
0000
0001
0000
2000
0000
0000
0000
3100
0000
0000
0000
1000
0000
0000
0001
,
0000
0100
0010
0000
0100
0000
0001
0010
,
0100
0000
0010
0000
0002
0000
0000
0000
1003
0000
0000
0000
0001
0000
0000
0100
,
0000
0010
1000
0000
0001
0000
0100
0000
,
0010
0000
1000
0000
0001
0000
0000
0000
0010
0000
0000
0000
0100
0000
0000
0010
,
0000
0100
1000
0000
0010
0000
1000
0010
,
0100
0000
0001
0000
0010
0000
0000
0000
0001
0000
0000
0000
1000
0000
0000
0010
,
0000
1000
0100
0000
1000
0000
0001
0010
,
0100
0000
0010
0000
0001
0000
0000
0000
0100
0000
0000
0000
0001
0000
0000
0010
,
0000
0100
1000
0000
0100
0000
0010
0000
,
0002
0000
0000
0003
0000
0000
0000
0000
0000
0000
0000
0000
0000
0000
0000
0000
;

//---------------dance-single - ----------------
#NOTEDATA:;
#CHARTNAME:;
#STEPSTYPE:dance-single;
#DESCRIPTION:;
#CHARTSTYLE:;
#DIFFICULTY:Easy;
#METER:4;
#RADARVALUES:0.214683,0.333491,0.177961,0.326261,0.000000,152.000000,134.000000,18.000000,33.000000,0.000000,0.000000,0.000000,0.000000,0.000000,0.214683,0.333491,0.177961,0.326261,0.000000,152.000000,134.000000,18.000000,33.000000,0.000000,0.000000,0.000000,0.000000,0.000000;
#CREDIT:Benpai x Feraligatr;
#DISPLAYBPM:117.000000;
#NOTES:
0000
0000
0000
0000
,
0000
0000
0000
0000
,
0000
0000
0000
0000
,
0000
0000
0000
0000
,
0000
0000
0000
0000
,
0000
0000
0000
0000
,
0000
0000
0000
0000
,
0000
0000
0000
0000
,
0000
1001
0000
0000
,
2000
3020
0000
0000
,
0030
1001
0000
0000
,
0002
0023
0000
0000
,
0000
0000
0000
0030
0110
0000
0000
0000
0000
0000
0000
0000
0000
0000
0000
0000
,
2000
3002
0000
0000
,
0003
0110
0000
0000
,
0002
2003
0000
0000
,
3020
0000
0000
0000
0230
0000
0000
0000
0300
0000
0000
0000
0002
0000
0000
0003
,
0000
2000
0000
3000
,
0000
0001
1000
0010
,
0100
0001
0010
0001
,
1000
0100
1100
0001
,
0011
1000
1010
0001
,
0101
1000
1001
0001
,
0011
1000
0110
0001
,
0020
0130
1000
0001
,
0100
0010
0100
0001
,
1000
0100
1000
0010
,
0100
0002
0100
1000
,
0100
0013
0100
1000
,
0010
0100
0001
1000
,
0001
0010
0100
0010
,
0001
1001
1001
0110
,
0110
0002
1003
0100
,
0010
0001
0011
1000
,
0010
2000
3100
1000
,
0010
0100
0110
0010
,
0100
0002
1003
0001
,
0010
0100
1100
1000
,
0001
2000
3001
0010
,
0001
1000
0010
1000
,
0001
0200
0310
0020
,
0130
0002
1003
2000
,
3001
0020
0130
0200
,
0310
0002
1003
2000
,
3001
0020
0031
0002
,
0103
0020
1030
2000
,
3100
0020
0030
0002
,
0003
1000
0100
0010
,
0002
0000
0000
0003
0000
0000
0000
0000
0000
0000
0000
0000
0000
0000
0000
0000
;

//---------------dance-single - ----------------
#NOTEDATA:;
#CHARTNAME:;
#STEPSTYPE:dance-single;
#DESCRIPTION:;
#CHARTSTYLE:;
#DIFFICULTY:Beginner;
#METER:2;
#RADARVALUES:0.131352,0.238208,0.049433,0.069207,0.000000,93.000000,88.000000,5.000000,7.000000,0.000000,0.000000,0.000000,0.000000,0.000000,0.131352,0.238208,0.049433,0.069207,0.000000,93.000000,88.000000,5.000000,7.000000,0.000000,0.000000,0.000000,0.000000,0.000000;
#CREDIT:Benpai x Feraligatr;
#DISPLAYBPM:117.000000;
#NOTES:
// measure 0
0000
0000
0000
0000
,  // measure 1
0000
0000
0000
0000
,  // measure 2
0000
0000
0000
0000
,  // measure 3
0000
0000
0000
0000
,  // measure 4
0000
0000
0000
0000
,  // measure 5
0000
0000
0000
0000
,  // measure 6
0000
0000
0000
0000
,  // measure 7
0000
0000
0000
0000
,  // measure 8
0000
1001
0000
0000
,  // measure 9
0000
0100
0000
0000
,  // measure 10
0000
1001
0000
0000
,  // measure 11
0000
0010
0000
0000
,  // measure 12
0000
0110
0000
0000
,  // measure 13
0000
0010
0000
0000
,  // measure 14
0000
0110
0000
0000
,  // measure 15
0000
1000
0000
0000
,  // measure 16
0000
0001
0000
1000
,  // measure 17
0000
0001
0000
0010
,  // measure 18
0000
0100
0000
1000
,  // measure 19
0000
0001
0000
0100
,  // measure 20
0000
0010
0000
0100
,  // measure 21
0000
0001
0000
1000
,  // measure 22
0000
0100
0000
1000
,  // measure 23
0000
0001
0000
0100
,  // measure 24
0002
0003
0100
0000
,  // measure 25
0010
0000
0100
0001
,  // measure 26
0001
0010
0100
0000
,  // measure 27
1000
0002
0000
0000
,  // measure 28
0000
0003
0100
0000
,  // measure 29
0010
0000
0100
0000
,  // measure 30
0001
1000
0001
1000
,  // measure 31
0001
1000
0001
1000
,  // measure 32
0001
1001
1000
0000
,  // measure 33
0100
0000
0010
0001
,  // measure 34
0100
0010
1000
0000
,  // measure 35
0001
0000
0010
0100
,  // measure 36
1000
0001
0100
0000
,  // measure 37
0010
0000
0100
0001
,  // measure 38
1000
0100
0010
0000
,  // measure 39
0001
0000
0100
0010
,  // measure 40
1000
0002
0003
1000
,  // measure 41
0000
0010
0000
0100
,  // measure 42
0000
0002
0003
1000
,  // measure 43
0000
0100
0000
0010
,  // measure 44
0100
2000
3000
0001
,  // measure 45
0000
0100
0000
0010
,  // measure 46
0000
2000
3000
0001
,  // measure 47
0000
0010
0000
0100
,  // measure 48
2000
0000
0000
3000
0000
0000
0000
0000
0000
0000
0000
0000
0000
0000
0000
0000
;
