#VERSION:0.83;
#TITLE:Lone Digger;
#SUBTITLE:;
#ARTIST:Caravan Palace;
#TITLETRANSLIT:;
#SUBTITLETRANSLIT:;
#ARTISTTRANSLIT:;
#GENRE:;
#ORIGIN:;
#CREDIT:;
#BANNER:[ZIv Academy II] - Lone Digger.png;
#BACKGROUND:[ZIv Academy II] - Lone Digger-bg.png;
#PREVIEWVID:;
#JACKET:[ZIv Academy II] - Lone Digger-jacket.png;
#CDIMAGE:;
#DISCIMAGE:;
#LYRICSPATH:;
#CDTITLE:;
#MUSIC:[ZIv Academy II] - Lone Digger.ogg;
#OFFSET:-0.043000;
#SAMPLESTART:38.287998;
#SAMPLELENGTH:15.968000;
#SELECTABLE:YES;
#BPMS:0.000=124.000;
#STOPS:;
#DELAYS:;
#WARPS:;
#TIMESIGNATURES:0.000=4=4;
#TICKCOUNTS:0.000=4;
#COMBOS:0.000=1;
#SPEEDS:0.000=1.000=0.000=0;
#SCROLLS:0.000=1.000;
#FAKES:;
#LABELS:0.000=Song Start;
#BGCHANGES:;
#KEYSOUNDS:;
#ATTACKS:
;

//---------------dance-single - ----------------
#NOTEDATA:;
#CHARTNAME:;
#STEPSTYPE:dance-single;
#DESCRIPTION:;
#CHARTSTYLE:;
#DIFFICULTY:Beginner;
#METER:1;
#RADARVALUES:0.091966,0.153829,0.007486,0.029942,0.000000,86.000000,85.000000,1.000000,4.000000,0.000000,0.000000,0.000000,0.000000,0.000000,0.091966,0.153829,0.007486,0.029942,0.000000,86.000000,85.000000,1.000000,4.000000,0.000000,0.000000,0.000000,0.000000,0.000000;
#CREDIT:;
#NOTES:
0000
0000
0000
0000
,
0000
0000
0000
0000
,
0000
0000
0000
0000
,
0000
0000
0000
0000
,
0001
0000
0000
0000
,
1000
0000
0000
0000
,
0001
0000
0000
0000
,
1000
0000
1000
0000
,
1000
0000
0000
0000
,
0010
0000
0000
0000
,
1000
0000
0000
0000
,
0010
0000
0000
0000
,
0100
0000
0000
0000
,
0000
0100
0100
0000
,
0000
0010
0010
0000
,
0010
0000
0000
0000
,
1000
0000
0000
0001
,
0001
0000
0000
1000
,
1000
0000
0000
0000
,
0002
0000
0003
0000
,
0001
0000
0000
0000
,
0100
0000
0100
0000
,
0100
0000
0000
0000
,
0010
0000
0000
0000
,
0010
0000
0000
0000
,
1000
0000
1000
0000
,
1000
0000
0000
0000
,
0001
0000
0000
0000
,
0000
1000
0000
1000
,
0000
1000
0000
0000
,
0000
0001
0000
0001
,
0000
0001
0000
0000
,
0000
0010
0000
0010
,
0000
0010
0000
0000
,
0000
0100
0000
0100
,
0200
0000
0300
0000
,
0100
0000
0000
0000
,
0000
1000
1000
0000
,
0000
0001
0001
0000
,
0001
0000
0000
0000
,
0100
0000
0000
0000
,
0000
0010
0010
0000
,
0000
1000
1000
0000
,
0001
0000
0000
0000
,
0000
0000
0000
0000
,
0000
0000
0000
0000
,
0000
0000
0000
0000
,
0000
0000
0000
0000
,
1000
0000
0000
0000
,
0001
0000
1000
0000
,
0001
0000
0000
0000
,
0100
0000
0000
0000
,
0001
0000
0010
0000
,
0001
0000
0000
0000
,
1000
0000
0000
0000
,
0001
0000
0000
0000
,
0000
1000
1000
0000
,
0000
0001
0001
0000
,
0000
0100
0100
0000
,
0010
0000
0000
0000
,
1000
0000
0000
0000
,
0001
0000
0010
0000
,
0100
0000
0000
0000
,
1000
0000
0000
0000
,
0001
0000
0000
0000
,
1000
0000
0010
0000
,
0100
0000
0000
0000
,
0001
0001
0001
0000
,
2002
0000
3003
0000
;

//---------------dance-single - ----------------
#NOTEDATA:;
#CHARTNAME:;
#STEPSTYPE:dance-single;
#DESCRIPTION:;
#CHARTSTYLE:;
#DIFFICULTY:Easy;
#METER:3;
#RADARVALUES:0.209597,0.230743,0.022457,0.052399,0.000000,196.000000,193.000000,3.000000,7.000000,0.000000,0.000000,0.000000,0.000000,0.000000,0.209597,0.230743,0.022457,0.052399,0.000000,196.000000,193.000000,3.000000,7.000000,0.000000,0.000000,0.000000,0.000000,0.000000;
#CREDIT:;
#NOTES:
0000
0000
0000
0000
,
0000
0000
0000
0000
,
0000
0000
0000
0000
,
0000
0000
0000
0000
,
0001
0000
1000
0100
,
1000
0000
0001
0100
,
0001
0000
1000
0010
,
1000
1000
1000
1000
,
1000
0000
0001
0010
,
0001
0000
1000
0010
,
1000
0000
0001
0100
,
0001
0001
0001
0001
,
1000
0100
1000
0000
,
0000
0001
0100
0001
,
0000
1000
0010
1000
,
0020
0000
0000
0000
,
0130
0001
0100
0000
,
0000
0001
0010
0001
,
0000
1000
0100
1000
,
0002
0000
2003
0000
,
3001
0001
0001
0000
,
1000
1000
1000
0000
,
0010
0010
0010
0010
,
0100
0100
0100
0100
,
0001
0001
0001
0000
,
1000
1000
1000
0000
,
0100
0100
0100
0100
,
0010
0010
0010
0010
,
0001
0001
0001
0000
,
0000
1000
1000
0000
,
0000
0100
0100
0000
,
0010
0010
0010
0010
,
0001
0001
0001
0000
,
0000
1000
1000
0000
,
0000
0010
0010
0000
,
0200
0000
0300
0000
,
0000
0010
0100
0010
,
0000
1000
0001
1000
,
0000
0100
0010
0100
,
2000
0000
0000
0000
,
3000
0001
0010
0001
,
0000
1000
0010
1000
,
0000
0001
0100
0001
,
0000
1000
0100
1000
,
0000
0001
0000
1000
0000
0010
0000
0000
,
0000
0100
0000
0000
0001
0000
0000
0000
,
0000
1000
0000
0100
0000
1000
0000
0100
,
0000
0000
0000
1000
0000
0000
0000
0000
,
0001
0001
0001
0000
,
1000
1000
1000
0000
,
0100
0100
0100
0000
,
0010
0010
0010
0010
,
0001
0001
0001
0000
,
1000
1000
1000
0000
,
1100
0000
0011
0000
,
0001
1000
0001
1000
,
0001
0100
0001
0100
,
0000
0010
1000
0010
,
0000
1000
0100
1000
,
0001
0001
0001
0001
,
1000
0010
0100
0000
,
0001
0010
0100
0000
,
1000
0010
0100
0010
,
1000
0100
0010
0001
,
1000
0100
0010
0000
,
0001
0100
0010
0000
,
1000
0010
0100
0000
,
0001
0001
1000
1000
,
2002
0000
3003
0000
;

//---------------dance-single - ----------------
#NOTEDATA:;
#CHARTNAME:;
#STEPSTYPE:dance-single;
#DESCRIPTION:;
#CHARTSTYLE:;
#DIFFICULTY:Challenge;
#METER:9;
#RADARVALUES:0.566766,0.717868,0.097313,0.044914,0.449135,530.000000,517.000000,13.000000,6.000000,0.000000,0.000000,0.000000,0.000000,0.000000,0.566766,0.717868,0.097313,0.044914,0.449135,530.000000,517.000000,13.000000,6.000000,0.000000,0.000000,0.000000,0.000000,0.000000;
#CREDIT:;
#NOTES:
0000
0000
0000
0000
,
0000
0000
0000
0000
,
0000
0000
0000
0000
,
0000
0000
0000
0000
0000
0000
0000
0000
0000
0000
0000
0000
0000
0002
0000
0000
,
1003
0000
1000
0000
0000
0000
0010
0000
1000
0001
0000
0001
0000
0000
1000
0000
,
0100
0000
0100
0000
0000
0000
1000
0000
0010
1000
0000
1000
0000
0000
0001
0000
,
0010
0000
0010
0000
0000
0000
0100
0000
1000
0001
0000
0001
0000
0000
1000
0000
,
0010
0000
0000
0000
0000
0100
0000
0000
0000
0000
0000
0000
0000
0000
0000
0000
0100
0000
0000
0000
0000
0000
0000
0000
0001
0000
0000
0000
0000
0000
0000
0000
1000
0000
0000
0000
0000
0000
0000
0000
0100
0000
0000
0000
0000
0000
0000
0000
0010
0000
0000
0000
0001
0000
0000
0000
0000
0000
0000
0000
0001
0000
0000
0000
,
0000
0000
1000
0000
0000
0000
0010
0000
0100
0001
0000
0001
0000
0000
1000
0000
,
0100
0000
0100
0000
0000
0000
1000
0000
0001
0010
0000
0010
0000
0000
0100
0000
,
1000
0000
1000
0000
0000
0000
0001
0000
0100
0010
0000
0010
0000
0000
1000
0000
,
0001
0000
0000
0000
0000
0000
0000
0000
0010
0000
0000
0000
0000
0000
0000
0000
0100
0000
0000
0000
0000
0000
0000
0000
1000
0000
0000
0000
0000
0100
0000
0000
0000
0000
0000
0000
0000
1000
0000
0000
0100
0000
0000
0000
0000
1000
0000
0000
0100
0000
0000
0000
0000
0000
0000
0000
2000
0000
0000
0000
0000
0000
0000
0000
,
0000
0000
3001
0001
0100
0010
0100
0001
,
0000
0000
0001
0000
1000
0100
0000
0010
0000
0000
0010
0000
0100
0000
0100
0000
,
1000
0001
0100
0010
0100
0100
0001
0001
,
1000
0100
1100
0000
0001
0100
0101
0001
,
0000
1000
0001
0001
0100
0010
0100
0001
,
1000
0100
0100
1000
0010
0100
0010
1000
,
0000
0000
1000
0000
0001
0000
0010
0000
0000
0000
0010
0100
0010
0000
0001
0000
,
2000
0000
0000
0000
0000
0000
0000
0000
3002
0000
0000
0000
1003
0010
1000
0010
,
1000
1000
0001
0001
0010
0100
0110
0010
,
0100
0000
1000
0000
0100
0000
0000
0000
0100
1000
0100
0000
0010
0000
0000
0000
,
0001
0001
1000
1000
0100
0010
0001
1000
,
0010
0000
0000
0000
0000
0100
0000
0000
0000
0000
0000
0000
0000
0000
0000
0000
0100
0000
0000
0000
0000
0000
0000
0000
0001
0000
0000
0000
0000
0000
0000
0000
1000
0000
0000
0000
0000
0000
0000
0000
0100
0000
0000
0000
0000
0000
0000
0000
0010
0000
0000
0000
0001
0000
0000
0000
0010
0000
0000
0000
0001
0000
0000
0000
,
1000
1000
0001
0001
0100
0010
0110
0100
,
0001
0000
0000
0000
0000
0000
0000
0000
1000
0000
0000
0000
0000
0000
0000
0000
0001
0000
0000
0000
0000
0100
0000
0000
0000
0000
0000
0000
0000
0100
0000
0000
0010
0000
0000
0000
0000
0000
0000
0000
1000
0000
0000
0000
0000
0000
0000
0000
1100
0000
0000
0000
0000
0000
0000
0000
0000
0000
0000
0000
0000
0000
0000
0000
,
0100
0010
0100
1000
0001
0100
0010
0100
,
0001
0000
0000
0000
0000
0000
0000
0000
1000
0000
0000
0000
0000
0000
0000
0000
0001
0000
0000
0000
0000
0000
0000
0000
0100
0000
0000
0000
0000
0000
0000
0000
0010
0000
0000
0000
0000
0000
0000
0000
0100
0000
0000
0000
0000
0001
0000
0000
0000
0000
0000
0000
0000
0100
0000
0000
0000
0000
0000
0000
0000
0000
0000
0000
,
0000
0000
0001
1000
0000
0000
0100
0000
0000
0010
0000
0100
0000
0000
1000
0000
0000
0000
0001
0000
0000
0000
0000
0000
,
0000
0000
1000
0001
0000
0000
0100
0000
0000
0010
0000
0100
0000
0000
0001
0000
0000
0000
1000
0000
0000
0000
0000
0000
,
0000
0000
0001
1000
0000
0000
0010
0000
0000
0100
0000
0010
0000
0000
1000
0000
0000
0000
0001
0000
0000
0000
0000
0000
,
0100
0000
0000
0000
0000
0010
0000
0000
0000
0000
0000
0000
0000
0000
0000
0000
0010
0000
0000
0000
0000
0000
0000
0000
1000
0000
0000
0000
0000
0000
0000
0000
0001
0000
0000
0000
0000
0000
0000
0000
0010
0000
0000
0000
0000
0000
0000
0000
0100
0000
0000
0000
1000
0000
0000
0000
0000
0000
0000
0000
1000
0000
0000
0000
,
0000
0000
0001
1000
0000
0000
0100
0000
0000
0010
0000
0100
0000
0000
1000
0000
0000
0000
0001
0000
0000
0000
0000
0000
,
0000
0000
1000
0001
0000
0000
0100
0000
0000
0010
0000
0100
0000
0000
0001
0000
0000
0000
1000
0000
0000
0000
0000
0000
,
0000
0000
0001
1000
0000
0000
0010
0000
0000
0100
0000
0010
0000
0000
1000
0000
0000
0000
0001
0000
0000
0000
0000
0000
,
1000
0000
0000
0000
0000
0000
0000
0000
0100
0000
0000
0000
0000
0000
0000
0000
0010
0000
0000
0000
0000
0000
0000
0000
0001
0000
0000
0000
0000
0010
0000
0000
0000
0000
0000
0000
0000
0001
0000
0000
0010
0000
0000
0000
0000
0001
0000
0000
0010
0000
0000
0000
0000
0000
0000
0000
0002
0000
0000
0000
0000
0000
0000
0000
,
0000
0000
1003
1000
0010
0100
0010
1000
,
0000
0000
1000
0000
0001
0010
0000
0100
0000
0000
0100
0000
0010
0000
0010
0000
,
0001
0000
1000
0000
0010
0000
0000
0010
1000
0000
0100
0000
1000
0000
1000
0000
,
0001
0010
0011
0000
1000
0010
1010
1000
,
0000
0001
1000
1000
0010
0100
0010
1000
,
0001
0010
0010
0001
0100
0010
0100
0001
,
0000
0000
0001
0000
1000
0000
0100
0000
0000
0000
0100
0010
0100
0000
1000
0000
,
0001
0000
0010
0001
0010
0000
0100
0000
1000
0000
0001
0000
0100
0010
0100
0010
,
0000
1000
0010
0000
1000
0000
0001
0000
0010
0100
0010
0000
0000
0001
0010
0001
,
0000
1000
0100
0000
0000
1000
0010
1000
0010
1000
0000
0001
0100
0001
0000
1000
,
0100
1000
0100
1000
0000
0001
0010
0001
0000
1000
0100
1000
0001
1000
0001
0100
,
0000
0010
1000
0001
1000
0100
0010
0001
0000
0000
0000
0000
1000
0100
1000
0100
,
1000
1000
0001
0001
0100
0010
1010
1000
,
0010
0000
1000
0000
0010
0000
0000
0000
0010
1000
0010
0000
0100
0000
0000
0000
,
0001
0001
1000
1000
0010
0100
0001
1000
,
0100
0000
0000
0000
0000
0010
0000
0000
0000
0000
0000
0000
0000
0000
0000
0000
0010
0000
0000
0000
0000
0000
0000
0000
0001
0000
0000
0000
0000
0000
0000
0000
1000
0000
0000
0000
0000
0000
0000
0000
0010
0000
0000
0000
0000
0000
0000
0000
0100
0000
0000
0000
0001
0000
0000
0000
0100
0000
0000
0000
0001
0000
0000
0000
,
1000
1000
0001
0001
0010
0100
1100
1000
,
0001
0000
0000
0000
0000
0000
0000
0000
1000
0000
0000
0000
0000
0000
0000
0000
0001
0000
0000
0000
0000
0010
0000
0000
0000
0000
0000
0000
0000
0010
0000
0000
0100
0000
0000
0000
0000
0000
0000
0000
1000
0000
0000
0000
0000
0000
0000
0000
1010
0000
0000
0000
0000
0000
0000
0000
0000
0000
0000
0000
0000
0000
0000
0000
,
0010
0100
0010
1000
0001
0010
0100
1000
,
0100
0000
0000
0000
0000
0010
0000
0000
0000
0000
0000
0000
0000
0000
0000
0000
0100
0000
0000
0000
0000
0000
0000
0000
1000
0000
0000
0000
0000
0000
0000
0000
0001
0000
0000
0000
0000
0000
0000
0000
0010
0000
0000
0000
0000
0000
0000
0000
0001
0000
0000
0000
0100
0000
0000
0000
0000
0000
0000
0000
0100
0000
0000
0000
,
0000
0000
0001
1000
0000
0000
0010
0000
0000
0100
0000
0010
0000
0000
1000
0000
0000
0000
0001
0000
0000
0000
0000
0000
,
0000
0000
1000
0001
0000
0000
0010
0000
0000
0100
0000
0010
0000
0000
0001
0000
0000
0000
1000
0000
0000
0000
0000
0000
,
0000
0000
0001
1000
0000
0000
0100
0000
0000
0010
0000
0100
0000
0000
1000
0000
0000
0000
0001
0000
0000
0000
0000
0000
,
0010
0000
0000
0000
0000
0100
0000
0000
0000
0000
0000
0000
0000
0000
0000
0000
0100
0000
0000
0000
0000
0000
0000
0000
1000
0000
0000
0000
0000
0000
0000
0000
0001
0000
0000
0000
0000
0000
0000
0000
0100
0000
0000
0000
0000
0000
0000
0000
0010
0000
0000
0000
1000
0000
0000
0000
0010
0000
0000
0000
1000
0000
0000
0000
,
0001
0001
1000
1000
0010
0100
0101
0001
,
1000
0000
0001
0000
0100
0000
0000
0000
0100
0001
0100
0000
0010
0000
0000
0000
,
1000
1000
0001
0001
0100
0010
1000
0001
,
0010
0000
0000
0000
0000
0100
0000
0000
0000
0000
0000
0000
0000
0000
0000
0000
0100
0000
0000
0000
0000
0000
0000
0000
1000
0000
0000
0000
0000
0000
0000
0000
0001
0000
0000
0000
0000
0000
0000
0000
0100
0000
0000
0000
0000
0000
0000
0000
0010
0000
0000
0000
1000
0000
0000
0000
0010
0000
0000
0000
1000
0000
0000
0000
,
0001
0001
1000
1000
0100
0010
0110
0100
,
1000
0000
0000
0000
0000
0000
0000
0000
0001
0000
0000
0000
0000
0000
0000
0000
1000
0000
0000
0000
0000
0100
0000
0000
0000
0000
0000
0000
0000
0100
0000
0000
0010
0000
0000
0000
0000
0000
0000
0000
0001
0000
0000
0000
0000
0000
0000
0000
0101
0000
0000
0000
0000
0000
0000
0000
0000
0000
0000
0000
0000
0000
0000
0000
,
0100
0000
0010
0000
0100
0000
0001
0000
1000
0000
0100
0000
0010
0000
0001
0010
,
0001
0000
0000
0000
0000
0000
0000
0000
1000
0000
0000
0000
0000
0000
0000
0000
0010
0000
0000
0000
0000
0000
0000
0000
1000
0000
0000
0000
0000
0000
0000
0000
0010
0000
0000
0000
0000
0100
0000
0000
0001
0000
0000
0000
0000
0100
0000
0000
0000
0000
0000
0000
0000
0010
0000
0000
1000
0000
0000
0000
0000
0001
0000
0000
,
2000
0000
3000
0000
;

//---------------dance-single - ----------------
#NOTEDATA:;
#CHARTNAME:;
#STEPSTYPE:dance-single;
#DESCRIPTION:;
#CHARTSTYLE:;
#DIFFICULTY:Medium;
#METER:5;
#RADARVALUES:0.357170,0.358934,0.097313,0.134741,0.000000,334.000000,321.000000,13.000000,18.000000,0.000000,0.000000,0.000000,0.000000,0.000000,0.357170,0.358934,0.097313,0.134741,0.000000,334.000000,321.000000,13.000000,18.000000,0.000000,0.000000,0.000000,0.000000,0.000000;
#CREDIT:;
#NOTES:
0000
0000
0000
0000
,
0000
0000
0000
0000
,
0000
0000
0000
0000
,
0000
0000
0000
0000
,
1000
0100
0001
0000
0100
0000
1001
0000
,
0001
0100
1000
0000
0100
0001
1000
0000
,
0001
0010
1000
0000
0010
0000
1001
0000
,
0002
0000
1003
0010
0001
0100
1000
0000
,
0001
0100
1000
0000
0100
0000
1001
0000
,
1000
0100
0001
0000
0100
1000
0001
0000
,
1000
0010
0001
0000
0010
0000
1001
0000
,
0200
0000
0000
0300
,
1000
0000
1000
0000
0001
0100
0001
0000
,
1000
0001
1000
0000
0100
1000
0100
0000
,
0010
0000
0010
0000
0001
1000
0001
0000
,
1000
0100
0010
0000
0010
0100
1000
0000
,
0001
0000
0001
0000
1000
0010
1000
0000
,
0001
1000
0001
0000
0010
0001
0010
0000
,
0100
0000
0100
0000
1000
0001
1000
0000
,
0002
0000
2000
3003
,
0001
0100
1000
0000
0100
0001
0001
0000
,
1000
0100
0010
0000
0001
0001
0001
0000
,
1000
0100
0010
0000
0001
0100
0010
0000
,
2000
0000
3001
0010
1000
0100
0001
0000
,
1000
0010
0001
0000
0010
1000
1000
0000
,
0001
0010
0100
0000
1000
1000
1000
0000
,
0001
0010
0100
0000
1000
0010
0100
0000
,
0002
0000
0000
0003
,
1000
0000
1010
0000
0100
0001
1000
0000
,
0001
0000
0011
0000
0100
1000
0001
0000
,
1000
0000
1010
0000
0100
0001
1000
0000
,
0002
0000
1003
0010
0001
0100
1000
0000
,
0001
0000
0011
0000
0100
1000
0001
0000
,
1000
0000
1010
0000
0100
0001
1000
0000
,
0001
0000
0011
0000
0100
1000
0001
0000
,
2000
0000
0000
3000
,
0001
0000
0001
0000
1000
0100
1000
0000
,
0001
1000
0001
0000
0100
0001
0100
0000
,
0010
0000
0010
0000
1000
0001
1000
0000
,
0001
0100
0010
0000
0010
0100
0001
0000
,
1000
0000
1000
0000
0001
0010
0001
0000
,
1000
0001
1000
0000
0010
1000
0010
0000
,
0100
0000
0100
0000
0001
1000
0001
0000
,
1000
0100
0010
0001
,
2000
0000
0000
0000
,
3200
0000
0000
0000
,
0302
0000
0000
0000
,
0023
0000
0030
0000
,
1000
0100
0001
0000
0100
1000
1000
0000
,
0001
0100
0010
0000
1000
1000
1000
0000
,
0001
0100
0010
0000
1000
0100
0010
0000
,
0002
0000
1003
0010
0001
0100
1000
0000
,
0001
0010
1000
0000
0010
0001
0001
0000
,
1000
0010
0100
0000
0001
0001
0001
0000
,
1000
0010
0100
0000
0001
0010
0100
0000
,
2000
0000
3001
0010
1000
0100
0001
0000
,
1000
0000
1010
0000
0100
0001
1000
0000
,
0001
0000
0011
0000
0100
1000
0001
0000
,
1000
0000
1010
0000
0100
0001
1000
0000
,
0002
0000
1003
0010
0001
0100
1000
0000
,
0001
0010
1000
0000
0010
0001
0001
0000
,
1000
0010
0100
0000
0001
0001
0001
0000
,
1000
0010
0100
0000
0001
0010
0100
0000
,
2000
0000
3001
0100
1000
0010
0001
0000
,
1000
0100
0001
0000
0100
1000
1000
0000
,
0001
0100
0010
0000
1000
1000
1000
0000
,
0001
0100
0010
0000
1000
0100
0010
0000
,
0002
1000
0100
0010
,
2000
0000
3003
0000
;

//---------------dance-single - ----------------
#NOTEDATA:;
#CHARTNAME:;
#STEPSTYPE:dance-single;
#DESCRIPTION:;
#CHARTSTYLE:;
#DIFFICULTY:Hard;
#METER:8;
#RADARVALUES:0.525061,0.512763,0.261996,0.209597,0.127255,491.000000,456.000000,35.000000,28.000000,0.000000,0.000000,0.000000,0.000000,0.000000,0.525061,0.512763,0.261996,0.209597,0.127255,491.000000,456.000000,35.000000,28.000000,0.000000,0.000000,0.000000,0.000000,0.000000;
#CREDIT:;
#NOTES:
// measure 0
0000
0000
0000
0000
,  // measure 1
0000
0000
0000
0000
,  // measure 2
0000
0000
0000
0000
,  // measure 3
0000
0000
0000
0000
,  // measure 4
1000
0100
0110
0000
0001
0100
0110
0000
,  // measure 5
0100
0001
1001
0000
0100
1000
1001
0001
,  // measure 6
1000
0010
0110
0000
0001
0010
0110
0000
,  // measure 7
1000
0000
0000
0000
0000
0002
0000
0000
0000
0000
0000
0000
0000
0000
0000
0000
1003
0000
0000
0000
0000
0000
0000
0000
0010
0000
0000
0000
0000
0000
0000
0000
0001
0000
0000
0000
0000
0000
0000
0000
0010
0000
0000
0000
0000
0000
0000
0000
1000
0000
0000
0000
0100
0000
0000
0000
0000
0000
0000
0000
0010
0000
0000
0000
,  // measure 8
0001
0100
0110
0000
1000
0100
0110
0000
,  // measure 9
0100
1000
1001
0000
0100
0001
1001
1000
,  // measure 10
0001
0010
0110
0000
1000
0010
0110
0000
,  // measure 11
2002
0000
0000
3003
,  // measure 12
2000
0000
3100
1000
0001
0010
0100
1000
,  // measure 13
0001
0010
0100
0010
0001
0001
0100
0010
,  // measure 14
1000
0100
0001
0100
1000
1000
0001
1000
,  // measure 15
0001
0010
0011
0001
1000
0010
1010
1000
,  // measure 16
0001
0100
0010
0010
1000
0001
1000
1000
,  // measure 17
0001
0001
0010
0010
0100
1000
0001
1000
,  // measure 18
0100
0010
0001
1000
0001
0010
0100
1000
,  // measure 19
0002
0000
0000
0000
2000
0003
3001
1000
,  // measure 20
1001
0001
0001
0001
1000
0010
0001
0010
,  // measure 21
1000
0000
1000
0000
0001
0010
0000
0010
0100
0000
1000
0000
1001
0000
0000
0000
,  // measure 22
0001
0100
1000
0100
0001
0010
0100
1000
,  // measure 23
0001
0000
0000
0000
0000
2000
0000
0000
0000
0000
0000
0000
0000
0000
0000
0000
3001
0000
0000
0000
0000
0000
0000
0000
0100
0000
0000
0000
0000
0000
0000
0000
1000
0000
0000
0000
0000
0000
0000
0000
0100
0000
0000
0000
0000
0000
0000
0000
0001
0000
0000
0000
0010
0000
0000
0000
0000
0000
0000
0000
0100
0000
0000
0000
,  // measure 24
1000
1000
1000
1000
0001
0100
1000
0100
,  // measure 25
0001
0000
0001
0000
1000
0100
0000
0100
0010
0000
0001
0000
1001
0000
0000
0000
,  // measure 26
1000
0010
0001
0010
1000
0100
0010
0001
,  // measure 27
1000
0000
0000
0000
0000
0000
0000
0000
1000
0000
0000
0000
0000
0000
0000
0000
0010
0000
0000
0000
0000
0000
0000
0000
0010
0000
0000
0000
0000
0000
0000
0000
0100
0000
0000
0000
0000
0000
0000
0000
0001
0000
0000
0000
0000
0000
0000
0000
0000
0000
0000
0000
0000
2000
0000
0000
0000
0000
0000
0000
0000
0000
0000
0000
,  // measure 28
3001
0010
1000
0010
0001
1000
1100
0000
,  // measure 29
1000
0100
0001
0100
1000
0001
0011
0000
,  // measure 30
0001
0100
1000
0100
0001
1000
1010
0000
,  // measure 31
1000
0000
0000
0000
0000
0002
0000
0000
0000
0000
0000
0000
0000
0000
0000
0000
1003
0000
0000
0000
0000
0000
0000
0000
0100
0000
0000
0000
0000
0000
0000
0000
0001
0000
0000
0000
0000
0000
0000
0000
0100
0000
0000
0000
0000
0000
0000
0000
1000
0000
0000
0000
0010
0000
0000
0000
0000
0000
0000
0000
0100
0000
0000
0000
,  // measure 32
0001
0010
1000
0010
0001
1000
1100
0000
,  // measure 33
1000
0100
0001
0100
1000
0001
0011
0000
,  // measure 34
0001
0100
1000
0100
0001
1000
1010
0000
,  // measure 35
2002
0000
0000
3003
,  // measure 36
0002
0000
0103
0001
1000
0010
0100
0001
,  // measure 37
1000
0010
0100
0010
1000
1000
0100
0010
,  // measure 38
0001
0100
1000
0100
0001
0001
1000
0001
,  // measure 39
1000
0010
1010
1000
0001
0010
0011
0001
,  // measure 40
1000
0100
0010
0010
0001
1000
0001
0001
,  // measure 41
1000
1000
0010
0010
0100
0001
1000
0001
,  // measure 42
0100
0010
1000
0001
1000
0010
0100
0001
,  // measure 43
1000
1000
0100
0100
0010
0001
0100
0010
,  // measure 44
2000
0000
3002
0000
,  // measure 45
0023
0000
0230
0000
,  // measure 46
2300
0000
0000
0000
,  // measure 47
0002
0000
0000
0000
3003
0000
1000
0001
,  // measure 48
1001
1000
1000
1000
0001
0010
1000
0010
,  // measure 49
0001
0000
0001
0000
1000
0010
0000
0010
0100
0000
0001
0000
1001
0000
0000
0000
,  // measure 50
1000
0100
0001
0100
1000
0010
0100
0001
,  // measure 51
1000
0000
0000
0000
0000
0002
0000
0000
0000
0000
0000
0000
0000
0000
0000
0000
1003
0000
0000
0000
0000
0000
0000
0000
0100
0000
0000
0000
0000
0000
0000
0000
0001
0000
0000
0000
0000
0000
0000
0000
0100
0000
0000
0000
0000
0000
0000
0000
1000
0000
0000
0000
0010
0000
0000
0000
0000
0000
0000
0000
0100
0000
0000
0000
,  // measure 52
0001
0001
0001
0001
1000
0100
0001
0100
,  // measure 53
1000
0000
1000
0000
0001
0100
0000
0100
0010
0000
1000
0000
1001
0000
0000
0000
,  // measure 54
0001
0010
1000
0010
0001
0100
0010
1000
,  // measure 55
0001
0000
0000
0000
0000
2000
0000
0000
0000
0000
0000
0000
0000
0000
0000
0000
3001
0000
0000
0000
0000
0000
0000
0000
0010
0000
0000
0000
0000
0000
0000
0000
1000
0000
0000
0000
0000
0000
0000
0000
0010
0000
0000
0000
0000
0000
0000
0000
0001
0000
0000
0000
0100
0000
0000
0000
0000
0000
0000
0000
0010
0000
0000
0000
,  // measure 56
1000
0100
0001
0100
1000
0001
0011
0000
,  // measure 57
0001
0010
1000
0010
0001
1000
1100
0000
,  // measure 58
1000
0010
0001
0010
1000
0001
0101
0000
,  // measure 59
0001
0000
0000
0000
0000
2000
0000
0000
0000
0000
0000
0000
0000
0000
0000
0000
3001
0000
0000
0000
0000
0000
0000
0000
0010
0000
0000
0000
0000
0000
0000
0000
1000
0000
0000
0000
0000
0000
0000
0000
0010
0000
0000
0000
0000
0000
0000
0000
0001
0000
0000
0000
0100
0000
0000
0000
0000
0000
0000
0000
0010
0000
0000
0000
,  // measure 60
1000
1000
1000
1000
0001
0010
1000
0010
,  // measure 61
0001
0000
0001
0000
1000
0010
0000
0010
0100
0000
0001
0000
1001
0000
0000
0000
,  // measure 62
1000
0100
0001
0100
1000
0010
0100
0001
,  // measure 63
1000
0000
0000
0000
0000
0002
0000
0000
0000
0000
0000
0000
0000
0000
0000
0000
1003
0000
0000
0000
0000
0000
0000
0000
0100
0000
0000
0000
0000
0000
0000
0000
0001
0000
0000
0000
0000
0000
0000
0000
0100
0000
0000
0000
0000
0000
0000
0000
1000
0000
0000
0000
0010
0000
0000
0000
0000
0000
0000
0000
0100
0000
0000
0000
,  // measure 64
0001
0001
0001
0001
1000
0100
0001
0100
,  // measure 65
1000
0000
1000
0000
0001
0100
0000
0100
0010
0000
1000
0000
1001
0000
0000
0000
,  // measure 66
0001
0010
1000
0010
0001
0100
0010
2000
,  // measure 67
0001
3002
0010
0023
0100
0230
1000
2300
,  // measure 68
0002
0000
3003
0000
;
