#VERSION:0.81;
#TITLE:こんがらガール;
#SUBTITLE:;
#ARTIST:Charisma.com;
#TITLETRANSLIT:Kongara Girl;
#SUBTITLETRANSLIT:;
#ARTISTTRANSLIT:;
#GENRE:;
#ORIGIN:;
#CREDIT:mf32892;
#BANNER:[ZIv Academy II] - Kongara Girl.png;
#BACKGROUND:[ZIv Academy II] - Kongara Girl-bg.png;
#PREVIEWVID:;
#JACKET:[ZIv Academy II] - Kongara Girl-jacket.png;
#CDIMAGE:;
#DISCIMAGE:;
#LYRICSPATH:;
#CDTITLE:cdtitle.png;
#MUSIC:[ZIv Academy II] - Kongara Girl.ogg;
#OFFSET:1.051020;
#SAMPLESTART:56.459999;
#SAMPLELENGTH:12.000000;
#SELECTABLE:YES;
#BPMS:0.000=146.010;
#STOPS:;
#DELAYS:;
#WARPS:;
#TIMESIGNATURES:0.000=4=4;
#TICKCOUNTS:0.000=4;
#COMBOS:0.000=1;
#SPEEDS:0.000=1.000=0.000=0;
#SCROLLS:0.000=1.000;
#FAKES:;
#LABELS:0.000=Song Start;
#BGCHANGES:2.500=[ZIv Academy II] - Kongara Girl.mp4=1.000=0=0=0=StretchNoLoop====,
99999=-nosongbg-=1.000=0=0=0 // don't automatically add -songbackground-
;
#KEYSOUNDS:;
#ATTACKS:
;

//---------------dance-single - ----------------
#NOTEDATA:;
#CHARTNAME:;
#STEPSTYPE:dance-single;
#DESCRIPTION:;
#CHARTSTYLE:;
#DIFFICULTY:Hard;
#METER:8;
#RADARVALUES:0.538202,0.486314,0.396570,0.289165,0.111535,373.000000,48.000000,35.000000,0.000000,0.000000,0.000000,0.000000,0.000000,0.538202,0.486314,0.396570,0.289165,0.111535,373.000000,48.000000,35.000000,0.000000,0.000000,0.000000,0.000000,0.000000;
#CREDIT:;
#NOTES:
// measure 0
0000
0000
0000
0000
,  // measure 1
0000
0000
0000
0000
,  // measure 2
0000
0000
0000
0000
,  // measure 3
0000
0000
0000
0000
,  // measure 4
0000
0000
0000
0000
,  // measure 5
0000
0000
0000
0000
,  // measure 6
0000
0000
0000
0010
,  // measure 7
1001
0000
0001
0000
0100
0000
0000
0010
1000
0000
0001
0000
0100
0000
0000
0000
,  // measure 8
0010
0000
1000
0000
0100
0010
0000
0100
0010
0000
0001
0000
1000
0000
0000
0000
,  // measure 9
0001
0000
0100
0000
0010
1000
0000
1000
0001
0000
0010
0000
0100
0000
0000
0000
,  // measure 10
1000
0000
0100
0000
0010
0100
0000
0010
0100
0000
0000
0000
1001
0000
0000
0000
,  // measure 11
0200
0010
0000
1000
,  // measure 12
0000
0010
0000
0001
,  // measure 13
0320
0001
0000
1030
,  // measure 14
0001
1000
0001
1000
0100
0010
0100
0010
,  // measure 15
0011
0000
0000
0000
1100
0000
0000
0001
0010
0000
0100
0000
0200
0000
0000
0000
,  // measure 16
0310
0001
1000
0001
0100
0100
0200
0300
,  // measure 17
1010
0000
0000
0000
0101
0000
0000
1000
0001
0000
0010
0000
0020
0000
0000
0000
,  // measure 18
0130
0010
0001
0100
0010
1000
0010
1000
,  // measure 19
0100
0000
0000
0000
1001
0000
0000
0010
0001
0000
0100
0000
0200
0000
0000
0000
,  // measure 20
0310
1000
0100
1000
0001
0010
0200
0300
,  // measure 21
0011
0000
0000
0000
0110
0000
0000
0100
0010
0000
0001
0000
2000
0000
0000
0000
,  // measure 22
3001
0100
0010
1000
0100
1000
0001
0000
,  // measure 23
0101
0000
0000
0000
1010
0000
0000
0001
1000
0000
0010
0000
0020
0000
0000
0000
,  // measure 24
0130
0010
1000
0100
1000
1000
2000
3000
,  // measure 25
1100
0000
0000
0000
0011
0000
0000
1000
0010
0000
0100
0000
0200
0000
0000
0000
,  // measure 26
0301
1000
0100
1000
0010
0100
0001
0010
,  // measure 27
2100
0000
0001
0000
,  // measure 28
0010
0010
0001
3000
,  // measure 29
0012
0000
1000
0000
,  // measure 30
0100
0100
1000
0003
,  // measure 31
2100
0000
0001
0000
,  // measure 32
0010
0010
0001
3000
,  // measure 33
1000
0001
0100
0010
,  // measure 34
1000
0100
0010
0001
0100
0010
1000
0010
,  // measure 35
1001
0000
1000
0100
1000
0001
0010
1000
,  // measure 36
0010
0001
0100
0010
1010
0000
0101
0000
,  // measure 37
0012
0000
1003
0100
0001
0100
1000
0010
,  // measure 38
0100
0001
0010
0000
0110
0000
1001
0000
,  // measure 39
0201
0000
0310
1000
0100
1000
0001
0010
,  // measure 40
1000
0010
0001
0100
0110
0000
1001
0000
,  // measure 41
0012
0000
0103
0010
1000
0100
0010
0000
,  // measure 42
1002
0000
0100
0000
0013
0100
0100
0010
,  // measure 43
1001
0000
1000
0001
0100
1000
0100
0010
,  // measure 44
1000
0100
0010
0001
0011
0000
1100
0000
,  // measure 45
1020
0000
0130
1000
0100
0010
1000
0001
,  // measure 46
0010
1000
0010
0001
0100
0000
1010
0000
,  // measure 47
0102
0000
0013
1000
0010
0001
1000
0100
,  // measure 48
0001
0100
1000
0010
0110
0000
1010
0000
,  // measure 49
2001
0000
3100
0010
0001
0100
0010
0000
,  // measure 50
2001
0100
3010
0110
,  // measure 51
1001
0000
0001
0000
0010
0000
0000
0100
1000
0000
0001
0000
0010
0000
0000
0000
,  // measure 52
0100
0000
0010
0000
0001
0100
0000
0100
0010
0000
1000
0000
1010
0000
0000
0000
,  // measure 53
1001
0000
1000
0000
0010
0000
0000
0100
0001
0000
1000
0000
0100
0000
0000
0000
,  // measure 54
0010
0000
0001
0000
0100
0010
0000
0010
1000
0000
0001
0000
0011
0000
0000
0000
,  // measure 55
1001
0000
0001
0000
0100
0000
0000
0010
1000
0000
0001
0000
0010
0000
0000
0000
,  // measure 56
0100
0000
0010
0000
0001
0100
0000
0100
0010
0000
1000
0000
1100
0000
0000
0000
,  // measure 57
1001
0000
0010
0001
0100
0000
0101
0000
,  // measure 58
0010
1000
0100
0000
0110
0000
1001
0000
,  // measure 59
0001
0001
0000
1000
0100
1000
0010
0100
,  // measure 60
0001
0010
0000
0001
0010
0000
0200
0000
0000
0000
1300
0000
0001
0000
0000
0000
,  // measure 61
1000
0000
0100
1000
0010
1000
0100
0010
,  // measure 62
0001
0100
0000
0100
0010
0000
2000
0000
0000
0000
0100
0000
0100
0000
0000
0000
,  // measure 63
3100
0000
2000
3002
0003
0200
0310
1000
,  // measure 64
0100
0100
1000
0001
0010
0100
0020
0000
,  // measure 65
0031
0100
0001
1000
0010
0001
0000
0010
,  // measure 66
1000
0100
0010
0002
0000
1000
1000
1003
,  // measure 67
0020
0000
0230
0000
0302
0000
0003
0020
,  // measure 68
0000
0000
0130
0000
0000
0000
0200
0000
0000
0000
1300
0000
0000
0000
1000
0001
,  // measure 69
0020
0030
0000
0000
;

//---------------dance-single - ----------------
#NOTEDATA:;
#CHARTNAME:;
#STEPSTYPE:dance-single;
#DESCRIPTION:;
#CHARTSTYLE:;
#DIFFICULTY:Challenge;
#METER:9;
#RADARVALUES:0.668031,0.657955,0.305689,0.247856,0.326344,499.000000,37.000000,30.000000,0.000000,0.000000,0.000000,0.000000,0.000000,0.668031,0.657955,0.305689,0.247856,0.326344,499.000000,37.000000,30.000000,0.000000,0.000000,0.000000,0.000000,0.000000;
#CREDIT:;
#NOTES:
0000
0000
0000
0000
,
0000
0000
0000
0000
,
0000
0000
0000
0010
,
1001
0000
0001
0000
1000
0100
0000
0100
0001
0000
0100
0000
0010
0000
0000
0000
,
0001
0000
0100
0010
0000
0100
0000
1000
0100
0000
0001
0000
0101
0000
0000
0000
,
0011
0000
0010
0000
0100
0010
0000
0010
1000
0000
0010
0000
0001
0000
0000
0000
,
1000
0000
0010
0100
0000
0001
0000
0100
0010
0000
1000
0000
1001
0000
0000
0000
,
0011
0000
0010
0000
0100
1000
0000
1000
0001
0000
1000
0000
0010
0000
0000
0000
,
0100
0000
1000
0100
0000
0001
0000
0100
0010
0000
1000
0000
0001
0000
0000
0000
,
0010
0000
0100
0000
1000
0001
0000
0001
0100
0000
0010
0000
1000
0000
0000
0000
,
0100
0000
0010
0001
0000
0010
0000
1000
0010
0000
0000
0000
1001
0000
0000
0000
,
0001
0100
0010
1000
0000
0001
1000
0000
,
0001
0010
0000
0100
0000
0100
0010
0001
,
1000
0010
0100
0010
1000
0100
0000
0010
,
0001
1000
0000
0010
0000
0100
0000
0001
,
1000
0000
0001
0000
0010
0000
0000
0100
0010
0000
0001
0000
1000
0000
0001
0000
,
0100
1000
0100
0001
1000
0100
0001
0100
,
1000
0000
0010
0100
0010
1000
0100
1000
,
0002
0000
0013
0100
0010
0200
0000
1300
,
0001
0000
0100
0000
1000
0000
0100
0002
0000
0000
0013
0000
0100
0000
0010
0000
,
0001
0000
0100
0000
1000
0000
0100
0002
0000
0000
0013
0000
0100
0000
0100
0000
,
1000
0000
0100
0000
0001
0000
0100
2000
0000
0000
3010
0000
0100
0000
0010
0000
,
1000
0000
0100
0000
0001
0000
0100
2000
0000
0000
3010
0000
0100
0000
0100
0000
,
0001
0000
0010
0000
1000
0000
0010
0002
0000
0000
0103
0000
0010
0000
0100
0000
,
0001
0000
0010
0000
1000
0000
0010
0002
0000
0000
0103
0000
0010
1000
0010
1000
,
0001
0010
0000
0010
0100
0000
0100
1000
0000
1000
0001
0000
0001
0100
0000
0100
,
0010
1000
0000
1000
0001
0000
0001
0010
0000
0010
0100
0000
1000
0001
0100
0001
,
1000
0100
0010
0100
1000
0010
0100
0001
,
0010
0000
1000
0000
0010
0000
0001
0000
1000
0000
0000
0000
1001
0000
0001
1000
,
0100
0010
0000
0010
0001
0000
0100
0010
,
0100
0000
0001
0000
0010
0000
0100
0000
1000
0000
0000
0000
1001
0000
0001
1000
,
0100
0010
0100
1000
0010
0100
0010
0100
,
0001
0010
0100
1000
0001
0000
1001
0000
,
0001
0100
0010
1000
0100
1000
0001
0010
,
0100
0010
0001
1000
0001
0100
0100
0010
,
1001
0001
0100
0010
1000
0100
1000
0001
,
0010
1000
0010
0001
0101
0010
1010
0000
,
0120
0000
1030
0100
1000
0001
0010
1000
,
0010
0001
0100
0010
0110
0100
1001
0000
,
0021
0000
0130
1000
0010
0100
1000
0100
,
0001
0010
0100
1000
1010
0100
0101
0000
,
0200
0000
0320
1000
0000
1030
0200
0000
,
0320
0000
0001
0000
0031
0010
0010
0100
,
1001
1000
0010
0100
0001
0010
0001
1000
,
0100
0001
0100
1000
1010
0100
0101
0000
,
0210
0000
0301
0010
0001
1000
0100
0001
,
0100
1000
0010
0100
0110
0010
1001
0000
,
1200
0000
0310
0001
0100
0010
0001
0010
,
1000
0100
0010
0001
0101
0010
1010
0000
,
0020
0000
0230
0001
0000
0301
0020
0000
,
0230
0000
1000
0000
1300
0001
0101
0010
,
1001
0000
0001
0000
1000
0100
0000
0100
0001
0000
0100
0000
0010
0000
0000
0000
,
0001
0000
0100
0010
0000
0100
0000
1000
0100
0000
0001
0000
0101
0000
0000
0000
,
0011
0000
0010
0000
0100
0010
0000
0010
1000
0000
0010
0000
0001
0000
0000
0000
,
1000
0000
0010
0100
0000
0001
0000
0100
0010
0000
1000
0000
1001
0000
0000
0000
,
0011
0000
0010
0000
0100
1000
0000
1000
0001
0000
1000
0000
0010
0000
0000
0000
,
1000
0000
0010
0100
0000
1000
0000
0100
0001
0000
0100
0000
0110
0000
0000
0000
,
1001
0000
0010
0001
0100
0000
0110
0000
,
0010
1000
0100
0000
0110
0100
0100
0000
,
1000
0000
0100
0000
0010
0000
0001
0100
0001
0000
0100
0000
0010
0000
1000
0100
,
0010
0100
0000
0100
0010
0000
0002
0000
0000
0000
1003
0000
0010
0000
0000
0000
,
0100
0000
0010
0000
1000
0000
0100
1000
0100
0000
0010
0000
0001
0000
1000
0000
,
0001
0100
0000
0100
0010
0000
2000
0000
0000
0000
3001
0010
0001
0010
0000
0010
,
0001
0000
0100
0000
0001
1000
0100
1000
0100
0000
1000
0000
0010
1000
0010
1000
,
0001
0010
0000
0100
0010
0000
0001
1000
0001
0000
0001
0000
0200
0000
0000
0000
,
0300
0010
2000
0000
3001
0010
0000
0100
,
0010
0000
0001
0000
0100
0000
0020
0000
0000
0000
1030
0010
1000
0010
1000
0010
,
2000
0000
0100
0000
0002
0000
0003
0020
,
0030
0000
0010
0000
0000
0000
0200
0000
0300
0000
3100
0000
0000
0000
0010
0001
,
0200
0300
0000
0000
;

//---------------dance-single - ----------------
#NOTEDATA:;
#CHARTNAME:;
#STEPSTYPE:dance-single;
#DESCRIPTION:;
#CHARTSTYLE:;
#DIFFICULTY:Medium;
#METER:6;
#RADARVALUES:0.403651,0.400494,0.115666,0.223070,0.020655,301.000000,14.000000,27.000000,0.000000,0.000000,0.000000,0.000000,0.000000,0.403651,0.400494,0.115666,0.223070,0.020655,301.000000,14.000000,27.000000,0.000000,0.000000,0.000000,0.000000,0.000000;
#CREDIT:;
#NOTES:
0000
0000
0000
0000
,
0000
0000
0000
0000
,
0000
0000
0000
0000
,
0000
0000
0000
0000
,
0000
0000
0000
0000
,
0000
0000
0000
0000
,
0000
0000
0000
0000
,
1000
0100
0010
0001
0100
0100
0000
0000
,
0010
0001
0010
1000
0100
0100
1000
0000
,
0001
0100
0010
1000
0100
0100
0000
0000
,
0100
0001
0100
1000
0010
0010
1000
0000
,
1000
0000
1000
0001
0000
0001
0010
0000
,
0100
1000
0000
0001
0000
1000
0100
0000
,
0010
0000
0001
0000
1000
0001
0000
0001
,
0010
0001
0000
0101
0000
1001
0000
1010
,
0000
0000
1000
0000
0100
0010
0100
0000
,
1000
0000
0010
0000
0100
0010
0100
0001
,
0000
0000
0001
0010
0001
0000
1000
0010
,
1000
0000
0001
0100
0010
2000
0000
3001
,
0000
0000
1001
0000
0001
1000
0100
0000
,
1000
0000
0001
0000
1000
0001
0100
0000
,
0010
0000
0100
0001
1000
0000
0001
0000
,
0010
0000
0001
1000
0010
0000
1000
0000
,
0001
0000
0100
0010
1000
0000
0001
0000
,
1000
0000
0100
0010
0001
0000
1000
0000
,
0001
0000
0000
0100
0000
0000
1000
0000
0000
0100
0000
0000
0001
0000
0000
0000
,
1000
0000
0000
0010
0000
0000
0001
0000
0000
0010
0000
0000
1000
0000
0001
0000
,
2000
0000
3200
0000
,
0320
0000
0031
0100
,
0002
0000
0203
0000
,
0320
0000
1030
0100
,
2000
0000
3200
0000
,
0320
0000
0031
1000
,
0020
0001
0100
1000
,
0230
1000
0010
0301
,
0101
0000
0001
1000
0000
0100
0000
1000
,
0000
0001
0100
0001
0010
0000
0001
0000
,
1000
0000
0010
1000
0000
0001
0000
0010
,
0000
0001
1000
0000
0100
0000
0100
0000
,
0010
0000
0001
1000
0000
0010
0000
1000
,
0000
0100
1000
0100
0010
0000
0001
0000
,
0012
1000
0100
1000
,
0023
0032
0203
0320
,
1030
0000
0010
1000
0000
0001
0000
0100
,
0000
0001
0100
0001
1000
0000
0100
0000
,
0010
0000
0001
1000
0000
0010
0000
1000
,
0000
0010
1000
0002
0000
0000
0003
0000
,
0010
0000
0001
1000
0000
0100
0000
1000
,
0000
0100
1000
0100
0010
0000
0001
0000
,
2000
0000
0000
3200
0000
0000
2300
0000
,
3020
0000
0000
0000
1030
0010
1000
0010
,
0100
0000
0001
0000
1000
0001
1001
0000
,
0001
0000
0010
0000
0100
1000
0001
0000
,
1000
0000
0010
0000
0100
0010
0110
0000
,
0010
0000
1000
0000
0001
1000
0100
0000
,
0010
0000
0001
0000
1000
0001
1001
0000
,
0001
0000
1000
0000
0010
0100
0001
0000
,
0011
0000
0001
0010
0000
0100
1000
0000
,
0010
0100
0000
0100
0001
1000
0001
0100
,
0010
0010
0000
1000
0001
1000
0100
0001
,
0100
0100
1000
0002
0000
0003
0000
0000
,
0001
1000
0001
0010
1000
1000
0010
0100
,
1000
0000
0001
0000
0100
0000
0020
0000
0000
0000
1000
0000
1000
0000
0000
1000
,
0030
0000
1000
0010
0100
0100
0001
0010
,
0100
1000
0001
0001
0100
0000
0020
0000
,
0030
0000
2000
0000
3010
0100
0001
1000
,
0100
1000
0001
1000
0000
0000
0000
0000
,
0001
0000
1000
0000
0010
0000
0000
0110
,
0000
0110
0000
0101
0000
0101
0000
0001
,
2000
3000
0000
0000
;

//---------------dance-single - ----------------
#NOTEDATA:;
#CHARTNAME:;
#STEPSTYPE:dance-single;
#DESCRIPTION:;
#CHARTSTYLE:;
#DIFFICULTY:Easy;
#METER:4;
#RADARVALUES:0.259659,0.286067,0.008262,0.247856,0.000000,189.000000,1.000000,30.000000,0.000000,0.000000,0.000000,0.000000,0.000000,0.259659,0.286067,0.008262,0.247856,0.000000,189.000000,1.000000,30.000000,0.000000,0.000000,0.000000,0.000000,0.000000;
#CREDIT:;
#NOTES:
0000
0000
0000
0000
,
0000
0000
0000
0000
,
0000
0000
0000
0000
,
0000
0000
0000
0000
,
0000
0000
0000
0000
,
0000
0000
0000
0000
,
0000
0000
0000
0000
,
1000
0100
1000
0000
,
0001
0100
0001
0000
,
1000
0010
1000
0000
,
0001
0010
0001
0000
,
2000
0100
0000
0001
,
0000
0100
0000
0001
,
0000
0010
0000
0001
,
0010
0010
0001
3001
,
1000
0001
1000
0000
,
1000
0010
0100
0001
,
0000
0001
0100
0010
,
1000
0001
0001
0000
,
0001
0100
1000
0000
,
1000
0100
0001
0000
,
0001
0010
1000
0000
,
1000
0010
0001
0000
,
0001
0100
0010
0000
,
0010
0100
0001
0000
,
1000
0100
0010
0001
,
0001
0010
0100
1000
,
0200
0000
2300
0000
,
3002
0000
0013
0010
,
0200
0000
2300
0000
,
3002
0000
0013
0010
,
0002
0000
0203
0000
,
0320
0000
1030
0001
,
0020
0000
0000
0000
,
0230
0000
0000
0000
,
1300
0001
1000
0100
,
0001
0100
2000
3000
,
0001
1000
0001
0100
,
1000
0100
0002
0003
,
0001
0010
0100
0010
,
0001
1000
0002
0003
,
2000
0000
0000
3200
0000
0000
0302
0000
,
0023
0000
0000
0030
,
1000
0100
0010
0100
,
1000
0010
0200
0300
,
0001
0010
0100
0010
,
0001
1001
0000
0001
,
1000
0010
0100
0001
,
1000
0100
0020
0030
,
0002
0000
0000
0203
0000
0000
2300
0000
,
3020
0000
0000
0030
,
0001
0100
0001
0000
,
0001
0010
0100
0000
,
1000
0100
1000
0000
,
1000
0010
0100
0000
,
0001
0010
0001
0000
,
0001
0100
0010
0000
,
1000
0100
0001
0100
,
1000
0001
0010
0010
,
0001
0100
0010
1000
,
0100
0000
2000
3000
0000
0000
0000
0000
,
1000
0001
1000
0010
,
0100
0000
0002
0003
0000
0000
1000
0000
,
0100
1000
0010
0100
,
0001
1000
0100
0020
,
0030
0001
0010
0100
,
2000
0000
0000
3000
0000
0000
0001
0000
,
1000
0000
0100
0000
1000
0000
0000
0001
,
0000
0001
0000
1000
0000
1000
0000
0000
,
0200
0300
0000
0000
;

//---------------dance-single - ----------------
#NOTEDATA:;
#CHARTNAME:;
#STEPSTYPE:dance-single;
#DESCRIPTION:;
#CHARTSTYLE:;
#DIFFICULTY:Beginner;
#METER:2;
#RADARVALUES:0.119207,0.142517,0.041309,0.000000,0.000000,96.000000,5.000000,0.000000,0.000000,0.000000,0.000000,0.000000,0.000000,0.119207,0.142517,0.041309,0.000000,0.000000,96.000000,5.000000,0.000000,0.000000,0.000000,0.000000,0.000000,0.000000;
#CREDIT:;
#NOTES:
0000
0000
0000
0000
,
0000
0000
0000
0000
,
0000
0000
0000
0000
,
0000
0000
0000
0000
,
0000
0000
0000
0000
,
0000
0000
0000
0000
,
0000
0000
0000
0000
,
1000
0000
0000
0000
,
0010
0000
0000
0000
,
0001
0000
0000
0000
,
0010
0000
0000
0000
,
1000
0000
0000
0000
,
0000
0000
0000
0000
,
0000
0000
0000
0000
,
0001
0000
0001
0000
,
1001
0000
1000
0000
,
0100
0000
1000
0000
,
0000
0000
0001
0000
,
0100
0100
0100
0000
,
0001
0000
1000
0000
,
0100
0000
1000
0000
,
0001
0000
0010
0000
,
0001
0000
1000
0000
,
0001
0000
0100
0000
,
0010
0000
1000
0000
,
1000
0000
0000
0000
,
0001
0000
0000
0000
,
1001
0000
0000
0000
,
0001
0000
0010
0000
,
0100
0000
0000
0000
,
1000
0000
0010
0000
,
0100
0000
0000
0000
,
0001
0000
1000
0000
,
0010
0000
0000
0000
,
0100
0000
0000
0000
,
1001
0000
0001
0000
,
0100
0000
0001
0000
,
1000
0000
0100
0000
,
0010
0000
0010
0000
,
0001
0000
1000
0000
,
0100
0000
1000
0000
,
0001
0000
0000
0000
,
1000
0000
0000
0000
,
1000
0000
0010
0000
,
0100
0000
0010
0000
,
1000
0000
0001
0000
,
0010
0000
0100
0000
,
1000
0000
0001
0000
,
0100
0000
0001
0000
,
1000
0000
0000
0000
,
0001
0000
0000
1000
,
1001
0000
0000
0000
,
0001
0000
0000
0000
,
1000
0000
0000
0000
,
0001
0000
0000
0000
,
0100
0000
0000
0000
,
0010
0000
0000
0000
,
1000
1000
0000
0000
,
0000
0000
0000
0000
,
0001
0000
0000
0000
,
0001
0001
0000
0000
,
0010
0000
0100
0000
,
1000
1000
0000
0000
,
0010
0000
0010
0000
,
0100
0000
0100
0000
,
0001
0000
1000
0000
,
0001
0000
0010
0000
,
0100
0100
0100
0000
,
0000
0000
0000
0000
,
1001
0000
0000
0000
;

//---------------dance-double - ----------------
#NOTEDATA:;
#CHARTNAME:;
#STEPSTYPE:dance-double;
#DESCRIPTION:;
#CHARTSTYLE:;
#DIFFICULTY:Hard;
#METER:8;
#RADARVALUES:0.511056,0.543528,0.074357,0.256118,0.161106,393.000000,9.000000,31.000000,0.000000,0.000000,0.000000,0.000000,0.000000,0.511056,0.543528,0.074357,0.256118,0.161106,393.000000,9.000000,31.000000,0.000000,0.000000,0.000000,0.000000,0.000000;
#CREDIT:;
#NOTES:
00000000
00000000
00000000
00000000
,
00000000
00000000
00000000
00000000
,
00000000
00000000
00000000
00000000
,
00000000
00000000
00000000
00000000
,
00000000
00000000
00000000
00000000
,
00000000
00000000
00000000
00000000
,
00000000
00000000
00000000
00000000
,
10000000
00000000
00010000
00000000
01000000
00100000
00000000
01000000
00100000
00000000
01000000
00000000
00000000
00000000
00000000
00000000
,
00010000
00000000
10000000
00100000
00000000
10000000
00000000
00010000
01000000
00000000
00002000
00000000
00000000
00000000
00003000
00000000
,
00010000
00000000
00001000
00000000
00010000
00001000
00000000
00010000
00001000
00000000
00010000
00000000
00000000
00000000
00000000
00000000
,
00001000
00000000
00010000
00001000
00000000
00010000
00000000
00000100
00001000
00000000
00000100
00000000
00000010
00000000
00000000
00000000
,
00000002
00000000
00000000
00000003
00000000
00000000
00000100
00000000
,
00002000
00000000
00000000
00003000
00000000
00000000
00010000
00000000
,
01000000
01000000
10000000
10000000
,
00100000
01000000
00100000
01000000
00010000
10000000
00010000
10000000
,
10010000
00000000
10000000
00000000
00010000
00000000
00000000
00010000
10000000
00000000
01000000
00000000
01000000
00000000
00010000
00000000
,
00001000
00000010
00001000
00010000
01000000
00010000
00001000
00010000
,
00000000
00000000
00010000
00000100
00001000
00000001
00000100
00000010
,
00000100
00000001
00000010
00000100
00010000
02000000
00000000
13000000
,
01000000
00000000
01100000
00000000
01000000
10000000
00010000
00000000
,
00010000
01000000
00001000
00000000
00001000
00010000
00000100
00000100
,
00000010
00000001
00001000
00000100
00000010
00001000
01000000
00010000
,
00100000
01000000
10000000
00100000
01000000
00001000
00010000
00000000
,
00010000
00001000
00000100
00001000
00100000
00010000
10000000
00100000
,
01000000
00001000
00010000
00000010
00001000
00000100
00010000
00001000
,
00010000
00000010
00000000
00000010
00000100
00000000
00000100
00000001
00000000
00000001
00000010
00000000
00000010
00000100
00000000
00000100
,
00010000
00001000
00000000
00001000
00100000
00000000
00100000
00010000
00000000
00010000
10000000
00000000
00100000
00000000
01000000
00000000
,
00020000
00000000
20030000
00000000
,
30200000
00000000
00010000
00310000
,
00020000
00000000
00032000
00000000
,
00023000
00000000
00000010
00000100
,
00032000
00000000
00003200
00000000
,
00000302
00000000
00000023
00001000
,
00002030
00010000
01000000
00100000
,
00023000
00001000
00000010
00000100
,
00031000
00010000
01000000
10000000
00010000
10000000
00000000
10000000
,
00100000
01000000
00001000
00010000
00000100
00000010
00000100
00000000
,
00001000
00000010
00000100
00000001
00000010
00001000
00000000
00001000
,
00010000
00001000
01000000
00100000
10000000
00010000
10000000
00000000
,
10000000
00100000
01000000
00001000
00010000
01000000
00000000
01000000
,
00010000
00001000
00000010
00000001
00001000
00000100
00001000
00000000
,
00000001
00001000
00000100
00001000
00000001
00000100
00000001
00000000
,
00000020
00000000
00000000
00000000
00000001
00000000
00000000
00000000
00000130
00000000
00000000
00001000
00000001
00000000
00001000
00000000
,
00000001
00000100
00000010
00010000
00001000
00010000
01000000
10000000
,
00100000
01000000
00010000
00100000
01000000
10000000
01000000
00000000
,
10000000
01000000
00100000
01000000
10000000
01000000
00010000
00001000
,
00000010
00000000
00000100
00000000
00001000
00000000
00000010
00000000
00000000
00000000
00000000
00000010
00000100
00000000
00000000
00000000
,
00000001
00000100
00000010
00000100
00000001
00000010
00001000
00010000
,
01000000
10000000
00100000
01000000
00001000
00010000
01000000
00000000
,
10000000
00010000
01000000
00010000
10000000
01000000
10000000
00000000
,
00200000
00000000
10000000
00000000
01300000
00010000
10000000
00010000
,
10000000
00000000
01000000
00000000
00100000
01000000
00000000
00100000
01000000
00000000
10000000
00000000
00000000
00000000
00000000
00000000
,
00100000
00000000
01000000
00010000
00000000
00100000
00000000
00001000
00010000
00000000
00002000
00000000
00010000
00000000
00000000
00000000
,
00013000
00000000
00001000
00000000
00010000
00001000
00000000
00010000
00001000
00000000
00010000
00000000
00000000
00000000
00000000
00000000
,
00000010
00000000
00010000
00001000
00000000
00010000
00000000
00000100
00001000
00000000
00000010
00000000
00000200
00000000
00000000
00000000
,
00000301
00000000
00000100
00000000
00000010
00001000
00000000
00000010
00001000
00000000
00000001
00000000
00000000
00000000
00000000
00000000
,
00000010
00000000
00000100
00000010
00000000
00000001
00000000
00001000
00000001
00000000
00000100
00000000
00000001
00000000
00000000
00000000
,
00000001
00000100
00001000
00010000
01000000
10000000
00100000
01000000
,
00001000
00010000
00000100
00000010
00000001
00000001
00000001
00000000
,
00001000
00001000
00000001
00000100
00000010
00000010
00010000
00001000
,
01000000
00100000
10000000
22000000
00000000
33000000
00000000
00000000
,
10000000
10000000
01000000
00100000
00001000
00010000
00000100
00000010
,
00000001
00000100
00000010
00002020
00000000
00000000
00003030
00000000
,
00001000
00000010
00000100
00000001
00000010
00000100
00010000
00001000
,
00100000
00010000
01000000
00100000
00000000
00000000
20020000
00000000
,
30030000
00000000
20000000
00000000
31000000
10000000
00100000
00010000
,
00001000
00000100
00000001
00000010
00000001
00000100
00001000
00010000
,
00002000
00000000
00203000
00000000
00320000
00000000
00030000
01010000
,
00000000
00000000
01010000
00000000
00000000
00000000
00011000
00000000
00000000
00000000
00011000
00000000
00000000
00000000
00010000
00001000
,
00020000
00030000
00000000
00000000
;

//---------------dance-double - ----------------
#NOTEDATA:;
#CHARTNAME:;
#STEPSTYPE:dance-double;
#DESCRIPTION:;
#CHARTSTYLE:;
#DIFFICULTY:Medium;
#METER:6;
#RADARVALUES:0.372964,0.343281,0.041309,0.280904,0.016524,277.000000,5.000000,34.000000,1.000000,0.000000,0.000000,0.000000,0.000000,0.372964,0.343281,0.041309,0.280904,0.016524,277.000000,5.000000,34.000000,1.000000,0.000000,0.000000,0.000000,0.000000;
#CREDIT:;
#NOTES:
00000000
00000000
00000000
00000000
,
00000000
00000000
00000000
00000000
,
00000000
00000000
00000000
00000000
,
00000000
00000000
00000000
00000000
,
00000000
00000000
00000000
00000000
,
00000000
00000000
00000000
00000000
,
00000000
00000000
00000000
00000000
,
10000000
00000000
00010000
00000000
10000000
00010000
10000000
00000000
,
01000000
00000000
00010000
00000000
00001000
00010000
00001000
00000000
,
00000100
00000000
00000001
00000000
00001000
00000001
00001000
00000000
,
00000001
00000000
00000100
00000000
00001000
00010000
00001000
00000000
,
00020000
00001000
00000000
00001000
,
02030000
10000000
00000000
10000000
,
03020000
00001000
00000000
00001000
,
00030010
00001000
00000001
00001000
,
00001001
00000000
00000001
00000000
00000100
00001000
00010000
00000000
,
01000000
00000000
10000000
00000000
00100000
10000000
01000000
10000000
,
00000000
00000000
10000000
00000000
00100000
01000000
00010000
00000000
,
00100000
00000000
00001000
00010000
00000010
00002000
00000000
0000300M
,
00000000
00000000
00001001
00000000
00000001
00000100
00001000
00000000
,
00010000
00000000
01000000
00000000
10000000
01000000
00010000
00000000
,
00001000
00000000
00000010
00000000
00000001
00000010
00001000
00000000
,
00010000
00000000
00100000
00000000
10000000
00100000
00010000
00000000
,
00001000
00000000
00010000
00000000
00000100
00001000
00010000
00000000
,
01000000
00000000
10000000
00000000
00010000
00001000
00010000
00000000
,
00000100
00000000
00000000
00000001
00000000
00000000
00000100
00000000
00000000
00010000
00000000
00000000
00001000
00000000
00000000
00000000
,
01000000
00000000
00000000
00010000
00000000
00000000
01000000
00000000
00000000
10000000
00000000
00000000
01000000
00000000
00000000
00000000
,
20010000
00000000
01000000
00000000
,
00100000
00100000
30100000
00010000
,
00000200
00000000
00002300
00000000
,
00000001
00003001
00000010
00000100
,
00020000
00000000
00030020
00000000
,
00000100
00000130
00001000
00010000
,
00002000
00100000
01000000
00100000
,
00023000
00000010
00000100
00000010
,
00031000
00000000
00010000
00000010
00000000
00001000
00000000
00000100
,
00000000
00001000
00000100
00001000
00000002
00000000
00001003
00000000
,
00000001
00000000
00001000
00000001
00000000
00000010
00000000
00000002
,
00000000
00001003
00000200
00000000
00020300
00000000
00031000
00000000
,
01000000
00000000
00010000
10000000
00000000
01000000
00000000
10000000
,
00000000
00010000
01000000
00010000
20000000
00000000
31000000
00000000
,
00020000
00000000
00000000
00032000
00000000
00003000
00020000
00000000
,
00030020
00000001
00000100
00001030
,
00000001
00000000
00000100
00000010
00000000
00010000
00000000
00001000
,
00000000
00100000
00010000
10000000
00200000
00000000
10300000
00000000
,
00100000
00000000
10000000
00010000
00000000
01000000
00000000
00002000
,
00000000
00010000
00003010
00000100
00000000
00000000
00002001
00000000
,
00003010
00000000
00000100
00000001
00000000
00001000
00000000
00000100
,
00000000
00010000
00001000
01000000
00020000
00000000
10030000
00000000
,
20000000
00000000
00000000
30200000
00000000
00000000
00320000
00000000
,
00032000
00000000
00000010
00000000
00010000
00000000
00000100
00003000
,
00001000
00000000
00010000
00000000
01000000
10000000
00010000
00000000
,
00100000
00000000
00001000
00000000
00010000
00000100
00001000
00000000
,
00000010
00000000
00000100
00000000
00000001
00001000
00000100
00000000
,
00000010
00000000
00000001
00000000
00000100
00001000
00010000
00000000
,
00011000
00000000
00010000
00000000
00100000
10000000
01000000
00000000
,
00100000
00000000
01000000
00000000
10000000
00010000
01000000
00000000
,
00001000
00000000
00010000
00000000
00000100
00001000
00000001
00000000
,
00000010
00000000
00000001
00000000
00001000
00000001
00000100
00000000
,
00000001
00000100
00000000
00000000
00000100
00001000
00010000
00000000
,
00001000
00010000
01000000
20000000
00000000
00000000
30000000
00000000
,
10000000
01000000
00100000
00000000
00100000
00001000
00010000
00000000
,
00010000
00001000
00000010
00000002
00000000
00000000
00000003
00000000
,
00000001
00000100
00000010
00000000
00000010
00010000
00001000
00000000
,
00001000
00100000
00010000
20000000
00000000
00000000
30020000
00000000
,
00030000
00000000
00100000
00000000
00001000
00010000
00000100
00000000
,
00000100
00000010
00000001
00002000
00000000
00000000
00003000
00000000
,
00000100
00000000
00010000
00000000
00001000
00000000
00000000
00001000
,
00000000
00001000
00000000
00010000
00000000
00010000
00000000
00001000
,
00020000
00030000
00000000
00000000
;

//---------------dance-double - ----------------
#NOTEDATA:;
#CHARTNAME:;
#STEPSTYPE:dance-double;
#DESCRIPTION:;
#CHARTSTYLE:;
#DIFFICULTY:Easy;
#METER:4;
#RADARVALUES:0.271461,0.286067,0.024786,0.256118,0.000000,196.000000,3.000000,31.000000,0.000000,0.000000,0.000000,0.000000,0.000000,0.271461,0.286067,0.024786,0.256118,0.000000,196.000000,3.000000,31.000000,0.000000,0.000000,0.000000,0.000000,0.000000;
#CREDIT:;
#NOTES:
00000000
00000000
00000000
00000000
,
00000000
00000000
00000000
00000000
,
00000000
00000000
00000000
00000000
,
00000000
00000000
00000000
00000000
,
00000000
00000000
00000000
00000000
,
00000000
00000000
00000000
00000000
,
00000000
00000000
00000000
00000000
,
10000000
00100000
10000000
00000000
,
10000000
01000000
00010000
00000000
,
00010000
00001000
00010000
00000000
,
00001000
00010000
00000010
00001000
,
00000002
00000000
00000000
00000000
00000000
00000003
00000000
00000000
,
00000200
00000000
00000000
00000300
,
00002000
00000000
00023000
00000000
,
01030000
10000000
00010000
10000000
,
00100000
00000000
00100000
10000000
,
00010000
01000000
00010000
00100000
,
00000000
00001000
00010000
00000010
,
00000100
00000000
00000001
00000000
00002000
00000000
00000000
00003000
,
00000000
00001001
00001000
00000100
,
00000000
00000100
00010000
01000000
,
00000000
10000000
01000000
00010000
,
00000000
00000010
00001000
00100000
,
00000000
10000000
00100000
00001000
,
00000000
00000001
00000010
00010000
,
10000000
01000000
00010000
00001000
,
00000100
00000001
00000100
00001000
,
00020000
00000000
00032000
00000000
,
00203000
00000000
00010000
10000000
,
02300000
00000000
23000000
00000000
,
30020000
00000000
00100000
00000100
,
00032000
00000000
00003002
00000000
,
00000203
00000000
00000320
00000000
,
00001030
00000010
00000001
00000010
,
00010000
00100000
10000000
00100000
,
00010000
00001000
00010000
00000100
,
00001000
00000001
00002000
00003000
,
00000001
00000100
00001000
00000001
,
00001000
00010000
02000000
03000000
,
10000000
00100000
01000000
00001000
,
00010000
00000010
00000200
00000300
,
00000002
00000000
00000000
00000203
00000000
00000000
00002300
00000000
,
00023000
00000000
00000000
00001000
,
00031000
00100000
00010000
10000000
,
01000000
10000000
00200000
00300000
,
10000000
01000000
00010000
10000000
,
00010000
00000010
00002000
00003000
,
00000001
00000100
00001000
00010000
,
00100000
00010000
00000010
00010000
,
02000000
00000000
00000000
23000000
00000000
00000000
30020000
00000000
,
00230000
00000000
00000000
00300000
,
00010000
00100000
01000000
00000000
,
01000000
00010000
00001000
00000000
,
00000100
00000010
00001000
00000000
,
00000001
00001000
00000001
00000000
,
00000010
00000100
00010000
00000000
,
00001000
00100000
01000000
00000000
,
10000000
01000000
00100000
00000000
,
00001000
00010000
00011000
00011000
,
00010000
00000100
00000010
00000100
,
00010000
00000000
00000200
00000000
00000000
00000300
00000000
00000000
,
00000001
00000100
00010000
00001000
,
01000000
00000000
00200000
00000000
00000000
00300000
00000000
00000000
,
10000000
00100000
00010000
00001000
,
00000100
00001000
00010000
00000100
,
00000001
00000100
00001000
00000010
,
00000100
00000001
00001000
00000100
,
00010000
00000000
00001000
00000000
00010000
00000000
00000000
00001000
,
00000000
00001000
00000000
00010000
00000000
00010000
00000000
00001000
,
00020000
00030000
00000000
00000000
;

//---------------dance-double - ----------------
#NOTEDATA:;
#CHARTNAME:;
#STEPSTYPE:dance-double;
#DESCRIPTION:;
#CHARTSTYLE:;
#DIFFICULTY:Challenge;
#METER:9;
#RADARVALUES:0.669211,0.657955,0.297427,0.239594,0.342868,502.000000,36.000000,29.000000,0.000000,0.000000,0.000000,0.000000,0.000000,0.669211,0.657955,0.297427,0.239594,0.342868,502.000000,36.000000,29.000000,0.000000,0.000000,0.000000,0.000000,0.000000;
#CREDIT:;
#NOTES:
00000000
00000000
00000000
00000000
,
00000000
00000000
00000000
00000000
,
00000000
00000000
00000000
00100000
,
10010000
00000000
00010000
00000000
10000000
01000000
00000000
01000000
00010000
00000000
01000000
00000000
10000000
00000000
00000000
00000000
,
00010000
00000000
10000000
01000000
00000000
10000000
00000000
00100000
00010000
00000000
00001000
00000000
00010000
00000000
00000000
00000000
,
00001000
00000000
00010000
00001000
00000000
00000100
00000000
00000001
00001000
00000000
00000100
00000000
00000010
00000000
00000000
00000000
,
00000100
00000000
00000010
00000001
00000000
00001000
00000000
00000010
00000100
00000000
00000010
00000000
00000110
00000000
00000000
00000000
,
00001001
00000000
00001000
00000000
00000001
00000010
00000000
00000010
00001000
00000000
00000010
00000000
00000001
00000000
00000000
00000000
,
00001000
00000000
00000001
00000010
00000000
00000001
00000000
00000100
00001000
00000000
00010000
00000000
00001000
00000000
00000000
00000000
,
00010000
00000000
00001000
00010000
00000000
00100000
00000000
10000000
00010000
00000000
00100000
00000000
01000000
00000000
00000000
00000000
,
00100000
00000000
01000000
10000000
00000000
00010000
00000000
01000000
00100000
00000000
00000000
00000000
01100000
00000000
00000000
00000000
,
10000000
01000000
00010000
00002000
00000000
00003100
00000001
00000000
,
00000010
00000200
00000000
00001000
00000000
00001300
00000100
00001000
,
00000010
00000100
00001000
00010000
01000000
00010000
00001000
01000000
,
00100000
10000000
00000000
01000000
00000000
00010000
00000000
00001000
,
00000100
00000000
00000001
00000000
00001000
00000000
00000000
00000001
00000010
00000000
00001000
00000000
00000010
00000000
00000100
00000000
,
00010000
00001000
00000100
00001000
00010000
00100000
01000000
00010000
,
10000000
00000000
01000000
00010000
01000000
10000000
00010000
01000000
,
00200000
00000000
00310000
00001000
00000100
00000001
00000000
00001000
,
00000001
00000000
00000010
00000000
00000100
00000000
00000010
00000002
00000000
00000000
00000103
00000000
00001000
00000000
00010000
00000000
,
01000000
00000000
00010000
00000000
00001000
00000000
00010000
02000000
00000000
00000000
13000000
00000000
00100000
00000000
00100000
00000000
,
10000000
00000000
01000000
00000000
00010000
00000000
01000000
20000000
00000000
00000000
30100000
00000000
10000000
00000000
01000000
00000000
,
00010000
00000000
00001000
00000000
00000100
00000000
00001000
00020000
00000000
00000000
00030100
00000000
00000010
00000000
00000010
00000000
,
00000001
00000000
00000100
00000000
00001000
00000000
00000100
00000002
00000000
00000000
00000013
00000000
00000100
00000000
00010000
00000000
,
01000000
00000000
10000000
00000000
00100000
00000000
10000000
02000000
00000000
00000000
13000000
00000000
00100000
01000000
00100000
01000000
,
00010000
10000000
00000000
00010000
01000000
00000000
00001000
00010000
00000000
00000100
00001000
00000000
00000001
00000100
00000000
00000001
,
00001000
00000100
00000000
00010000
00001000
00000000
00100000
00010000
00000000
10000000
00100000
00000000
01000000
00010000
10000000
01000000
,
00100000
00010000
00100000
10000000
00100000
00001000
00100000
00001000
,
00000100
00000000
00000001
00000000
00000100
00000000
00000001
00000000
00000010
00000000
00000000
00000000
00001001
00000000
00000001
00001000
,
00000010
00000100
00000000
00000001
00000010
00000000
00000100
00010000
,
01000000
00000000
10000000
00000000
01000000
00000000
10000000
00000000
00100000
00000000
00000000
00000000
10010000
00000000
00010000
10000000
,
01000000
00010000
01000000
10000000
00100000
01000000
00100000
01000000
,
00001000
00010000
00001000
00010000
00000100
00000000
00000110
00000000
,
00000001
00000100
00000010
00010000
01000000
00010000
00001000
01000000
,
00100000
00010000
10000000
01000000
00010000
00100000
01000000
00100000
,
10010000
00010000
10000000
01000000
00010000
01000000
00100000
00001000
,
00010000
00001000
00000100
00001000
00011000
00000100
00001100
00000000
,
00001002
00000000
00000103
00001000
00010000
01000000
10000000
00100000
,
00010000
00001000
00000100
00001000
00011000
01000000
01010000
00000000
,
20010000
00000000
31000000
00100000
00001000
00000100
00001000
00010000
,
00000100
00000010
00000001
00000100
00000110
00000001
00001001
00000000
,
00000012
00000000
00000103
00001000
00010000
01000000
10000000
00000000
,
00200000
00000000
01000000
00000000
00320000
00001000
00031000
00000100
,
00001001
00001000
00000001
00000010
00001000
00000010
00000100
00010000
,
00001000
00010000
00100000
00010000
00011000
00100000
00110000
00000000
,
20010000
00000000
30100000
00010000
00001000
00000010
00000001
00000100
,
00001000
00000000
00010000
00000000
00100000
00000000
00010000
00000000
00011000
00000000
00000000
00001000
00000010
00000000
00000000
00000000
,
00001002
00000000
00000013
00000100
00010000
00100000
00010000
00001000
,
00100000
01000000
10000000
00100000
01100000
10000000
10010000
00000000
,
21000000
00000000
30100000
00010000
00001000
00000010
00000001
00000000
,
00000200
00000000
00000010
00000000
00002300
00010000
00013000
00000100
,
00001001
00000000
00001000
00000000
00000001
00000010
00000000
00000010
00001000
00000000
00000010
00000000
00000001
00000000
00000000
00000000
,
00001000
00000000
00000001
00000010
00000000
00000001
00000000
00000100
00001000
00000000
00010000
00000000
00101000
00000000
00000000
00000000
,
00011000
00000000
00001000
00000000
00010000
00100000
00000000
00100000
10000000
00000000
00010000
00000000
00100000
00000000
00000000
00000000
,
01000000
00000000
00100000
01000000
00000000
10000000
00000000
00010000
01000000
00000000
00100000
00000000
01100000
00000000
00000000
00000000
,
10010000
00000000
00010000
00000000
10000000
01000000
00000000
01000000
00010000
00000000
01000000
00000000
10000000
00000000
00000000
00000000
,
00010000
00000000
10000000
01000000
00000000
10000000
00000000
00100000
00010000
00000000
00001000
00000000
00010100
00000000
00000000
00000000
,
00011000
00000000
00001000
00000100
00000001
00000000
00000011
00000000
,
00000010
00000100
00010000
00000000
00011000
00001000
00010000
00000000
,
00001000
00000000
00010000
00000000
01000000
00000000
10000000
00100000
01000000
00000000
00100000
00000000
10000000
00000000
01000000
00100000
,
00010000
00100000
00000000
00100000
00001000
00000000
00020000
00000000
00000000
00000000
00000100
00000000
00030100
00000000
00000000
00000000
,
00000110
00000000
00000000
00000000
00000001
00000000
00000100
00000010
00000100
00000000
00001000
00000000
00000100
00000000
00000010
00001000
,
00000100
00010000
00000000
00010000
00001000
00000000
02000000
00000000
00000000
03000000
00100000
10000000
00100000
10000000
00000000
00100000
,
10000000
00000000
00010000
00000000
10000000
01000000
10000000
01000000
00010000
00000000
00001000
00000000
00000100
00000010
00000100
00000010
,
00001000
00000001
00000000
00000010
00000100
00000000
00010000
00001000
00010000
00000000
00010000
00000000
02000000
00000000
00000000
00000000
,
03000000
10000000
00020000
00000000
01030000
00100000
00000000
10000000
,
01000000
00000000
00010000
00000000
00001000
00000000
00000200
00000000
00000000
00000000
00000301
00000010
00000001
00000010
00000100
00010000
,
00002000
00000000
00000100
00000000
00020000
00000000
00003000
02000000
,
03000000
00000000
01000000
00000000
00000000
00000000
20000000
00000000
30000000
00000000
10030000
00000000
00000000
00000000
00010000
00001000
,
00000200
00000300
00000000
00000000
;
