#VERSION:0.83;
#TITLE:Joyride;
#SUBTITLE:;
#ARTIST:Chuck E. Meyers;
#TITLETRANSLIT:;
#SUBTITLETRANSLIT:;
#ARTISTTRANSLIT:;
#GENRE:VIDEO GAME SOUNDTRACK;
#ORIGIN:;
#CREDIT:;
#BANNER:[ZIv Academy II] - Joyride.png;
#BACKGROUND:[ZIv Academy II] - Joyride-bg.png;
#PREVIEWVID:;
#JACKET:[ZIv Academy II] - Joyride-jacket.png;
#CDIMAGE:;
#DISCIMAGE:;
#LYRICSPATH:;
#CDTITLE:cdtitle.png;
#MUSIC:[ZIv Academy II] - Joyride.ogg;
#OFFSET:-0.045000;
#SAMPLESTART:6.883000;
#SAMPLELENGTH:13.722000;
#SELECTABLE:YES;
#BPMS:0.000=174.900;
#STOPS:;
#DELAYS:;
#WARPS:;
#TIMESIGNATURES:0.000=4=4;
#TICKCOUNTS:0.000=4;
#COMBOS:0.000=1;
#SPEEDS:0.000=1.000=0.000=0;
#SCROLLS:0.000=1.000;
#FAKES:;
#LABELS:0.000=Song Start;
#BGCHANGES:;
#KEYSOUNDS:;
#ATTACKS:
;

//---------------dance-single - DDRDAIKENKAI----------------
#NOTEDATA:;
#CHARTNAME:C 9 X 12;
#STEPSTYPE:dance-single;
#DESCRIPTION:DDRDAIKENKAI;
#CHARTSTYLE:;
#DIFFICULTY:Hard;
#METER:9;
#RADARVALUES:0.583805,0.650585,0.385532,0.331557,0.003855,530.000000,480.000000,50.000000,43.000000,0.000000,0.000000,0.000000,0.000000,0.000000,0.583805,0.650585,0.385532,0.331557,0.003855,530.000000,480.000000,50.000000,43.000000,0.000000,0.000000,0.000000,0.000000,0.000000;
#CREDIT:DDRDAIKENKAI;
#NOTES:
0000
0000
0000
0000
,
0000
0000
0000
0000
,
0000
0000
0000
0000
,
0000
0000
0000
0000
,
0000
0000
0000
0000
,
1001
0000
0001
0010
0001
0200
0010
0000
,
1000
0000
0001
0301
0000
0000
0101
0000
,
1000
0000
0010
0100
0001
0020
0100
0000
,
1000
0000
0100
0130
0000
0000
0010
0001
,
0102
0000
0103
0001
1000
0200
0010
0000
,
1000
0000
0010
0310
0000
0000
0110
0000
,
0200
0000
1300
0001
0100
0010
1000
0000
,
0200
0000
0010
0320
0000
0000
0031
0000
,
1100
0000
0200
0000
,
0020
0000
0000
0000
0000
0000
0000
0000
0000
0000
0000
0000
0330
0000
0001
1000
,
0001
0000
1000
0001
0100
0010
0100
0001
,
1000
0000
0010
0101
0000
0000
0001
0000
,
0100
0000
0001
0010
0100
1000
0100
0010
,
0001
0000
1000
1000
0000
0000
0110
0000
,
1000
0000
0001
0010
0001
1000
0010
1000
,
0001
0000
0100
0011
0000
0000
0010
0000
,
0100
0000
1000
0010
1000
0100
0010
0001
,
1000
0000
0100
1100
0000
0000
1000
0001
,
0201
0000
0301
0100
0010
1000
0000
1000
,
0010
0000
0010
0100
0000
0100
0001
0000
,
0010
0000
0100
1000
0100
0010
0000
0010
,
0001
0000
0001
1000
0000
1000
0010
0000
,
0002
0000
0023
0000
1030
0100
0010
0000
,
2000
0000
3020
0000
0031
0100
0010
0000
,
0100
0000
0001
0010
0100
1000
0000
0100
,
1000
0000
1000
0010
0000
0000
0010
1000
,
2001
0000
3001
1000
0100
1000
0000
1000
,
0010
0000
0010
0100
0000
0100
0010
0000
,
1000
0000
1000
0010
0100
0000
0100
0001
,
0020
0100
0100
0000
0031
0000
0011
0000
,
1000
0000
1000
0001
0100
0000
0100
0010
,
2000
0100
0100
0000
3001
0000
1001
0000
,
1000
0000
0001
0100
1000
0000
1000
0100
,
0001
0000
0001
0010
0100
0000
1000
0001
,
2001
0000
3001
0100
0010
0000
1000
0010
,
0100
0000
0010
1000
0001
0000
0010
0100
,
1000
0000
1000
0010
0100
0000
0100
0001
,
2000
0100
0100
0000
3010
0000
1010
0000
,
1000
0000
1000
0001
0100
0000
0010
0000
,
1000
0100
1000
0100
1000
0100
0010
0100
,
1000
0100
0010
0001
0010
0100
0010
0001
,
0100
1000
0100
0001
0010
1000
0010
0001
,
0012
0000
0013
0000
0100
0010
0000
0100
,
0000
1000
0000
0010
0000
0001
0011
0000
,
1010
0000
1000
0000
0100
1000
0001
0101
,
0000
0001
1000
1100
0000
1000
0100
1000
,
2010
0000
3010
0000
0100
0010
0000
0100
,
0000
0001
0000
1000
0000
0100
0100
0001
,
0200
0000
0010
0000
1000
1300
0000
0002
,
0000
1000
0000
0010
0000
0013
0100
1000
,
2010
0000
0000
0000
,
0200
0000
0000
3300
,
0012
0000
1003
1000
0001
1000
0100
0010
,
0001
0000
1000
1000
0001
0010
0100
1000
,
0001
0000
1000
0001
0011
0000
0001
1000
,
0020
0000
1030
0100
0000
1000
0001
1000
,
0002
0000
0013
0001
0010
0100
1000
0001
,
0200
0000
0010
0310
0000
0000
0110
0000
,
0200
0000
0301
1000
0010
0001
0010
1000
,
0002
0000
1000
1003
0000
0000
0001
0100
,
1002
0000
0013
0001
0100
1000
0100
0001
,
0020
0000
0100
0130
0000
0000
2100
0000
,
3002
0000
0103
0010
0001
0010
1000
0100
,
0010
0000
1001
1001
0000
0000
1001
0000
,
2010
0000
3100
0010
0100
1000
0100
0010
,
0001
0000
1000
0101
0000
0000
1000
0000
,
0002
0000
0013
0100
0010
0001
0010
0100
,
1000
0000
0010
0010
0000
0000
1100
0000
,
1000
0000
0001
0100
0010
0001
0010
1000
,
0100
0000
1000
0110
0000
0000
0001
0000
,
1000
0000
0001
0010
0001
1000
0010
1000
,
0100
0000
0100
1100
0000
0000
1000
0010
,
1010
0000
0000
0011
0000
0000
0100
0000
,
0001
0010
0100
1000
0000
0100
1000
0001
,
0011
0000
0001
0010
0000
1000
0010
0000
,
0001
1000
0100
2000
0000
0001
3001
0010
,
0011
0000
0000
1100
0000
1000
0001
1001
,
0000
0001
0100
0110
0000
0100
0010
1000
,
2010
0000
0001
3001
0000
0000
0011
0000
,
0001
0100
0001
0100
0020
0000
1000
0000
,
2030
0000
0001
3001
0000
0000
0010
0000
,
0011
0001
0010
0100
0000
0100
1000
0010
,
1010
0000
0010
0100
0000
0100
0001
0000
,
0100
0001
1000
0001
1000
0100
0010
0001
,
1001
0000
0000
1010
0000
0000
0100
0000
,
1001
0001
0010
1000
0000
1000
0100
0001
,
0000
1000
0010
0001
0000
0001
0100
1000
,
0000
0001
0010
1000
0000
1000
0010
0001
,
2200
0000
0000
3300
;

//---------------dance-single - DDRDAIKENKAI----------------
#NOTEDATA:;
#CHARTNAME:C 2 X 3;
#STEPSTYPE:dance-single;
#DESCRIPTION:DDRDAIKENKAI;
#CHARTSTYLE:;
#DIFFICULTY:Beginner;
#METER:2;
#RADARVALUES:0.188360,0.322690,0.146502,0.200477,0.000000,171.000000,152.000000,19.000000,26.000000,0.000000,0.000000,0.000000,0.000000,0.000000,0.188360,0.322690,0.146502,0.200477,0.000000,171.000000,152.000000,19.000000,26.000000,0.000000,0.000000,0.000000,0.000000,0.000000;
#CREDIT:DDRDAIKENKAI;
#NOTES:
0000
0000
0000
0000
,
0000
0000
0000
0000
,
0000
0000
0000
0000
,
0000
0000
0000
0000
,
0000
0000
0000
0000
,
1000
1000
0000
1000
,
0000
0001
0000
0001
,
0000
0100
0000
0100
,
0000
0010
0000
0010
,
0000
0010
0000
1000
,
0000
0010
0000
1000
,
0000
0001
0000
0100
,
0100
0000
0001
0000
,
1001
0000
0200
0000
,
0000
0000
0300
0000
,
1000
1000
1000
0000
,
0002
0000
0000
0003
0000
0000
0000
0000
,
0100
0100
0100
0000
,
0020
0000
0000
0030
0000
0000
0100
0000
,
0100
0100
0100
0000
,
0002
0000
0000
0003
0000
0000
0000
0000
,
1000
1000
1000
0000
,
0220
0000
0000
0330
0000
0000
0000
0000
,
1001
0000
1000
0000
,
0001
0000
1000
0000
,
0010
0000
0100
0000
,
0001
0000
1000
0000
,
0010
0010
0010
0000
,
1000
1000
1000
0000
,
0100
0100
0100
0000
,
1000
0000
1000
0000
,
0001
0001
0001
0000
,
0100
0000
0100
0000
,
0010
0000
0010
0000
,
2000
0000
0000
3000
,
0001
0000
0001
0000
,
0200
0000
0000
0300
,
0010
0000
0100
0100
,
0100
0000
0000
0000
,
0010
0000
1000
0000
,
0001
0000
0000
0000
,
0100
0000
0001
0001
,
0002
0000
0000
0003
,
0010
0000
0001
0000
,
0220
0000
0000
0000
,
0000
0000
0000
0000
,
0000
0000
0000
0000
,
0330
0000
0000
0000
,
0000
0000
0000
0001
,
0001
0000
0000
0000
,
0000
0000
0000
1000
,
2000
0000
0000
0000
,
3000
0000
0000
0001
,
0002
0000
0000
0000
,
0003
0000
0000
1001
,
2002
0000
0000
0000
,
3003
0000
0000
0000
,
1001
0000
0000
0000
,
0100
0000
0100
0000
,
0100
0100
0100
0000
,
0010
0010
0010
0010
,
0010
0010
0000
1000
,
0000
0001
0000
1000
,
0000
0100
0000
1000
,
0000
0001
0000
0100
,
0000
0010
0000
0100
,
0000
0001
0000
1000
,
0000
0001
0000
1000
,
0000
0001
0000
1001
,
2002
0000
3003
0000
,
0200
0000
0000
0300
0000
0000
0000
0000
,
1000
1000
1000
0000
,
0200
0000
0000
0300
0000
0000
0010
0000
,
0010
0010
0010
0000
,
0002
0000
0000
0003
0000
0000
0000
0000
,
0100
0100
0100
0000
,
0002
0000
0000
0003
0000
0000
0000
0000
,
2002
0000
0000
0000
,
3003
0000
0000
0000
,
1001
0000
0000
0000
,
0000
0000
0000
0000
,
0220
0000
0000
0330
0000
0000
0000
0000
,
0000
0000
0000
0000
,
1001
0000
0000
0000
,
0100
0000
0010
0000
,
0002
0000
0003
0000
,
0100
0100
0000
0100
,
0100
0000
0000
0100
,
0000
0100
0000
0110
,
0110
0000
0000
0000
,
0000
1000
0000
0001
,
0000
1001
0000
1000
,
0000
1001
0000
0110
,
0110
0000
0000
0000
;

//---------------dance-single - DDRDAIKENKAI----------------
#NOTEDATA:;
#CHARTNAME:C 4 X 6;
#STEPSTYPE:dance-single;
#DESCRIPTION:DDRDAIKENKAI;
#CHARTSTYLE:;
#DIFFICULTY:Easy;
#METER:4;
#RADARVALUES:0.293004,0.358545,0.200477,0.200477,0.000000,266.000000,240.000000,26.000000,26.000000,0.000000,0.000000,0.000000,0.000000,0.000000,0.293004,0.358545,0.200477,0.200477,0.000000,266.000000,240.000000,26.000000,26.000000,0.000000,0.000000,0.000000,0.000000,0.000000;
#CREDIT:DDRDAIKENKAI;
#NOTES:
0000
0000
0000
0000
,
0000
0000
0000
0000
,
0000
0000
0000
0000
,
0000
0000
0000
0000
,
0000
0000
0000
0000
,
1001
1000
1000
0000
,
0001
0000
0000
0001
0000
0000
0100
0000
,
0010
0010
0010
0000
,
0100
0000
0000
0100
0000
0000
0001
0000
,
1000
0100
1000
0000
,
0001
0000
0000
0001
0000
0000
0010
0000
,
0100
0010
0100
0000
,
0010
0000
0000
0001
0000
0000
0000
0000
,
1001
0000
0200
0000
,
0020
0000
0000
0330
,
0100
0001
1000
0100
,
0010
0000
0000
0110
0000
0000
0000
0000
,
0100
1000
0001
0100
,
0010
0000
0000
0010
0000
0000
0110
0000
,
0100
0001
1000
0100
,
1000
0000
0000
1001
0000
0000
0000
0000
,
1000
0010
1000
0001
,
0100
0000
0000
0001
0000
0000
0001
0000
,
1001
0001
1000
0000
,
0100
0000
0000
0100
0000
0000
0100
0000
,
0010
0001
0010
0000
,
0001
0000
0000
0001
0000
0000
0001
0000
,
1000
0010
2000
3000
,
0001
0100
0002
0003
,
1000
0100
0010
0001
,
1000
0000
0000
1000
0000
0000
1000
0000
,
0001
0010
0100
1000
,
0001
0000
0000
0001
0000
0000
0001
0000
,
0200
0000
0320
0000
,
0230
0000
0000
0301
,
2000
0000
3200
0000
,
2300
0000
0000
3010
,
0100
0100
0001
1000
,
0001
0001
1000
0100
,
2000
0000
3020
0000
,
0230
0000
0000
0000
,
0301
0010
0001
0001
,
2000
0000
0000
3010
,
0020
0000
2030
0000
,
0002
0000
0000
0000
,
0000
0000
0000
0000
,
0000
0000
0000
0000
,
3003
0000
1000
0000
0100
0000
0000
0010
,
0000
0001
0000
0010
0000
0000
0100
0000
,
0100
0000
1000
0000
0010
0000
0000
0100
,
0000
0010
0000
1000
0000
0000
0001
0000
,
0001
0000
0010
0000
0100
0000
0000
1000
,
0000
0001
0000
1000
0000
0000
0001
0000
,
0100
0000
0010
0000
0100
0000
0000
0010
,
0000
1000
0000
0010
0000
0000
1000
0000
,
0002
0000
0000
0000
,
0200
0000
0000
0303
,
0001
0000
0000
0010
0000
0000
0100
0000
,
1000
0000
0000
0010
0000
0000
0100
0000
,
0001
0000
0000
1000
0000
0000
0100
0000
,
0010
0000
0000
0001
0000
0000
1000
0000
,
1001
0001
1000
0000
,
0100
0000
0000
0100
0000
0000
0100
0000
,
1000
0010
1000
0000
,
0001
0000
0000
0001
0000
0000
0100
0000
,
0010
1000
0001
0000
,
0010
0000
0000
0010
0000
0000
0010
0000
,
0100
1000
0100
1000
,
0002
0000
0000
1000
0000
0000
1003
0000
,
0001
0100
0010
1000
,
0001
0000
0000
1001
0000
0000
0000
0000
,
1000
0010
0100
0001
,
1000
0000
0000
1000
0000
0000
1001
0000
,
0001
0010
0100
1000
,
0001
0000
0000
1001
0000
0000
0000
0000
,
1000
0100
0010
0001
,
1000
0000
0000
1001
0000
0000
1000
0000
,
1001
0000
0000
1001
0000
0000
0000
0000
,
0100
0000
0000
0100
0000
0000
0010
0000
,
0110
0000
0000
0110
0000
0000
0110
0000
,
0000
0000
0000
2000
0000
0000
0000
0000
,
3001
0000
0000
0001
0000
0000
0000
0000
,
1000
0000
0000
0001
0000
0000
1000
0000
,
1001
0000
0000
1001
0000
0000
1001
0000
,
0000
0000
0200
0000
,
0320
0000
0000
0000
,
0031
1000
0100
1000
,
0200
0000
0000
2300
0000
0000
0002
0000
,
0000
0000
3003
0000
,
1000
0000
0000
0001
0000
0000
0000
0000
,
1000
1001
0000
0110
,
0000
1001
0000
0110
,
0000
1001
0000
0110
,
1001
0000
0000
0000
;

//---------------dance-single - C 9 X 13----------------
#NOTEDATA:;
#CHARTNAME:C 9 X 13;
#STEPSTYPE:dance-single;
#DESCRIPTION:C 9 X 13;
#CHARTSTYLE:;
#DIFFICULTY:Challenge;
#METER:9;
#RADARVALUES:0.571689,0.724800,0.208187,0.624561,0.080962,519.000000,492.000000,27.000000,81.000000,61.000000,0.000000,4.000000,0.000000,0.000000,0.571689,0.724800,0.208187,0.624561,0.080962,519.000000,492.000000,27.000000,81.000000,61.000000,0.000000,4.000000,0.000000,0.000000;
#CREDIT:Gameoson;
#NOTES:
// measure 0
0000
0000
0000
0000
,  // measure 1
0000
0000
0000
0000
,  // measure 2
0000
0000
0000
0000
,  // measure 3
0000
0000
0000
0000
,  // measure 4
0000
0000
0000
0000
,  // measure 5
1001
0000
0001
0100
0010
2000
0000
3001
,  // measure 6
0100
0000
0100
1000
0000
1000
0100
0000
,  // measure 7
0001
0000
1000
0100
0010
0002
0000
1003
,  // measure 8
0100
0000
0100
0001
0000
0001
0100
0000
,  // measure 9
1000
0000
0010
1000
0001
0200
0000
1300
,  // measure 10
0100
0000
0100
0001
0000
0001
0010
0000
,  // measure 11
0100
0000
0010
0001
1000
0200
0000
0310
,  // measure 12
0002
0000
0100
0203
0000
0000
0310
1000
,  // measure 13
2002
0000
0000
0000
3MM3
M00M
0000
0000
,  // measure 14
4000
0004
0000
0000
0000
0000
0000
0000
0000
0000
0000
0000
3003
0000
0000
0000
,  // measure 15
2000
0000
3010
0100
0001
0020
0000
1030
,  // measure 16
0010
0000
0010
MM12
00M0
1000
1003
0000
,  // measure 17
0001
0000
0010
0100
1000
0020
0000
0031
,  // measure 18
0010
0000
0010
1000
0000
1000
2MM1
000M
,  // measure 19
3010
0000
0100
0001
0010
0200
0000
0301
,  // measure 20
0100
0000
0100
21MM
0M00
0001
3001
0000
,  // measure 21
0100
0000
0010
1000
0100
0002
0000
0103
,  // measure 22
0020
0000
0031
0100
0000
0100
0001
1000
,  // measure 23
0001
0000
1000
0010
0100
2000
0000
3100
,  // measure 24
0010
0000
0010
1000
0000
1000
0001
0000
,  // measure 25
1000
0000
0001
0010
0100
0002
0000
0103
,  // measure 26
0010
0000
0010
0001
0000
0001
1000
0000
,  // measure 27
0001
0000
0010
0000
1000
0010
0100
0010
,  // measure 28
0001
0000
0100
0000
1000
0100
0010
0100
,  // measure 29
0001
0000
1000
0010
0100
2000
0000
3100
,  // measure 30
0001
0000
0001
0010
0000
0010
0100
0000
,  // measure 31
1000
0000
0001
0010
0100
0002
0000
0103
,  // measure 32
1000
0000
1000
0010
0000
0010
0100
0000
,  // measure 33
0002
0010
2003
0010
,  // measure 34
3001
0100
0010
1000
0100
0000
1001
MMMM
,  // measure 35
2000
0100
3002
0100
,  // measure 36
1003
0100
0010
0001
0100
0000
1001
MMMM
,  // measure 37
2000
0000
3001
1000
0200
0000
0302
0000
,  // measure 38
0103
2000
0001
3001
0100
0000
0010
1000
,  // measure 39
0200
0000
0310
0001
0200
0000
0301
0100
,  // measure 40
2000
0000
3100
0010
1000
0000
0100
0010
,  // measure 41
0002
0000
1003
0001
0200
0000
2300
0000
,  // measure 42
3100
0002
1000
1003
0100
0000
0110
MMMM
,  // measure 43
2001
0000
3001
0100
2000
0000
3100
0001
,  // measure 44
1000
0100
1000
0100
0001
0100
0001
0100
,  // measure 45
1000
0010
1000
0010
0001
0010
0001
0010
,  // measure 46
1000
0100
0001
0100
1000
0010
0100
0001
,  // measure 47
1001
0000
0001
0000
0010
0100
0000
1000
,  // measure 48
0000
0100
0000
0010
0000
0001
0100
0000
,  // measure 49
0010
0000
1000
0000
0010
0100
0100
0001
,  // measure 50
0000
1000
0000
0001
0000
0010
0100
0100
,  // measure 51
1000
0000
0001
0000
0100
0010
0000
1000
,  // measure 52
0100
0000
0000
0010
0000
0000
0000
0000
0000
0001
0000
0000
0000
0000
0000
0001
0000
0000
1000
0000
0001
0000
1000
0000
,  // measure 53
0010
0000
0210
0000
0010
0010
0000
1000
,  // measure 54
0000
0010
0000
0301
0000
0001
0100
0010
,  // measure 55
2020
0000
0000
3030
,  // measure 56
0000
0000
0004
4000
0000
0000
0000
0000
0000
0000
0000
0000
3003
0000
0000
0000
,  // measure 57
0012
0000
1000
2003
0000
0001
3002
0000
,  // measure 58
0203
0000
0320
0230
0000
1000
1000
0000
,  // measure 59
1300
0000
0000
0000
0000
0000
0200
0000
0000
0002
0300
0000
0000
0000
0000
0023
0000
0000
0230
0000
0000
0000
0000
0000
,  // measure 60
2300
0000
0000
0000
0001
0000
3001
0000
0000
0000
1000
0001
1000
0001
1000
0001
,  // measure 61
1000
0000
0001
0010
0100
2000
0000
3001
,  // measure 62
0010
0000
0010
1000
0000
1000
0100
0000
,  // measure 63
0001
0000
1000
0100
0010
0002
0000
1003
,  // measure 64
0100
0000
0100
0001
0000
0001
0010
0000
,  // measure 65
1000
0000
0001
0100
0010
2000
0000
3100
,  // measure 66
0001
0000
0001
0010
0000
0010
1000
0000
,  // measure 67
0001
0000
1000
0010
0100
0002
0000
1003
,  // measure 68
0100
0000
0000
0000
1001
0000
1001
0000
0000
MMMM
0000
0000
1001
0000
0000
0000
,  // measure 69
0001
0000
0010
0001
0100
2000
0000
3001
,  // measure 70
0010
0000
0010
2M1M
0MM0
0001
3001
0000
,  // measure 71
1000
0000
0010
1000
0100
0002
0000
1003
,  // measure 72
0010
0000
0010
0001
0000
0001
1MM2
M0M0
,  // measure 73
0103
0000
1000
0100
0001
0020
0000
1030
,  // measure 74
0010
0000
0010
MM12
0MM0
1000
1003
0000
,  // measure 75
0001
0000
0010
0001
0100
2000
0000
3100
,  // measure 76
0001
0000
0001
0010
0000
0001
0010
0100
,  // measure 77
1000
0001
1000
0001
1000
0001
0100
0010
0100
0010
0100
0010
,  // measure 78
1000
0001
0100
1000
0000
1000
0100
0001
,  // measure 79
0002
0000
1000
1000
0000
1000
1003
0000
,  // measure 80
1000
0000
0001
0010
0001
0000
2000
0000
0010
0000
3010
0000
0100
0000
0001
0000
,  // measure 81
1001
0000
1000
2001
0000
0000
0001
3001
,  // measure 82
0000
1000
0100
0001
0000
0001
0100
1000
,  // measure 83
2000
0000
0001
0001
0000
0001
3001
0000
,  // measure 84
1000
0010
1000
0010
1000
0000
0000
0000
MM22
0000
0000
0000
0033
0000
0000
0000
,  // measure 85
21MM
0000
0001
0001
0000
0000
3001
0000
,  // measure 86
1002
0000
1000
1000
0000
0000
1003
0000
,  // measure 87
2M10
0000
3001
02M1
0000
0300
M21M
0000
,  // measure 88
0301
0000
0010
0000
0100
0000
0010
0000
0002
0000
0000
0000
1003
0001
1000
0001
,  // measure 89
1000
0000
1000
0100
0000
0010
0001
1000
,  // measure 90
0001
0100
0001
MM20
0030
0001
0010
2M0M
,  // measure 91
3000
0010
1000
02MM
0300
1000
0100
M0M2
,  // measure 92
0003
0100
0001
MM20
0030
0001
0010
1000
,  // measure 93
02MM
0000
0000
0000
,  // measure 94
0300
0000
0000
0000
;

//---------------dance-single - C 5 X 7----------------
#NOTEDATA:;
#CHARTNAME:C 5 X 7;
#STEPSTYPE:dance-single;
#DESCRIPTION:C 5 X 7;
#CHARTSTYLE:;
#DIFFICULTY:Medium;
#METER:5;
#RADARVALUES:0.364603,0.398640,0.215898,0.632272,0.000000,331.000000,303.000000,28.000000,82.000000,0.000000,0.000000,2.000000,0.000000,0.000000,0.364603,0.398640,0.215898,0.632272,0.000000,331.000000,303.000000,28.000000,82.000000,0.000000,0.000000,2.000000,0.000000,0.000000;
#CREDIT:Gameoson;
#NOTES:
0000
0000
0000
0000
,
0000
0000
0000
0000
,
0000
0000
0000
0000
,
0000
0000
0000
0000
,
0000
0000
0000
0000
,
1002
0000
0000
1003
0100
0020
0000
0000
,
0031
0000
0000
1000
0000
0000
0001
0000
,
2000
0000
0000
3010
0100
0002
0000
0000
,
1003
0000
0000
0001
0000
0000
1000
0000
,
0200
0000
0000
0310
0100
2000
0000
0000
,
3001
0000
0000
1000
0000
0000
0001
0000
,
0200
0000
0000
0310
0100
0002
0000
0000
,
2003
0000
0000
3200
0000
0000
0310
0000
,
0022
0000
0033
0000
,
0001
0100
0010
1000
,
0001
0000
0010
0000
0100
2000
0000
0000
,
3010
0000
0000
0201
0000
0000
0310
0000
,
2000
0000
0000
3100
0010
0002
0000
0000
,
0103
0000
0000
0010
0000
0000
2010
0000
,
3002
0000
0000
0103
0010
2000
0000
0000
,
3100
0000
0000
0021
0000
0000
0130
0000
,
2000
0000
0000
3010
0100
0002
0000
0000
,
1003
0000
0000
0100
0000
0000
0100
0000
,
1000
0000
1000
0000
0010
0200
0000
0000
,
0301
0000
0000
1000
0000
0000
1000
0000
,
0001
0000
0001
0000
0010
0200
0000
0000
,
1300
0000
0000
0001
0000
0000
0001
0000
,
1000
0010
0100
0100
,
0001
0010
0100
0100
,
1000
0000
0001
0000
0100
0020
0000
0000
,
1030
0000
0000
0100
0000
0000
1000
0000
,
0001
0000
1000
0000
0010
0200
0000
0000
,
0301
0000
0000
0010
0000
0000
0001
0000
,
2000
0000
3002
0000
,
0013
0002
0000
0000
1003
0000
1001
0000
,
0002
0000
1003
1000
,
0010
2000
0000
0000
3001
0000
1001
0000
,
2000
0000
3100
0001
,
0100
2000
0000
0000
3010
0000
1000
0000
,
0002
0000
0023
0000
,
0230
0000
1300
1000
,
0002
0000
0103
1000
,
0100
0002
0000
0000
0013
0000
1001
0000
,
2000
0000
3020
0000
,
0130
0001
0010
0100
,
1000
0010
0100
0001
,
0010
1000
0100
0001
,
0010
0000
0100
0000
0010
0001
0000
0010
,
0000
0100
0000
0010
0000
0001
1000
0000
,
0010
0000
0100
0000
0010
1000
0000
0010
,
0000
0100
0000
0010
0000
1000
0001
0000
,
0010
0000
0100
0000
0010
0001
0000
1000
,
0000
0010
0000
0100
0000
0001
1000
0000
,
2002
0000
0000
3003
,
1000
0000
1000
0000
0001
0000
0010
0100
,
2000
0000
3000
0000
,
0000
4004
0000
0000
0000
0000
3003
0000
,
2010
0000
0000
3002
0000
0000
2003
0000
,
3200
0000
0000
0302
0000
0000
0203
0000
,
2300
0000
0000
3020
0000
0000
0230
0000
,
0301
0010
0100
1000
,
0001
0000
0100
0000
0001
0020
0000
0000
,
0130
0000
0000
1000
0000
0000
0001
0000
,
2000
0000
0000
3100
1000
0020
0000
0000
,
0130
0000
0000
0001
0000
0000
1000
0000
,
0002
0000
0000
0013
0001
0200
0000
0000
,
0310
0000
0000
1000
0000
0000
0001
0000
,
2000
0000
0000
3010
1000
0200
0000
0000
,
0310
0000
0001
1000
0000
0000
1001
0000
,
0002
0000
0000
1003
0010
0200
0000
0000
,
0301
0000
0000
2010
0000
0000
3001
0000
,
2000
0000
0000
3001
0010
0200
0000
0000
,
1300
0000
0000
0100
0000
0000
1002
0000
,
2003
0000
0000
3010
0100
0002
0000
0000
,
0013
0000
0000
2100
0000
0000
3001
0000
,
0200
0000
0000
0310
1000
0200
0000
0000
,
0310
0000
0000
0100
0000
0000
0010
0000
,
1001
0000
0000
2002
0000
0000
3003
0000
,
0000
1000
0010
1000
0000
0001
0010
0001
,
0010
0000
0000
0010
0000
0000
0010
0000
,
0001
0000
0100
0020
0000
0000
0030
0000
,
1001
0000
0000
2002
0000
0000
3003
0000
,
0000
0001
0010
0001
0000
1000
0010
1000
,
0010
0000
0000
0010
0000
0000
0010
0000
,
1000
0100
0022
0033
,
2100
0000
0000
0001
0000
0000
3001
0000
,
0102
0000
0000
1000
0000
0000
1003
0000
,
1001
0000
0000
1100
0000
0000
0012
0000
,
0000
1000
0000
0000
1003
0000
0001
0000
,
1001
0000
0000
0100
0000
0000
0100
0000
,
1001
0000
0000
1000
0000
0010
0000
0010
,
0000
0001
0000
0001
0000
0100
0000
0100
,
0000
1000
0000
1000
0000
0010
0000
2002
,
0000
0000
0000
0000
,
3003
0000
0000
0000
;
