#VERSION:0.83;
#TITLE:Journal of an Unlucky Girl;
#SUBTITLE:;
#ARTIST:maras k ft. Hatsune Miku;
#TITLETRANSLIT:;
#SUBTITLETRANSLIT:;
#ARTISTTRANSLIT:;
#GENRE:;
#ORIGIN:;
#CREDIT:;
#BANNER:Unlucky Girl.png;
#BACKGROUND:Unlucky Girl-jacket.png;
#PREVIEWVID:;
#JACKET:Unlucky Girl-jacket.png;
#CDIMAGE:;
#DISCIMAGE:;
#LYRICSPATH:;
#CDTITLE:cuzkanine.png;
#MUSIC:unlucky girl.ogg;
#OFFSET:0.000000;
#SAMPLESTART:75.101456;
#SAMPLELENGTH:19.730766;
#SELECTABLE:YES;
#DISPLAYBPM:97.500000:195.000000;
#BPMS:0.000=97.500,
24.000=195.000,
61.000=260.000,
63.000=195.000,
69.000=260.000,
71.000=195.000,
77.000=260.000,
79.000=195.000,
115.500=260.000,
117.500=195.000,
118.500=390.000,
119.500=195.000,
132.500=260.000,
134.000=195.000,
148.000=97.500,
150.000=195.000,
174.000=97.500,
177.500=48.750,
177.625=97.500,
177.875=146.250,
178.000=292.500,
178.500=195.000,
192.500=260.000,
193.500=195.000,
210.000=97.500,
211.000=65.000,
211.083=130.000,
211.250=65.000,
211.333=130.000,
211.500=97.500,
212.000=195.000,
251.000=97.500,
251.250=292.500,
252.000=195.000,
275.500=260.000,
276.500=195.000,
332.000=97.500,
334.000=195.000,
373.000=260.000,
375.000=195.000,
381.000=260.000,
383.000=195.000,
389.000=260.000,
391.000=195.000,
400.000=292.500,
400.500=146.250,
401.000=97.500;
#STOPS:61.000=0.077,
62.000=0.077,
69.000=0.077,
70.000=0.077,
77.000=0.077,
78.000=0.077,
115.500=0.077,
116.500=0.077,
118.500=0.077,
119.000=0.077,
132.500=0.058,
133.250=0.058,
192.500=0.077,
275.500=0.077,
334.000=0.154,
334.500=0.154,
335.000=0.154,
335.500=0.154,
373.000=0.077,
374.000=0.077,
381.000=0.077,
382.000=0.077,
389.000=0.077,
390.000=0.077;
#DELAYS:;
#WARPS:;
#TIMESIGNATURES:0.000=4=4;
#TICKCOUNTS:0.000=4;
#COMBOS:0.000=1;
#SPEEDS:0.000=1.000=0.000=0;
#SCROLLS:0.000=1.000;
#FAKES:;
#LABELS:0.000=Song Start;
#BGCHANGES:;
#KEYSOUNDS:;
#ATTACKS:
;

//---------------dance-single - I think there's something wrong here... D\:----------------
#NOTEDATA:;
#CHARTNAME:C 11 X 16;
#STEPSTYPE:dance-single;
#DESCRIPTION:I think there's something wrong here... D\:;
#CHARTSTYLE:Pad;
#DIFFICULTY:Hard;
#METER:11;
#RADARVALUES:0.783978,0.899793,0.513149,0.356354,0.253011,770.000000,698.000000,72.000000,50.000000,75.000000,0.000000,14.000000,0.000000,0.000000,0.783978,0.899793,0.513149,0.356354,0.253011,770.000000,698.000000,72.000000,50.000000,75.000000,0.000000,14.000000,0.000000,0.000000;
#CREDIT:CuzcoBlocko;
#DISPLAYBPM:97.500000:195.000000;
#NOTES:
// measure 0
0000
0000
0000
0000
,  // measure 1
0000
0000
0000
0000
00M0
0M0M
MMM0
MMMM
,  // measure 2
0002
1000
0000
0100
0000
1000
0000
0100
0000
1003
0010
0000
0140
0000
0000
0000
,  // measure 3
2030
0001
0000
0100
0000
0001
0000
3100
0010
0000
0001
0000
0201
0000
0010
0300
,  // measure 4
2000
0010
0000
0001
0000
0100
0000
0001
0000
3010
0100
0000
0410
0000
0000
0000
,  // measure 5
0302
0010
0000
1003
0010
0100
0001
1000
1100
0000
0110
0000
1001
0000
0101
0000
,  // measure 6
M001
0010
0100
1000
0001
1000
0100
1000
,  // measure 7
0010
1000
0001
0100
0000
1001
0000
0011
,  // measure 8
0010
0001
1000
0001
0100
0001
0010
0100
,  // measure 9
0010
0001
1000
0010
0000
0110
0000
0100
,  // measure 10
0001
0100
0010
1000
0100
0010
0001
1000
,  // measure 11
0010
0100
1000
0100
0000
0100
0001
1000
,  // measure 12
0100
0010
0100
0010
1000
0010
0100
0010
,  // measure 13
0000
0000
0001
0000
0001
0000
0000
0000
1010
0000
0000
0110
0000
0000
0101
0000
,  // measure 14
0001
0100
0010
0100
0001
0100
0010
0100
,  // measure 15
0000
0010
1M1M
0000
M11M
0000
1002
0000
,  // measure 16
0103
0000
0010
0000
1000
0000
0010
0100
0010
0000
0001
0000
0010
0000
0110
0000
,  // measure 17
0000
1000
1M1M
0000
1MM1
0000
0021
0000
,  // measure 18
0130
1000
0001
0010
0100
1000
0100
0010
,  // measure 19
0000
0001
MM11
0000
1MM1
0000
0021
0000
,  // measure 20
0130
0000
0001
0000
0100
0000
0010
0100
0010
0000
0001
0000
0001
0000
0021
0000
,  // measure 21
0000
0000
0000
0000
0100
0100
0000
0031
,  // measure 22
1000
0010
0100
0020
1000
0000
0031
0010
,  // measure 23
0100
0001
1000
0000
0100
0010
0100
1000
,  // measure 24
0001
0010
0100
0020
0001
0000
1030
0010
,  // measure 25
0100
1000
1001
0110
,  // measure 26
1001
0000
0001
0020
0100
0000
0031
2000
,  // measure 27
0001
0000
3010
0100
0001
0000
1000
0002
,  // measure 28
0100
0103
0010
0100
0001
0100
0001
1MM1
,  // measure 29
0000
MM11
0000
0001
1000
040M
000M
0310
,  // measure 30
0001
0100
0010
0200
1000
0000
0301
1000
,  // measure 31
0100
0020
0100
0000
0031
0001
0010
2000
,  // measure 32
3010
0100
0010
0001
4000
0000
3001
0001
,  // measure 33
0000
0000
1MM1
0000
0000
1M1M
0000
0000
0201
0000
0000
0000
1000
0000
0000
0000
,  // measure 34
0310
0000
0100
0002
1000
0000
0013
0100
,  // measure 35
0010
0000
0001
0020
1000
0000
0031
2000
,  // measure 36
3001
0010
0100
2000
3001
0100
0020
0001
,  // measure 37
M000
0400
0000
0000
0030
0000
0000
0000
M310
0000
1000
0010
1000
0000
0001
1000
,  // measure 38
0001
1000
0001
0000
0100
0000
0001
1000
0001
0000
1000
0000
0100
0000
0001
0000
,  // measure 39
0100
0000
1000
0000
0001
0000
0100
0000
0010
0000
0100
0010
0100
0000
0001
1000
,  // measure 40
0001
0000
1000
0000
0010
0100
0010
0100
0010
0000
0100
0000
0010
0000
0001
0000
,  // measure 41
0010
0000
1000
0000
0010
0000
0010
0000
0100
0000
0100
0000
0100
0000
0001
0100
,  // measure 42
0001
0000
1000
0100
1000
0000
0001
0000
0010
0000
0100
0000
1000
0000
0001
0000
,  // measure 43
0100
0000
0010
0000
1000
0000
0001
0000
10M2
0000
0000
0023
0100
0000
0032
0000
,  // measure 44
0000
0203
0010
0000
0010
0000
M304
0000
M000
0000
1003
0100
1000
0000
0100
0010
,  // measure 45
0100
0000
0010
0100
0010
0000
0001
0000
0010
0000
0000
0000
1000
0000
0000
0000
,  // measure 46
0100
0000
0000
0000
0001
0000
0000
0000
1000
0000
0010
1000
0010
0000
0100
0000
,  // measure 47
0001
0010
0000
0011
0000
0001
0010
0100
,  // measure 48
0110
M100
0000
2100
0000
3001
0100
0010
,  // measure 49
1000
0100
0010
0001
0100
0010
1000
0100
,  // measure 50
0010
0001
0100
0010
1000
1000
0001
0001
,  // measure 51
0010
0000
0010
0000
0100
0000
0100
0000
4000
0004
0000
0000
0000
0000
0000
0000
,  // measure 52
0000
0000
0000
0000
0000
0000
0000
0000
0000
0000
0000
0000
0000
0000
0000
0000
0000
0000
3000
0000
0000
0003
0000
0000
M100
0000
0000
0000
0000
0000
0100
0000
0000
0000
0000
0000
0004
0000
0000
0000
0003
0000
1001
0000
0000
0000
0000
0000
,  // measure 53
0M01
0100
0010
1000
0100
0001
0100
0010
,  // measure 54
0001
1000
0010
0100
1000
0100
0010
0100
,  // measure 55
0001
1000
0100
1000
0010
0001
0010
0100
,  // measure 56
0001
0000
1000
0000
0100
0000
0010
0100
0010
0000
0100
0000
1000
0000
0010
0000
,  // measure 57
0100
0000
0000
0010
1000
0000
0010
0000
1000
0000
0001
0000
0010
0000
0100
0000
,  // measure 58
1000
0000
0000
1000
0100
0000
0010
0000
0001
0000
1000
0000
0010
0000
0010
0000
,  // measure 59
0100
0001
1000
0010
0100
1000
0100
0210
,  // measure 60
0000
0310
1010
0000
1002
0000
0010
0000
,  // measure 61
1003
0000
1000
0010
0000
0010
0100
0000
0100
0001
0000
0001
,  // measure 62
1000
0000
0000
0000
0100
0000
0010
0000
0000
0000
0001
0000
0100
0000
0010
0000
4000
0000
3001
0000
0000
MMMM
0000
0000
,  // measure 63
0001
0010
0100
0010
0100
0001
0100
1000
,  // measure 64
0001
0000
0100
0000
0010
0000
0100
0010
0100
0000
0001
0000
0010
0000
1000
0000
,  // measure 65
0010
0000
0000
0100
1000
0000
0001
0000
0001
0000
1000
0000
0001
0000
0100
0000
,  // measure 66
0010
0000
0000
0001
0010
0000
0100
0000
0100
0000
0001
0000
1000
0000
1000
0000
,  // measure 67
1100
0000
0011
0001
1000
0001
1000
0020
,  // measure 68
0000
0000
1000
0000
0000
0000
0130
0000
1000
0000
0100
0010
0200
0000
00M1
0000
,  // measure 69
0000
0301
0100
0010
0100
1000
0100
0001
,  // measure 70
0000
0011
0000
1100
1000
0100
1000
0001
,  // measure 71
0010
0000
1100
1000
0100
0001
0100
0010
,  // measure 72
0100
0000
0000
0000
1100
0000
1000
0100
1000
0000
0001
0000
1001
0000
0001
0000
,  // measure 73
1000
0000
0000
0010
0100
0000
1000
0000
0100
0000
0010
0000
1000
0000
0001
0000
,  // measure 74
0010
0000
0000
0001
0010
0000
0100
0000
0010
0000
0001
0000
1000
0000
0001
0000
,  // measure 75
1000
0001
1000
1000
0001
0001
1000
1001
,  // measure 76
0000
0000
0101
0000
0000
0000
0001
0000
1000
0000
0010
0100
0010
0000
1000
0000
,  // measure 77
2001
0000
3001
0010
0001
0000
1000
0001
2000
0000
3010
0000
0100
0000
1000
0000
,  // measure 78
0002
0013
0100
0020
1030
0001
0010
0100
,  // measure 79
0002
0103
0010
0200
1300
0100
0001
2000
,  // measure 80
3010
0100
2000
3001
0100
0020
0130
1000
,  // measure 81
0100
0000
0100
0000
0010
0000
0010
0000
1000
0000
1000
0000
0001
0000
0004
4000
,  // measure 82
0000
0000
0000
0000
0000
0000
0000
0000
0000
0000
0000
0000
0000
0000
0003
3000
,  // measure 83
020M
0000
0000
0000
0320
0000
0000
0032
2M00
0003
0MM0
3000
0MMM
0000
MMMM
0000
,  // measure 84
0101
0100
0010
0100
0001
0010
0100
0001
,  // measure 85
1000
0010
0100
1000
0000
1010
0000
0110
,  // measure 86
0010
0100
1000
0100
0001
0100
1000
0001
,  // measure 87
0010
0000
1000
0000
0100
0000
0001
0000
0000
0000
0101
0000
0000
0000
0100
0010
,  // measure 88
0001
0000
0100
0000
1000
0000
0001
0000
0010
0000
1000
0010
1000
0000
0100
0000
,  // measure 89
0010
1000
0010
0001
0000
0011
0001
1000
,  // measure 90
0010
0100
1000
0100
0001
0010
0100
0110
,  // measure 91
0000
0000
0010
0000
0011
0000
0000
0000
1001
0000
0000
0110
0000
0000
1001
0000
,  // measure 92
0001
0000
0100
0000
0010
0000
0100
0000
0001
0000
0010
0001
0010
0000
0100
0000
,  // measure 93
0000
0010
MM11
0000
M1M1
0000
0210
0000
,  // measure 94
0301
0000
0010
0000
0100
0000
1000
0001
1000
0000
0010
0000
0100
0000
0110
0000
,  // measure 95
0000
0100
M1M1
0000
MM11
0000
0120
0000
,  // measure 96
0031
0000
1000
0000
0010
0000
0100
0000
1000
0000
0100
0010
0100
0000
0110
0000
,  // measure 97
0000
0100
M1M1
0000
MM11
0000
0210
0000
,  // measure 98
1300
0000
0100
0000
0001
0000
0100
0010
0100
0000
1000
0000
1000
0000
0004
4000
,  // measure 99
0000
0000
0000
0000
0000
3003
MMMM
0000
,  // measure 100
2MM2
0000
0000
0000
,  // measure 101
3003
0000
0000
0000
;

//---------------dance-single - I don't think it's for beginners... oops.----------------
#NOTEDATA:;
#CHARTNAME:C 3 X 5;
#STEPSTYPE:dance-single;
#DESCRIPTION:I don't think it's for beginners... oops.;
#CHARTSTYLE:Pad;
#DIFFICULTY:Beginner;
#METER:3;
#RADARVALUES:0.269811,0.356354,0.342100,0.000000,0.000000,265.000000,217.000000,48.000000,0.000000,0.000000,0.000000,0.000000,0.000000,0.000000,0.269811,0.356354,0.342100,0.000000,0.000000,265.000000,217.000000,48.000000,0.000000,0.000000,0.000000,0.000000,0.000000,0.000000;
#CREDIT:CuzcoBlocko;
#DISPLAYBPM:97.500000:195.000000;
#NOTES:
// measure 0
0000
0000
0000
0000
,  // measure 1
0000
0000
0000
0000
,  // measure 2
0000
0000
0000
0000
,  // measure 3
0000
0000
0000
0000
,  // measure 4
0000
1001
0000
0110
,  // measure 5
0000
1001
1001
0000
,  // measure 6
1000
1000
1000
1000
,  // measure 7
1000
0000
1000
0000
,  // measure 8
0001
0001
0001
0001
,  // measure 9
0001
0000
0001
0000
,  // measure 10
1000
0000
1000
0000
,  // measure 11
0001
0000
0001
0000
,  // measure 12
1000
0000
1000
0000
,  // measure 13
0001
0000
0001
0000
,  // measure 14
1001
0000
0110
0000
,  // measure 15
0010
0010
0010
0000
,  // measure 16
1001
0000
0110
0000
,  // measure 17
0100
0100
0100
0000
,  // measure 18
0110
0000
1001
0000
,  // measure 19
0001
0001
0001
0000
,  // measure 20
0110
0000
1001
0000
,  // measure 21
1000
1000
1000
0000
,  // measure 22
0001
0000
0000
0000
,  // measure 23
1000
0000
0000
0000
,  // measure 24
0001
0000
0000
0000
,  // measure 25
1000
0000
0000
0000
,  // measure 26
0010
0000
0000
0000
,  // measure 27
0100
0000
0100
0000
,  // measure 28
0010
0000
0000
0000
,  // measure 29
0100
0000
0100
0000
,  // measure 30
0110
0000
0010
0000
,  // measure 31
0010
0000
0010
0000
,  // measure 32
0100
0000
0100
0000
,  // measure 33
1001
0000
0000
0001
,  // measure 34
0001
0000
0001
0000
,  // measure 35
1000
0000
1000
0000
,  // measure 36
0001
0000
0001
0000
,  // measure 37
1001
0000
1000
1000
,  // measure 38
1000
0000
1000
0000
,  // measure 39
1000
0000
0001
0001
,  // measure 40
0001
0000
0001
0000
,  // measure 41
0001
0000
0010
0010
,  // measure 42
0010
0000
0010
0000
,  // measure 43
0010
0000
0110
0000
,  // measure 44
1001
0000
0000
0000
,  // measure 45
1000
1000
1000
0000
,  // measure 46
1000
0000
0001
0000
,  // measure 47
0001
0001
0001
0000
,  // measure 48
0001
0000
0010
0000
,  // measure 49
0100
0000
0010
0000
,  // measure 50
0100
0000
1001
0000
,  // measure 51
1001
0000
1001
0000
,  // measure 52
0000
0000
0110
0000
,  // measure 53
1001
0000
1000
0000
,  // measure 54
0001
0000
1000
0000
,  // measure 55
0010
0000
0100
0000
,  // measure 56
0010
0000
0100
0000
,  // measure 57
0110
0000
0110
0000
,  // measure 58
1001
0000
1001
0000
,  // measure 59
0001
0000
1000
0000
,  // measure 60
1001
0000
0110
0000
,  // measure 61
1000
0000
0001
0000
,  // measure 62
1000
1000
1000
0000
,  // measure 63
0001
0000
1000
0000
,  // measure 64
0001
0001
0001
0000
,  // measure 65
0010
0010
0010
0000
,  // measure 66
0100
0100
0100
0000
,  // measure 67
0110
0000
1001
0000
,  // measure 68
1001
0000
1000
1000
,  // measure 69
0000
0001
0001
0000
,  // measure 70
1000
0000
0001
0000
,  // measure 71
1001
0000
1000
1000
,  // measure 72
1000
0000
0001
0000
,  // measure 73
0001
0001
0001
0000
,  // measure 74
1000
1000
1000
0000
,  // measure 75
0100
0000
0010
0000
,  // measure 76
0110
0000
0110
0000
,  // measure 77
1000
1000
1000
1000
,  // measure 78
1000
0000
0001
0000
,  // measure 79
0001
0001
0001
0001
,  // measure 80
0001
0000
1000
0000
,  // measure 81
1001
0000
0110
0000
,  // measure 82
1001
0000
0110
0000
,  // measure 83
1001
0000
0000
0000
,  // measure 84
1000
1000
1000
0000
,  // measure 85
0001
0000
1000
0000
,  // measure 86
0001
0001
0001
0000
,  // measure 87
1000
0000
0001
0000
,  // measure 88
0010
0000
0100
0000
,  // measure 89
0010
0010
0010
0000
,  // measure 90
0100
0000
0010
0000
,  // measure 91
0100
0100
0100
0000
,  // measure 92
0110
0000
1001
0000
,  // measure 93
0001
0001
0001
0000
,  // measure 94
1001
0000
0110
0000
,  // measure 95
0010
0010
0010
0000
,  // measure 96
0110
0000
1001
0000
,  // measure 97
1000
1000
1000
0000
,  // measure 98
1001
0000
0110
0000
,  // measure 99
0100
0100
0100
0000
,  // measure 100
1001
0000
0000
0000
;

//---------------dance-single - I need to go to bed right now. Thank god I finished this in time.----------------
#NOTEDATA:;
#CHARTNAME:C 8 X 12;
#STEPSTYPE:dance-single;
#DESCRIPTION:I need to go to bed right now. Thank god I finished this in time.;
#CHARTSTYLE:Pad;
#DIFFICULTY:Medium;
#METER:8;
#RADARVALUES:0.583402,0.683843,0.598674,0.292210,0.078398,573.000000,489.000000,84.000000,41.000000,14.000000,0.000000,2.000000,0.000000,0.000000,0.583402,0.683843,0.598674,0.292210,0.078398,573.000000,489.000000,84.000000,41.000000,14.000000,0.000000,2.000000,0.000000,0.000000;
#CREDIT:CuzcoBlocko;
#DISPLAYBPM:97.500000:195.000000;
#NOTES:
// measure 0
0000
0000
0000
0000
,  // measure 1
0000
0000
0000
0000
,  // measure 2
0000
0000
0000
0000
,  // measure 3
0000
0000
0000
0000
,  // measure 4
0001
1000
0000
0010
0000
1000
0000
0100
0000
1000
0001
0000
1000
0000
0001
0000
,  // measure 5
1000
0010
0000
1000
0001
0010
0001
0020
0400
0000
0000
0000
0000
0000
0330
0000
,  // measure 6
M011
1001
1010
0110
,  // measure 7
1001
0000
0001
0010
0000
0110
0000
0100
,  // measure 8
1000
1100
0110
0011
,  // measure 9
1001
0000
0001
0100
0000
0110
0000
0100
,  // measure 10
0001
0000
0001
0100
1000
0000
1000
0100
,  // measure 11
0010
0000
0010
1000
0000
1000
0001
0010
,  // measure 12
0100
0000
0110
0000
0010
0001
0000
1001
,  // measure 13
0000
0000
0001
0000
1000
0000
0000
0000
0010
0000
0000
1000
0000
0000
0001
0000
,  // measure 14
0000
0011
0000
1001
0000
1010
0000
0110
,  // measure 15
0000
0100
0001
0000
2001
0000
3010
0000
,  // measure 16
0100
0010
0000
0010
1000
0001
0000
0011
,  // measure 17
0000
0010
0100
0000
0210
0000
0301
0000
,  // measure 18
0100
0010
0000
0110
0000
1100
0000
0011
,  // measure 19
0000
0001
1000
0000
2001
0000
3010
0000
,  // measure 20
0010
1000
0000
0010
1000
0001
2000
0002
,  // measure 21
0000
3000
0010
0000
,  // measure 22
2003
3010
0100
0010
,  // measure 23
2000
0000
3001
0200
0010
0300
0100
0020
,  // measure 24
0100
0030
0010
0000
0100
0000
1000
0000
,  // measure 25
0200
0000
0301
0020
0001
0030
0001
0000
,  // measure 26
2000
3010
0100
0001
,  // measure 27
0020
0000
0130
2000
0100
3000
1000
0200
,  // measure 28
0010
0300
0100
0000
0001
0000
0100
2000
,  // measure 29
0000
0100
0000
3100
0010
0000
0011
0000
,  // measure 30
0002
0103
0010
0100
,  // measure 31
0002
0000
1003
0200
0001
0300
0100
0000
,  // measure 32
2000
0000
3010
0000
1000
0001
1000
0001
,  // measure 33
0000
0000
0100
0000
0000
1000
0000
0000
0100
0000
0000
0000
0110
0000
0000
0000
,  // measure 34
2010
3001
0010
0100
,  // measure 35
0020
0000
1030
0020
0100
0030
0010
0001
,  // measure 36
2000
0000
3010
0000
0100
0001
1000
0000
,  // measure 37
2MM2
0000
0000
3003
0M11
0000
0110
0000
,  // measure 38
0100
1000
0000
1100
0000
1000
0010
0000
,  // measure 39
0010
0100
0000
0110
0000
0100
0001
0000
,  // measure 40
1001
0000
1000
0010
0000
0010
0100
0000
,  // measure 41
1100
0000
0101
0000
0001
1000
0001
0000
,  // measure 42
0001
0100
0000
0110
0000
0010
1000
0000
,  // measure 43
1100
0000
0000
0000
0110
0000
0000
0000
010M
0000
0000
0100
1000
0000
0001
0000
,  // measure 44
0000
0001
1000
0000
0020
0000
0100
0000
M000
0000
0000
0000
0031
0000
0000
0000
,  // measure 45
0001
0010
0000
0110
0000
0010
1000
0000
,  // measure 46
1000
0001
0000
0011
0000
0010
0100
0000
,  // measure 47
0100
1000
0000
1001
0000
1000
1000
0000
,  // measure 48
0001
0001
0000
0011
0000
0000
0001
0000
,  // measure 49
0100
1000
0100
0001
,  // measure 50
0010
0000
1000
0000
0010
0001
1000
0010
,  // measure 51
0100
0001
1000
0200
0020
0000
0000
0000
,  // measure 52
0000
0000
0330
0000
4MM1
0000
0000
3001
,  // measure 53
0MM1
0000
1000
0010
1000
0000
0100
0000
,  // measure 54
0010
0000
0100
1000
0001
0000
0100
0000
,  // measure 55
0010
0000
0100
0010
1000
0100
0001
0100
,  // measure 56
0010
0000
0001
1000
0001
0000
0100
0000
,  // measure 57
0010
0000
0100
1000
0100
0000
0001
0000
,  // measure 58
1000
0000
0100
0010
0001
0000
1000
0010
,  // measure 59
0100
0000
0001
0000
1000
0100
0010
1000
,  // measure 60
0000
0010
0001
0000
1001
0000
0110
0000
,  // measure 61
0001
0000
0001
1000
0000
1000
0010
0000
0010
1000
0000
1000
,  // measure 62
0100
0000
0100
0010
0000
0010
0200
0000
0000
0001
0000
0000
,  // measure 63
1300
0000
0001
1000
0100
0010
0100
0001
,  // measure 64
0100
0000
1000
0010
1000
0000
0001
0000
,  // measure 65
0010
0000
0100
1000
0100
0000
1000
0000
,  // measure 66
0010
0000
0001
0010
0001
0000
0010
0100
,  // measure 67
0001
1000
0001
1000
0100
0001
0100
0010
,  // measure 68
0000
0001
1000
0000
1010
0000
1002
0000
,  // measure 69
0000
0000
0013
0001
1000
0000
0010
1000
,  // measure 70
0001
0000
0100
0010
0001
0000
0010
0000
,  // measure 71
1000
0000
0001
0010
0100
0010
0001
0000
,  // measure 72
1000
0000
0100
1000
0001
0000
0100
0000
,  // measure 73
0010
0000
0000
0100
0000
0000
0010
0000
0100
0000
0000
0000
0001
0000
1000
0000
,  // measure 74
0100
0000
0000
0010
0000
0000
0100
0000
1000
0000
0000
0000
0001
0000
0000
0000
,  // measure 75
1001
0000
0001
1000
0001
1000
0100
0010
,  // measure 76
0000
0011
0000
0020
0001
0000
1030
0010
,  // measure 77
0001
0000
1000
0010
0100
0001
1000
0000
,  // measure 78
1100
0101
0011
1010
,  // measure 79
1000
0000
0100
0001
0100
0000
0010
0002
,  // measure 80
1000
0000
0103
0010
0100
0010
1000
0001
,  // measure 81
1000
1100
0011
0101
,  // measure 82
0001
0100
0010
1000
0001
0010
0100
0000
,  // measure 83
2MM2
0000
3003
0000
,  // measure 84
M11M
1001
0011
0110
,  // measure 85
0101
0000
0100
1000
0000
1010
0000
0010
,  // measure 86
0100
1100
0110
1010
,  // measure 87
1001
0000
0001
0010
0000
0110
0000
0010
,  // measure 88
0100
0000
1000
0100
0001
0000
0001
0100
,  // measure 89
1000
0000
0001
0010
0000
0001
1000
0010
,  // measure 90
0100
0000
0110
0000
0100
0001
0000
0011
,  // measure 91
0000
0000
0001
0000
1000
0000
0000
0000
0100
0000
0000
0001
0000
0000
0100
0000
,  // measure 92
0000
1100
0000
1010
0000
0110
0000
1001
,  // measure 93
0000
0001
0010
0000
0210
0000
0001
0000
,  // measure 94
1300
0010
0000
0100
0010
0100
0000
1001
,  // measure 95
0000
0001
0010
0000
1200
0000
0001
0000
,  // measure 96
1300
0010
0000
0110
0000
0101
0000
0011
,  // measure 97
0000
0001
1000
0000
1020
0000
0001
0000
,  // measure 98
0130
0001
0000
1000
0100
0001
0100
1000
,  // measure 99
0000
1001
0000
0100
0100
0000
1001
0000
,  // measure 100
0220
0000
0000
0000
,  // measure 101
0330
0000
0000
0000
;

//---------------dance-single - [no description]----------------
#NOTEDATA:;
#CHARTNAME:C 5 X 7;
#STEPSTYPE:dance-single;
#DESCRIPTION:[no description];
#CHARTSTYLE:Pad;
#DIFFICULTY:Easy;
#METER:5;
#RADARVALUES:0.400134,0.646248,0.156796,0.228066,0.000000,393.000000,371.000000,22.000000,32.000000,4.000000,0.000000,0.000000,0.000000,0.000000,0.400134,0.646248,0.156796,0.228066,0.000000,393.000000,371.000000,22.000000,32.000000,4.000000,0.000000,0.000000,0.000000,0.000000;
#CREDIT:darkanine;
#DISPLAYBPM:97.500000:195.000000;
#NOTES:
// measure 0
0000
0000
0000
0000
,  // measure 1
0000
0000
0000
0000
,  // measure 2
0001
0000
1100
0000
0010
0010
0101
0000
,  // measure 3
1000
0000
0011
0000
0100
0100
1001
0010
,  // measure 4
0100
0000
0011
0000
0100
0100
1010
0000
,  // measure 5
0001
0001
0110
0000
1000
0001
0200
0000
,  // measure 6
0310
0010
1000
1000
,  // measure 7
0001
0001
0010
0100
,  // measure 8
1000
1000
0001
0001
,  // measure 9
0100
0100
0010
1000
,  // measure 10
0001
0001
0010
0100
,  // measure 11
1000
1000
0010
0100
,  // measure 12
0001
0100
1000
0100
,  // measure 13
0001
0010
1000
0100
,  // measure 14
0000
1000
1000
1000
,  // measure 15
1000
0100
0010
0100
,  // measure 16
0000
0001
0001
0001
,  // measure 17
1000
0100
0010
1001
,  // measure 18
0000
0100
0100
0100
,  // measure 19
0010
1000
0100
0001
,  // measure 20
0100
1000
0001
0100
,  // measure 21
0010
0010
0010
0010
,  // measure 22
1000
0100
1000
0100
,  // measure 23
0001
0100
0001
0100
,  // measure 24
0010
0100
0010
0100
,  // measure 25
1000
0001
1000
0001
,  // measure 26
0100
0010
1000
0001
,  // measure 27
0010
0100
1000
0001
,  // measure 28
0100
0100
0010
0020
,  // measure 29
0000
0030
0000
0000
,  // measure 30
0001
0100
0001
0100
,  // measure 31
1000
0100
1000
0100
,  // measure 32
0010
0100
0010
0100
,  // measure 33
0001
0000
1001
0000
,  // measure 34
1000
0100
0010
0001
,  // measure 35
1000
0010
0100
0001
,  // measure 36
2000
3100
0002
0103
,  // measure 37
0020
0000
0130
0001
,  // measure 38
1000
0100
0010
0001
,  // measure 39
1000
0010
0100
0100
,  // measure 40
0010
0010
2000
3200
,  // measure 41
0302
0023
1030
1000
,  // measure 42
0001
0001
0100
0010
,  // measure 43
0100
1000
0200
0302
,  // measure 44
2003
3200
0300
0110
,  // measure 45
0001
0100
1000
0100
,  // measure 46
0001
1000
0100
0001
,  // measure 47
0100
1000
0010
0100
,  // measure 48
0220
0000
0330
1000
,  // measure 49
1000
0001
0001
0100
,  // measure 50
0010
1000
0100
0001
,  // measure 51
0100
1000
2002
0000
,  // measure 52
0000
0000
3003
0000
,  // measure 53
0001
0010
0100
1000
,  // measure 54
0001
0010
1000
0010
,  // measure 55
0001
0100
0010
1000
,  // measure 56
0001
0001
1000
0100
,  // measure 57
0010
0001
1000
0010
,  // measure 58
0100
0001
1000
0100
,  // measure 59
0010
0010
0100
0100
,  // measure 60
2000
0010
0001
3100
,  // measure 61
0011
1000
0101
0100
,  // measure 62
1010
0001
1100
0010
,  // measure 63
1001
0100
0010
0100
,  // measure 64
0001
0001
1000
1000
,  // measure 65
0100
0010
0100
1000
,  // measure 66
0010
0100
0010
0001
,  // measure 67
0010
1000
0001
0100
,  // measure 68
0020
0000
0000
0130
,  // measure 69
0000
1001
1000
0001
,  // measure 70
0010
0100
0010
0100
,  // measure 71
1000
1000
0010
0010
,  // measure 72
0001
0001
0100
0100
,  // measure 73
1000
0001
0100
0010
,  // measure 74
1000
0100
0010
0001
,  // measure 75
1000
0100
0001
0100
,  // measure 76
0020
0100
0100
0130
,  // measure 77
1000
0001
0100
1000
,  // measure 78
0100
0001
0010
0100
,  // measure 79
1000
0100
0001
0100
,  // measure 80
1000
0010
0100
0001
,  // measure 81
0010
0000
1001
0000
,  // measure 82
0100
0000
0110
0000
,  // measure 83
2000
0000
0000
0000
300M
00M0
0M00
M000
,  // measure 84
0002
0203
0320
2030
,  // measure 85
3010
0100
0010
1000
,  // measure 86
0002
0023
0230
2300
,  // measure 87
3010
0100
0001
1000
,  // measure 88
0100
0001
0100
1000
,  // measure 89
0001
0010
1000
0010
,  // measure 90
0001
1000
0010
0001
,  // measure 91
0010
0100
0001
1000
,  // measure 92
0100
0100
0010
0100
,  // measure 93
0001
0100
1000
0100
,  // measure 94
0010
0010
0100
0010
,  // measure 95
0001
1000
0010
0110
,  // measure 96
0001
0100
1000
0100
,  // measure 97
0010
1000
0001
0010
,  // measure 98
0100
0100
1000
0001
,  // measure 99
0200
0010
0010
0310
,  // measure 100
2002
0000
0000
3003
;
